
//----- song ID: th88 -----//
#TITLE:The 88's Instigation;
#ARTIST:MYUKKE.;
#TITLETRANSLIT:;
#ARTISTTRANSLIT:;
#BANNER:The 88's Instigation.png;
#BACKGROUND:The 88's Instigation-bg.png;
#CDTITLE:./CDTitles/DDR WORLD.png;
#MUSIC:The 88's Instigation.ogg;
#SAMPLESTART:44.445;
#SAMPLELENGTH:15;
#BPMS:0=135;
#BGSTAGE:2;
#NOTES:
     dance-single:
     :
     Beginner:
     1:
     :
0000
0000
0000
0000
,
0000
0000
0000
0000
,
0000
0000
0000
0000
,
0000
0000
0000
0000
,
0000
0000
0000
0000
,
0001
0000
0000
0000
,
0000
0000
0000
0000
,
0010
0000
0000
0000
,
0000
0000
0000
0000
,
0010
0000
0000
0000
,
0000
0000
0000
0000
,
1000
0000
0000
0000
,
0000
0000
0000
0000
,
0010
0000
0000
0000
,
0000
0000
0000
0000
,
0010
0000
0000
0000
,
0000
0000
0000
0000
,
0001
0000
0000
0000
,
0000
0000
0000
0000
,
0001
0000
0000
0000
,
0000
0000
0000
0000
,
0010
0000
0000
0000
,
0000
0000
0000
0000
,
0010
0000
0000
0000
,
0000
0000
0000
0000
,
1000
0000
0000
0000
,
0000
0000
0000
0000
,
1000
0000
0000
0000
,
0000
0000
0000
0000
,
0010
0000
0000
0000
,
0000
0000
0000
0000
,
0010
0000
0000
0000
,
0000
0000
0000
0000
,
1000
0000
0000
0000
,
0000
0000
0000
0000
,
0000
0000
0000
0000
,
0000
0000
0000
0000
,
0010
0000
0000
0000
,
0000
0000
0000
0000
,
0010
0000
0000
0000
,
0000
0000
0000
0000
,
0010
0000
0000
0000
,
0000
0000
0000
0000
,
0001
0000
0000
0000
,
0000
0000
0000
0000
,
0100
0000
0000
0000
,
0000
0000
0000
0000
,
0001
0000
0000
0000
,
0000
0000
0000
0000
,
0000
0000
0000
0000
,
0000
0000
0000
0000
,
0001
0000
0000
0000
,
0000
0000
0000
0000
,
0010
0000
0000
0000
,
0000
0000
0000
0000
,
0100
0000
0000
0000
,
0000
0000
0000
0000
,
1000
0000
0000
0000
,
0000
0000
0000
0000
,
1000
0000
0000
0000
,
0000
0000
0000
0000
,
0010
0000
0000
0000
,
0010
0000
0000
0000
,
0010
0000
0000
0000
,
0000
0000
0000
0000
,
0010
0000
0000
0000
,
0000
0000
0000
0000
;
#NOTES:
     dance-single:
     :
     Easy:
     4:
     :
0000
0000
0000
0000
,
0000
0000
0000
0000
,
0000
0000
0000
0000
,
0000
0000
0000
0000
,
0000
0000
0000
0000
,
0001
0000
1000
0000
,
0001
1000
0001
0000
,
0100
0000
0010
0000
,
0100
0000
0000
0000
,
0001
1000
0001
0000
,
1000
0001
1000
0000
,
0100
0000
0010
0000
,
0100
0000
0000
0000
,
1000
0001
1000
0000
,
0001
1000
0001
0000
,
0100
0000
0010
0000
,
0100
0000
0000
0000
,
0001
0001
1000
0000
,
1000
1000
0001
0000
,
0010
0010
0100
0000
,
0010
0000
0000
0000
,
0001
1000
0001
1000
,
0001
0000
0000
0000
,
1000
0001
1000
0001
,
1000
0000
0000
0000
,
0001
0000
1000
0000
,
0010
0100
0010
0000
,
0100
0000
0010
0000
,
0100
0010
0100
0000
,
0001
0001
1000
0000
,
1000
1000
0001
0000
,
0100
0100
0010
0000
,
0010
0010
0100
0000
,
0002
0000
0000
0000
,
0003
0000
0000
0000
,
2000
0000
0000
0000
,
3000
0000
0000
0000
,
0020
0000
0000
0000
,
0030
0000
0000
0000
,
0200
0000
0000
0000
,
0300
0000
0000
0000
,
0010
0100
0010
0100
,
0010
0000
0000
0000
,
0100
0010
0100
0010
,
0100
0000
0000
0000
,
0001
1000
0001
1000
,
0001
0000
0000
0000
,
1000
0001
1000
0001
,
1000
0000
0000
0000
,
0001
0001
0001
0000
,
1000
1000
1000
0000
,
0001
0000
1000
0000
,
0010
0100
0010
0000
,
1000
0000
0001
0000
,
0010
0100
0010
0000
,
0001
1000
0001
0000
,
0100
0010
0100
0000
,
0002
0000
0000
0000
,
0003
0000
0000
0000
,
2000
0000
0000
0000
,
3000
0000
0000
0000
,
0010
0010
0100
0000
,
0100
0100
0010
0000
,
0100
0010
0100
0010
,
0100
0000
0000
0000
,
0110
0000
0000
0000
,
0000
0000
0000
0000
;
#NOTES:
     dance-single:
     :
     Medium:
     8:
     :
0000
0000
0000
0000
,
0000
0000
0000
0000
,
0000
0000
0000
0000
,
0000
0000
0000
0000
,
0000
0000
0000
0000
,
0001
0000
0100
0000
0010
1000
0010
1000
,
0000
0002
2003
3002
,
1003
0000
0100
0000
0010
0001
0010
0001
,
0000
0001
0000
1000
0000
1000
1000
0000
,
0001
0010
1000
0010
,
0001
0010
1000
0010
,
0001
0010
0001
0000
0100
0000
0100
0000
,
0010
1000
0010
0000
0100
0000
0001
0000
,
1000
0010
0001
0010
,
1000
0010
0001
0010
,
1000
0010
1000
0000
0100
0000
0100
0000
,
0010
0001
0010
0000
0100
0000
1000
0000
,
0001
0001
0001
0000
,
1000
1000
1000
0000
,
0010
0010
0010
0000
,
0100
0100
0100
0000
,
0001
0001
0001
0001
,
1000
1000
1000
1000
,
0010
0100
0010
0000
0100
0010
0100
0010
,
0000
0010
2000
3000
,
0001
0000
0010
0000
0100
1000
0100
0000
,
1000
0001
0100
0001
,
1000
0000
0010
0000
0100
0001
0100
0000
,
0001
1000
0100
1000
,
0010
0100
1001
0000
,
0100
0010
1001
0000
,
0001
0000
0100
0000
0001
0010
0100
1000
,
0000
1000
0000
0001
0000
0001
0001
0000
,
2000
0000
3020
0000
,
0130
0000
0001
0000
0010
0001
0010
0000
,
0002
0000
0023
0000
,
0130
0000
1000
0000
0010
1000
0010
0000
,
1000
0000
0100
0000
0010
0000
0001
1000
,
0001
0000
0100
0000
0010
0000
1000
0001
,
1000
0000
0100
0000
0001
0000
0100
1000
,
0000
1000
0000
0001
0000
0001
0001
0000
,
1000
0000
0100
0000
0010
0000
0001
0000
0100
0000
0000
0010
0000
0000
1000
0000
,
0000
0000
1000
0000
0001
0000
0100
0000
0010
0000
0000
0010
0000
0000
0010
0000
,
1000
0000
0001
0000
1000
0000
0001
0000
0010
0000
0000
0100
0000
0000
0010
0000
,
0000
0001
0100
0010
1000
0100
0010
0000
,
0001
0000
0100
0000
0010
0000
1000
0000
0100
0000
0000
0010
0000
0000
0001
0000
,
0000
0000
0001
0000
1000
0000
0100
0000
0010
0000
0000
0010
0000
0000
0010
0000
,
0000
0001
1000
0001
0010
0000
0100
0010
,
0000
0001
1000
0001
2000
0000
3000
0000
,
0001
0001
1000
1000
,
0001
1000
0001
1001
,
1000
0100
0010
0000
0001
0100
0010
0100
,
0000
0001
0010
0100
1000
0001
1000
0000
,
0002
0000
1003
0100
0020
0000
0130
1000
,
0000
1000
0010
0000
1010
0000
0101
0000
,
0001
0000
0100
0000
1000
0000
0100
0001
,
0000
0001
0000
1000
2000
0000
3000
0000
,
0002
0000
2003
0000
,
3200
0000
0320
0000
,
0031
0000
0100
0000
0010
1000
0100
1000
,
0000
1000
0000
0001
0002
0000
0003
0000
,
1000
0000
0010
0000
0100
0001
0010
0001
,
0000
0020
0230
2300
,
3001
0100
0010
0000
1000
0100
0010
0001
,
0000
0001
0000
1000
0000
1000
1000
0000
,
0010
0000
0000
0000
,
0000
0000
0000
0000
;
#NOTES:
     dance-single:
     :
     Hard:
     13:
     :
0000
0000
0000
0000
,
0000
0000
0000
0000
,
0000
0000
0000
0000
,
0000
0000
0000
0000
,
0000
0000
0000
0000
,
0001
0010
0001
0100
0001
0010
0100
1000
,
0000
0000
1000
0010
0100
0000
0001
0100
0010
0000
1000
0000
0100
0000
0000
0000
,
1000
0100
1000
0000
0010
0000
0100
0000
0001
0010
0001
0000
0010
0000
1001
0000
,
0000
1010
0000
0101
0000
1000
1000
1000
,
0001
0100
1000
0100
0001
0100
1000
0100
,
0001
0010
0100
0001
0100
0010
0001
0000
,
1000
0100
0001
0100
1000
0100
0001
0100
,
1000
0010
0100
1000
0100
0010
1000
1000
,
0000
0000
1010
0000
0000
0000
1100
0000
0000
0000
1000
0001
1000
0000
0001
0000
,
0010
0000
0001
0000
0100
0000
1000
0000
0100
0010
0000
0100
0010
0000
0010
0000
,
1000
0000
0001
0000
1001
0000
0100
0010
0100
0000
0010
0000
1001
0000
0000
0000
,
0001
0000
1000
0100
0000
0001
0100
0000
1000
0000
0001
0000
1001
0000
0000
0000
,
1000
0010
1000
0000
1000
0000
0000
0000
0001
0010
0001
0000
0001
0000
0000
0000
,
1000
0100
1000
0000
1000
0000
0001
0100
0000
0001
0100
0000
0010
0000
0000
0000
,
1000
0010
1000
0000
1000
0000
0000
0000
0001
0010
0001
0000
0001
0000
0000
0000
,
1000
0010
0001
0010
0100
0001
0001
0000
,
0001
0010
0001
0000
0001
0000
0000
0000
1000
0010
1000
0000
1000
0000
0000
0000
,
0001
0100
0001
0000
0001
0000
1000
0100
0000
1000
0100
0000
0010
0000
0000
0000
,
0001
0100
1000
0100
0001
1000
0110
1001
,
0000
1000
0100
0010
0002
0000
1003
0000
,
1000
0001
0010
0100
1000
0010
0001
0010
,
0000
0000
1000
0000
0001
0000
1000
0100
1000
0000
0010
0000
0110
0000
0000
0000
,
0001
1000
0100
0010
0001
0100
1000
0100
,
0000
0000
0001
0000
1000
0000
0001
0010
0001
0000
0100
0000
0110
0000
0000
0000
,
1000
0000
0001
0000
0100
0010
0100
0010
0100
0000
0001
0000
0010
0000
0100
0000
,
0000
0000
0100
0000
1000
0000
1000
0000
0010
1000
0000
0100
1000
0000
0000
0000
,
0001
0000
1000
0000
0100
0010
0100
0010
0100
0000
1000
0000
0010
0000
0100
0000
,
0000
0101
0000
0011
0000
1000
1001
0000
,
2000
0000
0010
0000
3002
0000
0013
0100
,
0000
0100
1000
0010
2000
0000
3001
0000
,
0002
0000
0010
0000
2003
0000
3010
0100
,
0000
0000
0100
0000
1001
0000
0001
0010
0001
0000
1000
0000
0100
0000
0000
0000
,
1000
0100
1000
0000
1000
0010
0100
0001
,
0010
0100
0010
0000
0010
0001
0100
0010
,
1000
0100
0001
0100
1000
0100
0001
0100
,
0000
0000
0110
0000
0000
0000
1001
0000
0000
0000
0001
1000
0001
0000
0000
0000
,
1000
0000
0001
0000
0100
0000
0010
0000
2000
0000
0000
0010
0000
0000
3100
0000
,
0000
0000
1000
0000
0100
0000
0010
0000
0001
0000
0100
0010
0000
0100
0010
0000
,
1000
0000
0001
0000
0010
0000
0001
0000
0200
0000
0000
1000
0000
0000
0301
0000
,
0000
0000
0001
0000
0010
0100
0000
1000
0001
0000
0100
0000
0110
0000
0000
0000
,
0001
0000
1000
0000
0010
0000
0100
0000
0002
0000
0000
0100
0000
0000
0013
0000
,
0000
0000
0001
0000
0010
0000
0100
0000
1000
0010
0000
0100
0000
0010
0100
0000
,
0001
1000
0100
0001
0100
1000
0010
0110
,
0000
0000
1000
0100
0010
0000
0001
0000
2000
0000
0000
0000
3001
0000
0000
0000
,
1000
0010
1000
0000
1000
0000
0000
0000
0001
0010
0001
0000
0001
0000
0000
0000
,
1000
0010
1000
0000
1000
0000
0010
0100
0000
0010
0100
0000
0001
0000
0001
0000
,
1000
0010
0100
0001
0010
0100
0010
0001
,
0000
0001
1000
0000
0100
0000
0010
0000
0001
0000
1000
0000
1001
0000
0000
0000
,
0001
0100
0010
0100
0001
0010
0100
0010
,
0000
0001
1000
0000
0001
0100
0010
0000
1000
0000
0100
0000
1000
0000
0010
0000
,
0100
0000
1000
0000
0100
0000
0001
0000
1000
0000
0100
0010
0001
0000
1000
0000
,
0000
0000
1000
0000
0010
0100
0001
0000
2000
0000
0000
0000
3001
0000
0000
0000
,
1000
0000
0100
0000
0010
0000
0001
1000
0001
0000
0010
0000
1000
0000
0010
0000
,
0000
0020
0032
2003
,
3100
0000
1000
0000
0010
0000
0100
0010
0100
0000
0001
0000
0010
0000
0001
0000
,
0000
0000
0001
1000
0001
0000
0010
0000
0020
0000
0100
0000
0130
0000
0000
0000
,
1000
0010
0001
0010
1000
0100
0001
0100
,
0000
0000
1000
0100
0010
0000
0001
0000
2000
0000
0000
0000
3001
0000
0000
0000
,
1000
0010
1000
0000
0001
0000
0100
0000
0001
0010
0001
0000
1000
0000
0100
0000
,
0000
0100
0010
0001
0000
1000
1000
1000
,
0001
0000
0000
0000
,
0000
0000
0000
0000
;
#NOTES:
     dance-double:
     :
     Easy:
     4:
     :
00000000
00000000
00000000
00000000
,
00000000
00000000
00000000
00000000
,
00000000
00000000
00000000
00000000
,
00000000
00000000
00000000
00000000
,
00000000
00000000
00000000
00000000
,
00000001
00000000
00001000
00000000
,
00000010
00000100
00000010
00000000
,
00001000
00000000
00000010
00000000
,
00010000
00000000
00000000
00000000
,
00001000
00010000
00001000
00000000
,
00001000
00010000
00001000
00000000
,
00010000
00000000
00100000
00000000
,
10000000
00000000
00000000
00000000
,
10000000
00010000
10000000
00000000
,
10000000
00010000
10000000
00000000
,
01000000
00000000
00100000
00000000
,
00001000
00000000
00000000
00000000
,
00001000
00001000
00010000
00000000
,
00010000
00010000
00000100
00000000
,
00000100
00001000
00000010
00000100
,
00000001
00000000
00000000
00000000
,
00000001
00000001
00001000
00000000
,
00001000
00001000
00000100
00000000
,
00000100
00010000
00001000
00010000
,
00001000
00000000
00000000
00000000
,
00001000
00000000
01000000
00000000
,
00010000
00100000
00010000
00000000
,
10000000
00000000
01000000
00000000
,
00100000
00010000
10000000
00000000
,
01000000
00000000
00100000
00000000
,
00001000
00010000
00001000
00000000
,
00010000
00000100
00010000
00000000
,
00000100
00001000
00000100
00000000
,
00000020
00000000
00000000
00000000
,
00000030
00000000
00000000
00000000
,
00000002
00000000
00000000
00000000
,
00000003
00000000
00000000
00000000
,
00002000
00000000
00000000
00000000
,
00003000
00000000
00000000
00000000
,
00000200
00000000
00000000
00000000
,
00000300
00000000
00000000
00000000
,
00010000
00001000
00010000
00000000
,
00010000
00001000
01000000
00000000
,
00010000
00100000
01000000
10000000
,
00010000
00000000
00000000
00000000
,
10000000
01000000
10000000
00000000
,
00010000
00100000
00010000
00000000
,
00100000
00001000
00010000
00001000
,
00010000
00000000
00000000
00000000
,
00020000
00000000
00000000
00030000
,
00002000
00000000
00000000
00003000
,
00010000
00000010
00001000
00000000
,
00001000
00000001
00000100
00000000
,
00000001
00000010
00000100
00000000
,
00000100
00010000
00001000
00000000
,
00001000
00010000
00100000
01000000
,
00200000
00000000
00000000
00300000
,
10000000
00000000
01000000
00000000
,
00100000
00100000
00100000
00000000
,
00001000
00000000
00010000
00000000
,
00011000
00000000
00000000
00000000
,
00001000
00010000
00000100
00000000
,
00001000
00000100
00000010
00000000
,
00000001
00000010
00001000
00010000
,
00001000
00000000
00000000
00000000
,
00011000
00000000
00000000
00000000
,
00000000
00000000
00000000
00000000
;
#NOTES:
     dance-double:
     :
     Medium:
     8:
     :
00000000
00000000
00000000
00000000
,
00000000
00000000
00000000
00000000
,
00000000
00000000
00000000
00000000
,
00000000
00000000
00000000
00000000
,
00000000
00000000
00000000
00000000
,
00000001
00000000
00000100
00000010
00001000
00000000
00000010
00010000
,
00000000
00020000
00032000
00023000
,
00130000
00000000
10000000
00000000
00010000
01000000
00100000
10000000
,
00000000
00010000
00000000
00010000
00000000
00100000
00100000
00000000
,
00001000
00000010
00001000
00010000
,
00001000
00000000
00000010
00000000
00000001
00001000
00000001
00000000
,
00000100
00000000
00000110
00000000
00000010
00001000
00000010
00000000
,
00010000
00001000
00010000
00011000
,
00010000
00100000
00010000
00001000
,
00010000
00000000
00100000
00000000
10000000
00010000
10000000
00000000
,
01000000
00000000
01100000
00000000
00100000
00010000
00100000
00000000
,
00001000
00010000
00001000
00011000
,
00001000
00000010
00001000
00000000
,
00010000
00100000
00010000
00000000
,
00001000
00000100
00001000
00000000
,
00010000
01000000
00010000
00000000
,
00001000
00010000
00000100
00001000
,
00000001
00000100
00000010
00001000
,
00000100
00000000
00010000
00000000
00001000
00010000
00001000
00010000
,
00000000
00010000
00001000
00000000
00022000
00000000
00033000
00000000
,
00001000
00000000
01000000
00000000
00010000
00100000
00010000
00000000
,
10000000
01000000
00010000
01000000
,
10000000
00000000
00100000
00000000
01000000
00010000
01000000
00000000
,
00010000
00100000
00001000
00000000
,
00010000
00000000
00000100
00000000
00001000
00000010
00001000
00000000
,
00000001
00000100
00001000
00000100
,
00000001
00000000
00000010
00000000
00000100
00001000
00000100
00000000
,
00001000
00000010
00010000
00000000
,
00002000
00000000
00023000
00000000
,
00130000
00000000
01000000
00000000
00100000
01000000
00100000
00000000
,
00020000
00000000
00032000
00000000
,
00003010
00000000
00000100
00000000
00000010
00000100
00000010
00000000
,
00000001
00000000
00000001
00000000
00000100
00000000
00000100
00000010
,
00001000
00000000
00001000
00000000
00000010
00010000
00001000
00000000
,
00010000
00000000
00010000
00000000
00100000
00000000
00100000
10000000
,
00000000
10000000
00000000
00010000
00000000
00010000
00010000
00000000
,
10000000
00000000
01000000
00000000
00100000
00000000
00000000
00000000
00001000
00000000
00000000
00010000
00000000
00000000
00001000
00000000
,
00000000
00000000
00001000
00000000
00010000
00000000
00000100
00000000
00001000
00000000
00000000
00001000
00000000
00000000
00001000
00000000
,
00000100
00000000
00010000
00000000
00001000
00000000
00000100
00000000
00000010
00000000
00000000
00001000
00000000
00000000
00000010
00000000
,
00000000
00010000
00000100
00000010
00001000
00000010
00000001
00000000
,
00000001
00000000
00000100
00000000
00000010
00000000
00000000
00000000
00010000
00000000
00000000
00001000
00000000
00000000
00010000
00000000
,
00000000
00000000
00010000
00000000
00001000
00000000
01000000
00000000
00010000
00000000
00000000
00010000
00000000
00000000
00010000
00000000
,
01000000
00001000
00010000
01000000
00100000
00010000
00100000
00001000
,
00000000
00001000
00010000
00100000
20000000
00000000
30000000
00000000
,
00010000
00010000
10000000
10000000
,
01000000
00010000
00001000
00011000
,
00010000
00000100
00001000
00000000
00000100
00000010
00000001
00001000
,
00000000
00000001
00000100
00000001
00001000
00000010
00001000
00000000
,
00000002
00000000
00000103
00000010
00002000
00000000
00003100
00010000
,
00000000
00010000
00001000
00000000
00101000
00000000
00110000
00000000
,
00010000
00100000
01000000
00000000
10000000
01000000
00100000
00010000
,
00000000
00010000
00000000
00100000
00002000
00000000
00003000
00000000
,
00020000
00000000
00032000
00000000
,
00003020
00000000
00000031
00000001
,
00001000
00000000
00000001
00000000
00000100
00000000
00001000
00010000
,
00000000
00010000
00000000
00001000
00002000
00000000
00003000
00000000
,
00010000
00000000
00001000
00000000
01000000
00010000
00100000
00010000
,
00000000
00020000
00230000
02300000
,
13000000
00010000
01000000
00000000
00010000
00100000
00001000
00010000
,
00000000
00001000
00000000
00000100
00000000
00000001
00000001
00000000
,
00001000
00000000
00000000
00000000
,
00000000
00000000
00000000
00000000
;
#NOTES:
     dance-double:
     :
     Hard:
     13:
     :
00000000
00000000
00000000
00000000
,
00000000
00000000
00000000
00000000
,
00000000
00000000
00000000
00000000
,
00000000
00000000
00000000
00000000
,
00000000
00000000
00000000
00000000
,
00000001
00000010
00000100
00001000
00000010
00000100
00001000
00010000
,
00000000
00000000
00010000
00000000
00001000
00100000
00000000
00010000
01000000
00000000
00100000
10000000
00100000
00000000
00000000
00000000
,
10000000
01000000
10000000
00000000
01000000
00000000
00010000
00000000
00001000
00010000
00001000
00000000
00000010
00000000
00000001
00000000
,
00000000
00000101
00000000
00000110
00000000
00001000
00001000
00001000
,
00000001
00000100
00001000
00010000
00001000
00000100
00000001
00000010
,
00000001
00000100
00001000
00010000
00100000
01000000
01100000
00000000
,
10000000
01000000
00010000
00001000
00010000
01000000
10000000
00100000
,
10000000
01000000
00010000
00001000
00000010
00000100
00000110
00000000
,
00000000
00000000
00000011
00000000
00000000
00000000
00001001
00000000
00000000
00000000
00001000
00000100
00001000
00000000
00000010
00000000
,
00000100
00000000
00001000
00000000
00010000
00000000
01000000
00000000
00010000
00001000
00000000
00010000
00001000
00000000
00000000
00000000
,
00001000
00000000
00100000
00000000
00010000
00000000
01000000
00100000
01000000
00000000
00010000
00000000
00100000
00000000
01000000
00000000
,
10000000
00000000
01000000
00100000
00000000
00010000
10000000
00000000
01000000
00000000
00010000
00000000
00011000
00000000
00000000
00000000
,
00001000
00000010
00001000
00000000
00010000
00100000
00010000
00000000
,
00001000
00000000
00000100
00000000
00001000
00000000
00010000
00001000
00000000
00010000
00001000
00000000
00010000
00000000
00000000
00000000
,
00001000
00000010
00001000
00000000
00010000
00100000
00010000
00000000
,
00001000
00000000
00010000
00000000
00000100
00001000
00000100
00000000
00000010
00000000
00000001
00000000
00001001
00000000
00000000
00000000
,
00001000
00000010
00001000
00000000
00000010
00000000
00000000
00000000
00010000
00001000
00010000
00000000
00001000
00000000
00000000
00000000
,
01000000
00010000
01000000
00000000
00010000
00000000
10000000
01000000
00000000
10000000
01000000
00000000
00100000
00000000
00000000
00000000
,
00010000
01000000
00001000
00010000
00000010
00001000
00000110
00001001
,
00000000
00000001
00000100
00001000
00020000
00000000
00031000
00000000
,
00001000
00010000
00100000
01000000
00001000
00010000
01000000
00100000
,
00000000
00000000
00100000
00000000
00010000
00000000
10000000
01000000
00100000
00000000
00010000
00000000
00100000
00000000
00000000
00000000
,
00001000
00010000
00000100
00000010
00001000
00010000
00000100
00001000
,
00000000
00000000
00001000
00000000
00000010
00000000
00000100
00000001
00001000
00000000
00000100
00000000
00000110
00000000
00000000
00000000
,
00000001
00000000
00001000
00000000
00000100
00000010
00000100
00000010
00000100
00000000
00010000
00000000
00001000
00000000
00010000
00000000
,
00000000
00000000
00010000
00000000
01000000
00000000
10000000
00000000
00100000
01000000
00000000
00010000
10000000
00000000
00000000
00000000
,
10000000
00000000
00010000
00000000
01000000
00100000
01000000
00100000
01000000
00000000
00001000
00000000
00010000
00000000
00001000
00000000
,
00000000
00011000
00000000
00000110
00000000
00000001
00000001
00000000
,
00002000
00000000
00000010
00000000
00003002
00000000
00000013
00000100
,
00000000
00000100
00000010
00001000
00010000
01000000
00100000
00000000
,
00020000
00000000
00100000
00000000
20030000
00000000
30100000
01000000
,
00000000
00000000
01000000
00000000
01100000
00000000
00100000
10000000
00100000
00000000
01000000
00000000
00010000
00000000
00000000
00000000
,
00100000
00001000
00100000
00000000
00100000
00001000
00010000
00001000
,
00000000
00001000
00010000
00000100
00001000
00000000
00000110
00000000
,
00000001
00000100
00000010
00001000
00010000
01000000
00100000
10000000
,
00000000
00000000
01100000
00000000
00000000
00000000
10010000
00000000
00000000
00000000
00010000
10000000
00010000
00000000
00000000
00000000
,
10000000
00000000
00100000
00000000
01000000
00000000
00001000
00000000
00020000
00000000
00000000
00100000
00000000
00000000
00031000
00000000
,
00000000
00000000
00001000
00100000
00001000
00000000
00010000
00000000
00000100
00000000
00000010
00000000
00001000
00000000
00000010
00000000
,
00000100
00000000
00010000
00000000
00001000
00000000
00000100
00000000
00000020
00000000
00000000
00000001
00000000
00000000
00001030
00000000
,
00000000
00000000
00000010
00000000
00001000
00000010
00000000
00010000
00001000
00000000
00010000
00000000
00000100
00000000
00001000
00000000
,
00000001
00000000
00000010
00000000
00000100
00000000
00010000
00000000
00002000
00000000
00000000
00000010
00000000
00000000
00013000
00000000
,
00000000
00000000
00010000
00000010
00010000
00000000
00001000
00000000
01000000
00100000
00000000
00010000
00000000
00100000
01000000
00000000
,
00001000
00010000
01000000
00100000
00010000
10000000
01000000
01100000
,
00000000
00000000
00100000
00000000
00001000
00010000
00001000
00000000
00020000
00000000
00000000
00000000
00030000
00000000
00000000
00000000
,
00001000
00000010
00001000
00000000
00010000
00100000
00010000
00000000
,
00001000
00000000
00000100
00000000
00001000
00000000
00010000
00001000
00000000
00010000
00001000
00000000
00010000
00000000
00000000
00000000
,
00010000
00001000
00000100
00000001
00000010
00000100
00001000
00000010
,
00000000
00000010
00001000
00000000
00000100
00000000
00010000
00000000
00001000
00000000
00100000
00000000
00010000
00000000
00000000
00000000
,
10000000
01000000
00100000
00010000
01000000
00100000
00010000
00001000
,
00000000
00001000
00010000
00000000
00000100
00001000
00000100
00000000
00000010
00000000
00001000
00000000
00000010
00000000
00000001
00000000
,
00000100
00000000
00001000
00000000
00010000
00000000
00001000
00000000
00000100
00000000
00000010
00001000
00000010
00000000
00010000
00000000
,
00000000
00000000
00010000
00000000
00001000
00100000
00001000
00000000
02000000
00000000
00000000
00000000
03100000
00000000
00000000
00000000
,
10000000
01000000
00100000
00010000
00001000
00000100
00000010
00000001
,
00000000
00000002
00000023
00002030
,
00013000
00000000
01000000
00000000
00100000
00000000
00010000
10000000
00010000
00000000
01000000
00000000
10000000
00000000
01000000
00000000
,
00000000
00000000
01000000
00100000
01000000
00000000
00010000
00000000
00100000
00000000
00001000
00000000
00011000
00000000
00000000
00000000
,
00010000
00001000
00000010
00000100
00001000
00000001
00000100
00001000
,
00000100
00000000
00000010
00000000
00010000
00001000
00010000
00000000
00001000
00000000
01000000
00000000
00010000
00000000
00000000
00000000
,
10000000
00000000
01000000
00100000
01000000
00000000
00010000
00000000
00001000
00010000
00001000
00000000
00000010
00000000
00000001
00000000
,
00000000
00000101
00000000
00000110
00000000
00000010
00010000
00001000
,
00011000
00000000
00000000
00000000
,
00000000
00000000
00000000
00000000
;
