
//----- song ID: tari -----//
#TITLE:旅人リラン;
#ARTIST:XOGO BRYKK;
#TITLETRANSLIT:Tabibito Rerun;
#BANNER:Tabibito Rerun.png;
#BACKGROUND:Tabibito Rerun-bg.png;
#CDTITLE:./CDTitles/bm IIDX 18 Resort Anthem.png;
#MUSIC:Tabibito Rerun.ogg;
#SAMPLESTART:83.606;
#SAMPLELENGTH:15;
#BPMS:0=155;
#NOTES:
     dance-single:
     :
     Beginner:
     3:
     :
0000
0000
0000
0000
,
0000
0000
0000
0000
,
0000
0000
0000
0000
,
0000
0000
0000
0000
,
0000
0000
0000
0000
,
0000
0000
0000
0000
,
0001
0000
0001
0000
,
1000
0000
1000
0000
,
0001
0000
0001
0000
,
1000
0000
1000
0000
,
0010
0000
0010
0000
,
0100
0000
0100
0000
,
0010
0000
0010
0000
,
0100
0000
0100
0000
,
0001
0000
1000
0000
,
0001
0000
1000
0000
,
0010
0000
0100
0000
,
0010
0000
0100
0000
,
0002
0000
0003
0000
,
2000
0000
3000
0000
,
0002
0000
0003
0000
,
0010
0000
0010
0000
,
0002
0000
0003
0000
,
2000
0000
3000
0000
,
0002
0000
0003
0000
,
0010
0010
0010
0000
,
0001
0000
0001
0000
,
0010
0000
0010
0000
,
0100
0000
0100
0000
,
1000
0000
1000
0000
,
0010
0000
0010
0000
,
0100
0000
0100
0000
,
0001
0000
0001
0000
,
1000
0000
1000
0000
,
0020
0000
0030
0000
,
0200
0000
0300
0000
,
0020
0000
0030
0000
,
1000
1000
1000
0000
,
0002
0000
0003
0000
,
2000
0000
3000
0000
,
0002
0000
0003
0000
,
0010
0000
0010
0000
,
0010
0000
0010
0000
,
0100
0000
0100
0000
,
0100
0000
0100
0000
,
1000
0000
0000
0000
,
1000
0000
0000
0000
,
0001
0000
0000
0000
,
0001
0000
0000
0000
,
0010
0000
0010
0000
,
0100
0000
0100
0000
,
0010
0000
0010
0000
,
0100
0000
0100
0000
,
0000
0000
0000
0000
,
1000
0000
0000
0000
,
1000
0000
0000
0000
,
0001
0000
0001
0000
,
0001
0001
0001
0000
,
0010
0000
0000
0000
,
0010
0000
0000
0000
,
0100
0000
0100
0000
,
0100
0100
0100
0000
,
1000
0000
1000
0000
,
0100
0000
0100
0000
,
0010
0000
0010
0000
,
0001
0000
0001
0000
,
0100
0000
0100
0000
,
0010
0000
0010
0000
,
1000
0000
1000
0000
,
0001
0000
0001
0000
,
2000
0000
3000
0000
,
0002
0000
0003
0000
,
0200
0000
0300
0000
,
0020
0000
0030
0000
,
1000
0000
0000
0000
,
0001
0000
0000
0000
,
1000
0000
0000
0000
,
0001
0000
1000
0000
,
0000
0000
0000
0000
;
#NOTES:
     dance-single:
     :
     Easy:
     7:
     :
0000
0000
0000
0000
,
0000
0000
0000
0000
,
0000
0000
0000
0000
,
0000
0000
0000
0000
,
0000
0000
0000
0000
,
0000
0000
0000
0000
,
0001
0000
0001
0000
,
1000
0000
1000
0000
,
0001
0000
0001
0000
,
1000
0000
1000
0000
,
0001
0001
0010
0010
,
0100
0100
1000
1000
,
0010
0010
0100
0100
,
0001
0001
1000
1000
,
0001
0001
0100
0100
,
0010
0010
1000
1000
,
0100
0100
0010
0010
,
0001
0001
1000
1000
,
0010
1000
0010
0000
,
0100
0001
0100
0000
,
0010
0100
0010
0000
,
1000
1000
1010
0010
,
1000
0100
1000
0000
,
0001
0010
0001
0000
,
1000
0001
1000
0000
,
0010
0100
0110
1001
,
0001
0010
0001
0010
,
0100
1000
0100
0100
,
1000
0010
1000
0010
,
0100
0001
0100
0100
,
0001
1000
0001
1000
,
0010
0100
0010
0010
,
1000
0100
1000
0100
,
0010
0001
0010
0010
,
0002
0000
0013
0000
,
0200
0000
1300
0000
,
0002
0000
0103
0000
,
0010
0010
0010
1000
,
0002
0000
0103
0000
,
0020
0000
1030
0000
,
0200
0000
0310
0001
,
0010
0011
0010
0011
,
1000
1100
1000
1100
,
0001
0101
0001
0101
,
1000
0010
0100
0101
,
1000
0000
1000
0000
,
0001
0000
0001
0000
,
1000
0000
1000
0000
,
0001
0000
0001
0000
,
0010
0001
1000
0000
,
0010
0000
0010
0000
,
0100
0001
1000
0000
,
0100
0000
0100
0000
,
0000
0000
0000
0000
,
0010
0100
1000
0000
,
0001
0000
0001
0000
,
0100
0010
1000
0000
,
0001
0001
0001
0000
,
0010
0001
1000
0000
,
0010
0100
0010
0000
,
1000
0001
0100
0000
,
0010
0100
0010
0100
,
0010
0010
0100
0100
,
0001
0001
1000
1000
,
0100
1000
0010
1000
,
0100
1000
0010
1000
,
0010
0010
0100
0100
,
0001
0001
1000
1000
,
0020
0030
0200
0300
,
0001
0010
0001
0100
,
0020
0100
0030
0000
,
0002
1000
0003
0000
,
0200
0010
0300
0000
,
0110
0000
1001
0000
,
1000
0001
0000
0000
,
0001
1000
0000
0000
,
1000
0001
0000
0000
,
1000
0000
0001
0000
,
0000
0000
0000
0000
;
#NOTES:
     dance-single:
     :
     Medium:
     11:
     :
0000
0000
0000
0000
,
0000
0000
0000
0000
,
0000
0000
0000
0000
,
0000
0000
0000
0000
,
0000
0000
0000
0000
,
0000
0000
0000
0000
,
1000
0100
0010
0000
,
0001
0100
0010
0000
,
1000
0010
0100
0000
,
0001
0010
0100
0000
,
1000
0100
1000
0000
0010
0000
0010
0000
,
0100
0001
0100
0000
0010
0000
0010
0000
,
0100
0010
0100
0000
0001
1000
0001
0000
,
0010
0100
0010
0000
0100
0000
0100
0000
,
0010
0001
0010
0000
0100
0000
0100
0000
,
1000
0010
1000
0000
0100
0000
0100
0000
,
0010
0100
0010
0000
0001
1000
0001
0000
,
0010
0100
1000
0100
0010
0000
0000
0000
,
0001
0100
1000
0000
0100
0000
0000
0000
,
0001
0100
0010
0000
0100
0000
0000
0000
,
0010
1000
0100
0000
0010
0001
0100
0000
,
1010
0000
0101
0000
0001
1000
0001
0000
,
1000
0100
0001
0000
0100
0000
0000
0000
,
1000
0100
0010
0000
0100
0000
0000
0000
,
0010
0001
0100
0000
0010
1000
0100
0000
,
0011
0000
1100
0000
0100
0010
0100
0000
,
0001
0100
0010
0000
0100
0000
0001
0000
,
0100
0000
1000
0000
0010
1000
0100
0000
,
0010
0001
0100
0000
1000
0000
0100
0000
,
0010
0000
0100
0000
1000
0100
0001
0000
,
1000
0100
0001
0000
0100
0000
1000
0000
,
0010
0100
0001
0010
,
0011
0000
1100
0000
,
1000
0000
0100
0000
0010
0001
0010
0000
,
0001
0000
0100
0010
1000
0000
0010
1000
,
0100
0000
1000
0001
0010
0000
0100
1000
,
0010
0000
0100
0001
1000
0000
0010
0000
,
0110
1001
0011
1000
,
0001
0000
1000
0010
0100
0000
0010
1000
,
0100
0000
1000
0001
0100
0000
0001
1000
,
0010
0000
0100
0001
0010
0000
0100
0000
,
1100
0011
0101
1010
,
0110
0011
0110
1010
,
1001
0110
1001
0011
,
1001
0000
1010
0000
1000
0001
1000
0000
,
0001
0100
0010
1000
,
0001
0000
0100
0000
0010
1000
0010
0000
,
1000
0100
0010
0001
,
1000
0000
0100
0000
0010
0001
0010
0000
,
0100
0010
0100
0000
,
0010
0000
0001
1000
0100
1000
0001
0000
,
0010
0001
0100
0001
,
0011
1001
0101
0001
,
0000
0000
0000
0000
,
1000
0100
0001
0000
0100
0000
1000
0000
,
0010
0000
0100
0001
0100
0010
1000
0001
,
0100
0001
0010
0100
,
1100
1001
0011
0000
,
0001
0010
0100
0010
,
0001
0000
1000
0010
1000
0001
0010
0100
,
2000
3020
0032
0023
,
0230
0302
0023
2030
,
3010
0001
0100
0000
0100
0001
0010
0000
,
0100
1000
0010
0000
0010
1000
0100
0000
,
0010
0100
0001
0000
0001
0100
0010
0000
,
0100
0010
1000
0000
1000
0010
0100
0000
,
0001
0100
1000
0010
1000
0100
0001
0000
,
0100
0000
1000
0000
0010
0000
0100
0000
0001
0000
0000
1000
0000
0000
0010
0000
,
0100
0000
0010
0100
0010
0000
1000
0000
,
0001
0001
0010
0000
0100
0100
0010
0000
,
0001
0100
0010
0000
1000
0000
0001
0000
,
0100
0010
0100
0000
0001
0000
1000
0000
,
0001
0100
0010
0000
1000
0000
0100
0000
,
0010
0000
0001
0000
,
1000
0010
1000
0000
0000
0000
0000
0000
,
0001
0100
0001
0000
0000
0000
0000
0000
,
0010
0100
0010
0000
0000
0000
0000
0000
,
0001
0000
1000
0000
,
0000
0000
0000
0000
;
#NOTES:
     dance-single:
     :
     Hard:
     15:
     :
0000
0000
0000
0000
,
0000
0000
0000
0000
,
0000
0000
0000
0000
,
0000
0000
0000
0000
,
0000
0000
0000
0000
,
0000
0000
0000
0000
,
2000
0000
3100
0010
0001
0100
0010
0000
,
0002
0000
0013
1000
0100
0001
0100
0000
,
2000
0000
3010
0100
0001
0010
0100
0000
,
0002
0000
1003
0010
0001
0010
1000
0000
,
0010
0000
0001
1000
0001
0000
0100
0000
0010
0000
1000
0001
1000
0000
0010
0000
,
0100
0000
0010
1000
0010
0000
0100
0000
0001
0000
0010
0000
0001
0000
1000
0000
,
0010
0000
1000
0001
1000
0000
0100
0000
0010
0000
0001
1000
0001
0000
0010
0000
,
0100
0000
0010
0001
0010
0000
0100
0000
1000
0000
0001
0000
1000
0000
0000
0000
,
0001
0000
0100
0010
0100
0000
1000
0000
0001
0000
0010
0100
0010
0000
1000
0000
,
0001
0000
0100
1000
0100
0000
0001
0000
0010
0000
0100
0000
0010
0000
0100
0000
,
1000
0000
0100
0010
0100
0000
0001
0000
1000
0000
0010
0100
0010
0000
0001
0000
,
1000
0000
0100
0000
0010
0001
0010
0001
0010
0000
0001
0000
0100
0000
0000
0000
,
0010
0000
0000
1000
0100
0000
1000
0000
0100
0000
1000
0000
0001
0000
0010
0000
,
0100
0000
0000
1000
0010
0000
1000
0000
0010
0000
1000
0000
0100
0000
0000
0000
,
0010
0000
0000
0001
0100
0000
0001
0000
0010
0000
1000
0000
0010
0000
0001
0000
,
0010
0000
0001
1000
0001
0000
0010
0000
0001
0000
0010
0000
0011
0000
0000
0000
,
0010
0000
0000
0001
0100
0000
0001
0000
0100
0000
0001
0000
1000
0000
0010
0000
,
0100
0000
0000
0001
0010
0000
0001
0000
0010
0000
0001
0000
0100
0000
0000
0000
,
0010
0000
1000
0100
1000
0000
0001
0000
0010
0000
0100
0010
0100
0000
0001
0000
,
0100
0000
1000
0001
1000
0001
1000
0000
0001
0100
0001
0000
0101
0000
0000
0000
,
0100
0000
0001
1000
0010
0000
1000
0000
0001
0000
1000
0000
0100
0000
0010
0000
,
0100
0000
1000
0001
0010
0000
0001
0000
1000
0000
0001
0000
0200
0000
0000
0000
,
0310
0000
1000
0001
0100
0000
0001
0000
1000
0000
0001
0000
0010
0000
0100
0000
,
0010
0000
0001
1000
0100
0000
1000
0000
0001
0000
1000
0000
0010
0000
0100
0000
,
0001
0000
0010
0100
1000
0000
0100
0000
0001
0000
0100
0000
1000
0000
0001
0000
,
1000
0000
0100
0010
0001
0000
0010
0000
1000
0000
0010
0000
0002
0000
0000
0000
,
0103
0000
0010
0100
1000
0000
0100
0000
0010
0000
0100
0000
0001
0000
1000
0000
,
0100
0000
0010
0001
1000
0000
1000
0001
0010
0000
0100
0000
1000
0000
0001
0000
,
0020
0000
0000
0000
0000
0000
1030
0010
0002
0000
0000
0000
0000
0000
0013
0001
,
0200
0000
0000
0000
0000
0000
1300
0100
0002
0000
0000
0000
0013
0000
0100
0000
,
0002
0000
0103
0010
2000
0000
3010
0001
,
0101
0000
0000
0000
1001
0000
0000
0000
0011
0000
0000
0000
0001
1000
0010
0000
,
0200
0000
0000
0000
0000
0000
1300
0100
0002
0000
0000
0000
0000
0000
0103
0001
,
0020
0000
0000
0000
0000
0000
1030
0010
0200
0000
0000
0000
0301
0000
0100
0000
,
1000
0000
0000
0010
0100
0000
0101
0000
,
0001
0010
0000
0000
0011
0000
0001
0000
0010
0100
0000
0000
0110
0000
0010
0000
,
0100
1000
0000
0000
1100
0000
0100
0000
1000
0010
0000
0000
1010
0000
0000
0000
,
1000
0010
0000
0010
1000
0000
1010
0000
1000
0100
0000
0100
1000
0000
1100
0000
,
0100
0010
0000
0010
0100
0000
0110
0000
0010
0001
1000
0000
1001
0000
0000
0000
,
0001
0000
1000
0000
0001
0000
0100
0010
1000
0000
0100
0000
0010
0000
0001
0000
,
0020
0000
0031
0010
0001
0000
1000
0000
0001
0000
0100
0000
1000
0000
0100
0000
,
0010
0000
0100
0000
0010
0000
1000
0001
0010
0000
0100
0000
1000
0000
0001
0000
,
0200
0000
0310
0100
0010
0000
1000
0000
0100
0000
0001
0000
0100
0000
0010
0000
,
0001
1000
0001
0100
0001
0000
0010
0001
1000
0000
0100
0000
0010
0000
0100
0000
,
0002
0000
0103
1000
0010
0000
0100
0000
0001
0000
0010
0001
1000
0000
0010
0000
,
1000
0001
1000
0010
1000
0000
0100
1000
0001
0000
0010
0000
0100
0000
0010
0000
,
2000
0000
3010
0001
0100
0000
0010
0000
1000
0100
1000
0001
1000
0100
1000
0000
,
0000
0000
0000
0000
,
0001
0100
0001
0000
0010
0000
0100
0000
1000
0000
0100
0000
0010
0000
0100
0000
,
0020
0000
0031
0010
0100
0000
0010
0000
0001
0000
1000
0000
0010
0000
1000
0000
,
0100
0010
0001
0000
0001
0000
0001
0010
0100
0000
1000
0000
0100
0000
0010
0000
,
0001
0100
0001
1000
0001
0010
0100
0000
,
1000
0100
1000
0000
0010
0000
0100
0000
0001
0000
0100
0000
0010
0000
0100
0000
,
0020
0000
1030
0010
0100
0000
0010
0000
1000
0000
0001
0000
0010
0000
0001
0000
,
0100
0010
0001
0010
1000
0100
0010
0001
,
1000
0100
0001
0000
0001
0000
0001
0100
1000
0100
0010
0000
0010
0000
0001
0000
,
0011
0000
0010
0001
1000
0000
0001
0000
1001
0000
1000
0100
0010
0000
0100
0000
,
0110
0000
0010
0100
0001
0000
0100
0000
0101
0000
0001
0100
1000
0000
0100
0000
,
1100
0000
1000
0010
1000
0000
0010
0000
1010
0000
0010
0100
0001
0000
0100
0000
,
0020
0032
0023
2030
,
3001
0000
0010
0100
0010
0000
1000
0000
0001
0000
0100
0010
0100
0000
1000
0000
,
0001
0000
0010
0100
0010
0100
0010
0000
0002
0000
0000
2003
0000
0000
3001
0000
,
1000
0000
0100
0010
0100
0000
0001
0000
1000
0000
0010
0100
0010
0000
0001
0000
,
1000
0100
0000
1000
0001
0000
0010
0000
0001
0010
0000
0001
1000
0000
0100
0000
,
0001
0100
0010
0000
0001
0000
1000
0000
,
0010
0100
0001
0000
1000
0000
0001
0000
,
0100
0010
0100
0000
0010
0000
1000
0000
,
0001
0010
0100
1000
,
0001
0010
0001
0000
0000
0000
0000
0000
,
1000
0100
1000
0000
0000
0000
0000
0000
,
0010
0100
0010
0000
0000
0000
0000
0000
,
1000
0000
0001
0000
,
0000
0000
0000
0000
;
#NOTES:
     dance-double:
     :
     Easy:
     7:
     :
00000000
00000000
00000000
00000000
,
00000000
00000000
00000000
00000000
,
00000000
00000000
00000000
00000000
,
00000000
00000000
00000000
00000000
,
00000000
00000000
00000000
00000000
,
00000000
00000000
00000000
00000000
,
00010000
00000000
00010000
00000000
,
00001000
00000000
00001000
00000000
,
00010000
00000000
00010000
00000000
,
00001000
00000000
00001000
00000000
,
00010000
00010000
00100000
00100000
,
10000000
10000000
01000000
01000000
,
00010000
00010000
00001000
00001000
,
00000010
00000010
00000001
00000001
,
00000100
00000100
00001000
00001000
,
00010000
00010000
00100000
00100000
,
01000000
01000000
00001000
00001000
,
00010000
00010000
00000100
00000100
,
00000010
00000000
00000010
00000000
,
00000100
00000000
00000100
00000000
,
00001000
00000000
00000001
00000000
,
00000100
00001000
00010000
00100000
,
01000000
00000000
01000000
00000000
,
00100000
00000000
00100000
00000000
,
10000000
00000000
00010000
00000000
,
00100000
01000000
01100000
10010000
,
10000000
01000000
10000000
01000000
,
00100000
00010000
00100000
00010000
,
01000000
00001000
01000000
00001000
,
00010000
00000100
00010000
00010000
,
00000100
00001000
00000100
00001000
,
00000001
00000010
00000001
00000010
,
00000001
00001000
00000001
00001000
,
00000010
00000100
00000010
00000010
,
00002000
00000000
00003100
00000000
,
00020000
00000000
00031000
00000000
,
00200000
00000000
00310000
00000000
,
10000000
10000000
10000000
00000000
,
00020000
00000000
01030000
00000000
,
00002000
00000000
00013000
00000000
,
00000020
00000000
00000130
00000000
,
00000010
00010000
00010010
00000000
,
00010000
00001000
00011000
00000000
,
00001000
01000000
01001000
00000000
,
01000000
00100000
01100000
10010000
,
20000000
30000000
02000000
03000000
,
00200000
00300000
00020000
00030000
,
20000000
30000000
02000000
03000000
,
00200000
00300000
00002000
00003000
,
00010000
00001000
00010000
00000000
,
00000010
00000000
00000010
00000000
,
00000100
00000001
00001000
00000000
,
00000010
00000000
00000010
00000000
,
00000000
00000000
00000000
00000000
,
00000100
00001000
00010000
00000000
,
00100000
00000000
00100000
00000000
,
10000000
01000000
00010000
00000000
,
00001000
00001000
00001000
00000000
,
00010000
00001000
00000010
00000000
,
00000001
00000000
00000001
00000000
,
00000100
00000001
00000010
00000000
,
00000100
00001000
00000010
00000000
,
00010000
00010000
00001000
00001000
,
00100000
00100000
00010000
00010000
,
10000000
01000000
00010000
01000000
,
10000000
01000000
00010000
00001000
,
00000010
00000010
00000100
00000100
,
00010000
00010000
00001000
00001000
,
02000000
03000000
00200000
00300000
,
10000000
00010000
00100000
01000000
,
00020000
00001000
00030000
00000000
,
00000020
00000100
00000030
00000000
,
00002000
00000001
00003000
00000000
,
00000001
00000000
00001000
00000000
,
00000010
00000100
00000000
00000000
,
00000001
00001000
00000000
00000000
,
00000010
00010000
00000000
00000000
,
00001000
00000000
00010000
00000000
,
00000000
00000000
00000000
00000000
;
#NOTES:
     dance-double:
     :
     Medium:
     11:
     :
00000000
00000000
00000000
00000000
,
00000000
00000000
00000000
00000000
,
00000000
00000000
00000000
00000000
,
00000000
00000000
00000000
00000000
,
00000000
00000000
00000000
00000000
,
00000000
00000000
00000000
00000000
,
00000001
00000100
00000010
00000000
,
00001000
00000100
00010000
00000000
,
00001000
00100000
00010000
00000000
,
01000000
00001000
00010000
00000000
,
00001000
00010000
00001000
00000000
00100000
00000000
00100000
00000000
,
00010000
10000000
00010000
00000000
01000000
00000000
01000000
00000000
,
00100000
10000000
00100000
00000000
01000000
00010000
01000000
00000000
,
00001000
00010000
00001000
00000000
00010000
00000000
00001000
00000000
,
00000010
00000100
00000010
00000000
00000001
00000000
00000001
00000000
,
00000100
00000010
00000100
00000000
00000010
00000000
00000010
00000000
,
00001000
00000100
00001000
00000000
00000100
00010000
00000100
00000000
,
00010000
00001000
00100000
00001000
00010000
00000000
00000000
00000000
,
00010000
00001000
00000010
00000000
00001000
00000000
00000000
00000000
,
00001000
00010000
00100000
00000000
00010000
00000000
00000000
00000000
,
00002000
00000000
00003010
00000001
00000100
00000000
00001000
00000000
,
00010000
00000000
00010000
00000000
00001000
00000100
00000001
00000000
,
00000001
00000100
00001000
00000000
00000100
00000000
00000000
00000000
,
00001000
00010000
00001000
00000000
01000000
00000000
00000000
00000000
,
00100000
00000000
10000000
01000000
00100000
00000000
00010000
00000000
,
00110000
00000000
11000000
00000000
10000000
01000000
00010000
00000000
,
00010000
01000000
10000000
00000000
00100000
00000000
00010000
00000000
,
00100000
01000000
00001000
00010000
,
00001000
00000100
00000001
00000000
00000010
00000000
00001000
00000000
,
00000010
00000100
00010000
00001000
,
00010000
00100000
10000000
00000000
00100000
00000000
01000000
00000000
,
00100000
10000000
01000000
00010000
,
00011000
00000000
00010100
00000000
,
00000100
00000000
00000010
00000000
00000010
00000001
00000010
00000000
,
00000100
00000000
00000010
00001000
00010000
00000000
00010000
00001000
,
00000100
00000000
00000100
00001000
00010000
00000000
00001000
00010000
,
00100000
00000000
00100000
01000000
00010000
00000000
01000000
00010000
,
00100000
00110000
11000000
00000000
,
01000000
00000000
00100000
00001000
00010000
00000000
00010000
00001000
,
01000000
00000000
00100000
00010000
00001000
00000000
00010000
00001000
,
00000100
00000000
00000000
00000010
00001000
00000000
00000001
00000000
,
00000011
00001001
00001000
00000100
,
00001100
00010100
00010000
00001000
,
01001000
01100000
00100000
10000000
,
10100000
00000000
11000000
00000000
01000000
00100000
01000000
00000000
,
10000000
01000000
00100000
00010000
,
00001000
00000100
00000001
00001000
,
00000010
00000100
00001000
00000001
,
00000100
00000000
00001000
00000000
00010000
00001000
00010000
00000000
,
00000100
00010000
00011000
00000000
,
00001000
00000000
00100000
00010000
00100000
00001000
00010000
00000000
,
01000000
10000000
00100000
01000000
,
01010000
00010000
00101000
00001000
,
00000000
00000000
00000000
00000000
,
00010000
00100000
01000000
00000000
00010000
00000000
01000000
00000000
,
00100000
00000000
00010000
00001000
00000100
00001000
00010000
00000000
,
00011000
00101000
01010000
01001000
,
00101000
00011000
00010010
00000000
,
00000010
00000100
00000001
00000100
,
00001000
00000000
00010000
00100000
10000000
01000000
00010000
00000000
,
00002000
00003020
00000032
00000023
,
00000230
00020300
00032000
00203000
,
01300000
10000000
00100000
00000000
00010000
00000000
00001000
00000000
,
00000100
00000001
00000010
00000000
00001000
00000000
00010000
00000000
,
00100000
01000000
00100000
00000000
00010000
00000000
00001000
00000000
,
00011000
00010100
00001100
00000011
,
00000001
00000010
00001000
00000000
00010000
01000000
10000000
00000000
,
01000000
00000000
10000000
00000000
00100000
00000000
00010000
00000000
00001000
00000000
00000000
00010000
00000000
00000000
00001000
00000000
,
01000000
00000000
00100000
00010000
00100000
00000000
10000000
00000000
,
01000000
01000000
00100000
00000000
00001000
00001000
00010000
00000000
,
00001000
00010000
00000100
00000000
00000010
00000000
00000001
00000000
,
00000100
00000010
00000100
00000000
00001000
00000000
00010000
00000000
,
00100000
01000000
00100000
00000000
00010000
00000000
00001000
00000000
,
01000000
00000000
00100000
00000000
,
10000000
00100000
10000000
00000000
00000000
00000000
00000000
00000000
,
00010000
01000000
00010000
00000000
00000000
00000000
00000000
00000000
,
00100000
00010000
00100000
00000000
00000000
00000000
00000000
00000000
,
00001000
00000000
00010000
00000000
,
00000000
00000000
00000000
00000000
;
#NOTES:
     dance-double:
     :
     Hard:
     16:
     :
00000000
00000000
00000000
00000000
,
00000000
00000000
00000000
00000000
,
00000000
00000000
00000000
00000000
,
00000000
00000000
00000000
00000000
,
00000000
00000000
00000000
00000000
,
00000000
00000000
00000000
00000000
,
00000002
00000000
00000103
00000010
00001000
00000100
00000001
00000000
,
00000200
00000000
00000310
00001000
00010000
00001000
00000100
00000000
,
00002000
00000000
00013000
01000000
00100000
00001000
00010000
00000000
,
00200000
00000000
10300000
00100000
00010000
00100000
01000000
00000000
,
00100000
00000000
10000000
01000000
10000000
00000000
01000000
00000000
00010000
00000000
00001000
00000000
00000010
00000000
00000001
00000000
,
00000100
00000000
00000001
00000010
00000001
00000000
00000010
00000000
00001000
00000000
00010000
00000000
00001000
00000000
00100000
00000000
,
01000000
00000000
10000000
01000000
10000000
00000000
00100000
00000000
00010000
00000000
00001000
00010000
00001000
00000000
00000100
00000000
,
00000001
00000000
00000010
00000001
00000010
00000000
00000100
00000000
00010000
00000000
00001000
00000000
00010000
00000000
00000000
00000000
,
00001000
00000000
00000100
00000010
00000100
00000000
00000001
00000000
00000010
00000000
00001000
00000000
00010000
00000000
01000000
00000000
,
10000000
00000000
00100000
10000000
00100000
00000000
01000000
00000000
00001000
00000000
00100000
00000000
01000000
00000000
00010000
00000000
,
00001000
00000000
00000100
00001000
00000100
00000000
00000010
00000000
00010000
00000000
00001000
00000000
00000100
00000000
00000010
00000000
,
00001000
00000000
00001000
00000000
00000001
00000010
00000001
00000010
00000001
00000000
00000100
00000000
00000010
00000000
00000000
00000000
,
00001000
00000000
00000000
00000100
00000010
00000000
00000001
00000000
00000100
00000000
00000001
00000000
00000100
00000000
00001000
00000000
,
00010000
00000000
00000000
00001000
01000000
00000000
00100000
00000000
10000000
00000000
00100000
00000000
01000000
00000000
00000000
00000000
,
00100000
00000000
00000000
10000000
01000000
00000000
00100000
00000000
00010000
00000000
00001000
00000000
00000100
00000000
00000010
00000000
,
00000001
00000000
00000010
00000001
00000010
00000000
00001000
00000000
00000010
00000000
00000001
00000000
00000011
00000000
00000000
00000000
,
00000010
00000000
00000000
00000001
00000100
00000000
00000001
00000000
00000100
00000000
00000001
00000000
00000010
00000000
00001000
00000000
,
00010000
00000000
00000000
00000100
00000010
00000000
00001000
00000000
00000010
00000000
00000001
00000000
00000100
00000000
00000000
00000000
,
00000100
00000000
00000000
00001000
00010000
00000000
00100000
00000000
01000000
00000000
00000000
00010000
00100000
00000000
01000000
00000000
,
00010000
00000000
00001000
00010000
00001000
00010000
00001000
00000000
00000100
00000000
00000010
00000000
00000110
00000000
00000000
00000000
,
00000001
00000000
00000010
00000100
00001000
00000000
00000100
00000000
00000010
00000000
00000100
00000000
00001000
00000000
00000100
00000000
,
00010000
00001000
00010000
00100000
01000000
00100000
20000000
00000000
,
30100000
00000000
10000000
01000000
00100000
00000000
00010000
00000000
00100000
00000000
01000000
00000000
00100000
00000000
00010000
00000000
,
00001000
00010000
00100000
01000000
10000000
01000000
00010000
00001000
,
00010000
00000000
01000000
00100000
00010000
00000000
01000000
00000000
00010000
00000000
01000000
00000000
00100000
00000000
10000000
00000000
,
00010000
00000000
01000000
00100000
00010000
00000000
00001000
00000000
00010000
00000000
00000100
00000000
00000020
00000000
00000000
00000000
,
00000130
00000000
00001000
00000001
00000100
00000000
00001000
00000000
00010000
00000000
00001000
00000000
00000100
00000000
00000010
00000000
,
00010000
00000000
00001000
00010000
00000100
00000000
00000100
00010000
00001000
00000000
00010000
00000000
00100000
00000000
10000000
00000000
,
00020000
00000000
00000000
00000000
00000000
00000000
10030000
01000000
00020000
00000000
00000000
00000000
00000000
00000000
00031000
00100000
,
00020000
00000000
00000000
00000000
00000000
00000000
01030000
00100000
00020000
00000000
00000000
00000000
00031000
00000000
00000100
00000000
,
00000020
00000000
00001030
00000100
00000020
00000000
00000031
00001000
,
00001001
00000000
00000000
00000000
00000101
00000000
00000000
00000000
00000011
00000000
00000000
00000000
00000001
00000010
00000001
00000000
,
00002000
00000000
00000000
00000000
00000000
00000000
00003001
00000100
00002000
00000000
00000000
00000000
00000000
00000000
00013000
00000100
,
00002000
00000000
00000000
00000000
00000000
00000000
00003100
00000010
00002000
00000000
00000000
00000000
00013000
00000000
01000000
00000000
,
00100000
00000000
00000000
00010000
10000000
00000000
10010000
00000000
,
10000000
01000000
00000000
00000000
00010000
00000000
00001000
00000000
01000000
00100000
00000000
00000000
00010000
00000000
00001000
00000000
,
00000010
00000100
00000000
00000000
00001000
00000000
00000010
00000000
00000100
00000001
00000000
00000000
00001001
00000000
00000000
00000000
,
00000001
00000100
00000000
00000000
00001000
00000000
00010000
00000000
00000100
00000010
00000000
00000000
00001000
00000000
00010000
00000000
,
00100000
01000000
00000000
00000000
10010000
00000000
00000000
00000000
10000000
01000000
10000000
00000000
11000000
00000000
00000000
00000000
,
10000000
00000000
00100000
00000000
00010000
00000000
00001000
00010000
00001000
00000000
01000000
00000000
00100000
00000000
00010000
00000000
,
00002000
00000000
00013000
00001000
00010000
00000000
00000100
00000000
00000010
00000000
00000100
00000000
00000001
00000000
00000100
00000000
,
00000010
00000000
00001000
00000000
00010000
00000000
00001000
00000100
00000010
00000000
00010000
00000000
00001000
00000000
00000010
00000000
,
00000002
00000000
00000103
00001000
00000100
00000000
00000010
00000000
00000100
00000000
00001000
00000000
00000100
00000000
00000001
00000000
,
00000100
00000010
00001000
00000010
00000100
00000000
00001000
00010000
00001000
00000000
00010000
00000000
00100000
00000000
01000000
00000000
,
00200000
00000000
10300000
00010000
00100000
00000000
01000000
00000000
10000000
00010000
01000000
00000000
00100000
00000000
10000000
00000000
,
01000000
00100000
00010000
00100000
01000000
00000000
00010000
00001000
00010000
00000000
00001000
00000000
00000010
00000000
00000100
00000000
,
00000020
00000000
00000031
00001000
00000010
00000000
00000100
00000000
00000001
00000100
00000001
00001000
00000001
00000100
00000001
00000000
,
00000000
00000000
00000000
00000000
,
00001000
00000100
00000010
00000000
00000100
00000000
00001000
00000000
00000010
00000000
00000100
00000000
00001000
00000000
00010000
00000000
,
00002000
00000000
00013000
00001000
00000010
00000000
00000100
00000000
00010000
00000000
00001000
00000000
00010000
00000000
01000000
00000000
,
00100000
00010000
10000000
00000000
10000000
00000000
10000000
00010000
00100000
00000000
00001000
00000000
00010000
00000000
00001000
00000000
,
00000010
00001000
00010000
00001000
00000100
00001000
00010000
00000000
,
00100000
01000000
00100000
00000000
10000000
00000000
00010000
00000000
01000000
00000000
00010000
00000000
00100000
00000000
00010000
00000000
,
02000000
00000000
03100000
00010000
00001000
00000000
00010000
00000000
00001000
00000000
01000000
00000000
00100000
00000000
00010000
00000000
,
00001000
00000010
00000001
00000010
00000100
00000001
00000100
00000010
,
00000001
00000100
00001000
00000000
00001000
00000000
00001000
00000100
00000010
00000100
00001000
00000000
00010000
00000000
00001000
00000000
,
00010000
00000000
00100000
01000000
00010000
00000000
10000000
00000000
01000000
00000000
00010000
00001000
00010000
00000000
00000100
00000000
,
00000010
00000000
00000001
00000100
00000010
00000000
00000100
00000000
00001000
00000000
00010000
00001000
00000100
00000000
00000010
00000000
,
00010000
00000000
00001000
00010000
00000100
00000000
00000010
00000000
00001000
00000000
00010000
00100000
01000000
00000000
00100000
00000000
,
02000000
03020000
00230000
00302000
,
00013000
00000000
00001000
00000010
00000100
00000000
00001000
00000000
00000001
00000000
00000100
00000000
00000001
00000000
00001000
00000000
,
00000010
00000000
00000010
00000000
00001000
00000001
00001000
00000001
00002000
00000000
00000000
00003200
00000000
00000000
00000310
00000000
,
00000001
00000000
00000010
00000100
00000010
00000000
00001000
00000000
00000001
00000000
00000100
00000010
00000100
00000000
00001000
00000000
,
00000010
00000100
00000000
00001000
00010000
00000000
00100000
00000000
01000000
00100000
00000000
00010000
00001000
00000000
00010000
00000000
,
00001000
00000100
00000010
00000000
00001000
00000000
00000001
00000000
,
00000010
00000100
00001000
00000000
00000010
00000000
00000001
00000000
,
00000010
00000100
00000010
00000000
00010000
00000000
00001000
00000000
,
00100000
01000000
00100000
00010000
,
10000000
00100000
10000000
00000000
00000000
00000000
00000000
00000000
,
00010000
01000000
00010000
00000000
00000000
00000000
00000000
00000000
,
00100000
01000000
00100000
00000000
00000000
00000000
00000000
00000000
,
00010000
00000000
10000000
00000000
,
00000000
00000000
00000000
00000000
;
