
//----- song ID: tyco -----//
#TITLE:TYCOON;
#ARTIST:SOUND HOLIC feat. Nana Takahashi;
#BANNER:TYCOON.png;
#BACKGROUND:TYCOON-bg.png;
#CDTITLE:./CDTitles/SOUND VOLTEX BOOTH.png;
#MUSIC:TYCOON.ogg;
#SAMPLESTART:50.823;
#SAMPLELENGTH:15;
#BPMS:0=170;
#BGSTAGE:3;
#NOTES:
     dance-single:
     :
     Beginner:
     2:
     :
0000
0000
0000
0000
,
0000
0000
0000
0000
,
0000
0000
0000
0000
,
0000
0000
0000
0000
,
0000
0000
0000
0000
,
0000
0000
0000
0000
,
0000
0000
0000
0000
,
0001
0000
0000
0000
,
0000
0000
0000
0000
,
0010
0000
0000
0000
,
0010
0000
0000
0000
,
0010
0000
0000
0000
,
0000
0000
0000
0000
,
1000
0000
0000
0000
,
1000
0000
0000
0000
,
1000
0000
0000
0000
,
0000
0000
0000
0000
,
1000
0000
0000
0000
,
0000
0000
0000
0000
,
0010
0000
0000
0000
,
0000
0000
0000
0000
,
0010
0000
0000
0000
,
0000
0000
0000
0000
,
0001
0000
0000
0000
,
0000
0000
0000
0000
,
0001
0000
0000
0000
,
0000
0000
0000
0000
,
0100
0000
0000
0000
,
0000
0000
0000
0000
,
0001
0000
0000
0000
,
0000
0000
0000
0000
,
0010
0000
0000
0000
,
0000
0000
0000
0000
,
0010
0000
0000
0000
,
0000
0000
0000
0000
,
0000
0000
0000
0000
,
0000
0000
0000
0000
,
1000
0000
0000
0000
,
1000
0000
0000
0000
,
0010
0000
0000
0000
,
0000
0000
0000
0000
,
0010
0000
0000
0000
,
0000
0000
0000
0000
,
0100
0000
0000
0000
,
0000
0000
0000
0000
,
0010
0000
0000
0000
,
0010
0000
0000
0000
,
0001
0000
0000
0000
,
0000
0000
0000
0000
,
0001
0000
0000
0000
,
0000
0000
0000
0000
,
0100
0000
0000
0000
,
0000
0000
0000
0000
,
0001
0000
0000
0000
,
0000
0000
0000
0000
,
0001
0000
0000
0000
,
0001
0000
0000
0000
,
0010
0000
0000
0000
,
0000
0000
0000
0000
,
0010
0000
0000
0000
,
0010
0000
0000
0000
,
1000
0000
0000
0000
,
0000
0000
0000
0000
,
0000
0000
0000
0000
,
1000
0000
0000
0000
,
1000
0000
0000
0000
,
0000
0000
0000
0000
,
0100
0000
0000
0000
,
0000
0000
0000
0000
,
1000
0000
0000
0000
,
0000
0000
0000
0000
,
0010
0000
0000
0000
,
0010
0000
0000
0000
,
0000
0000
0000
0000
,
0001
0000
0000
0000
,
0000
0000
0000
0000
;
#NOTES:
     dance-single:
     :
     Easy:
     4:
     :
0000
0000
0000
0000
,
0000
0000
0000
0000
,
0000
0000
0000
0000
,
0000
0000
0000
0000
,
0000
0000
0000
0000
,
1001
0000
0000
0000
,
0000
0000
0000
0000
,
1000
0000
0001
0000
,
1000
0001
1000
0000
,
0001
0010
0001
0000
,
0100
0010
0100
0000
,
0001
1000
0001
1000
,
0001
0000
1001
0000
,
1000
0010
1000
0000
,
0100
0010
0100
0000
,
1000
0001
1000
0000
,
1001
0000
0000
0000
,
1000
1000
0100
0000
,
0100
0100
0010
0000
,
0001
0010
0001
1000
,
0001
0000
0000
0000
,
0001
0001
0100
0000
,
0100
0100
0010
0000
,
1000
0010
1000
0001
,
1000
0000
0000
0000
,
2000
0000
0000
0000
,
3000
0000
0000
0000
,
0002
0000
0000
0000
,
0003
0000
0000
0000
,
1001
0000
0000
0000
,
0110
0000
0000
0000
,
0001
0000
0001
0000
,
1000
1000
1000
0000
,
0010
0000
0000
0000
,
0100
0000
0000
0000
,
0110
0000
0000
0000
,
0000
0000
0000
0000
,
1000
0100
1000
0000
,
0100
0000
0010
0000
,
0001
1000
0001
0000
,
1000
0001
1000
0000
,
0002
0000
0000
0000
,
0003
0000
0000
0000
,
2000
0000
0000
0000
,
3000
0000
0000
0000
,
0001
0010
0001
0000
,
0010
0000
0100
0000
,
1000
0001
1000
0000
,
0001
1000
0001
0000
,
2000
0000
0000
0000
,
3000
0000
0000
0000
,
0002
0000
0000
0000
,
0003
0000
0000
0000
,
0010
0000
0100
0000
,
0010
0100
0010
0000
,
1001
0000
0000
0000
,
0001
0000
0001
0000
,
0010
0000
0000
0000
,
0001
0000
0100
0000
,
0010
0000
0000
0000
,
1000
0000
1000
0000
,
0010
0000
0000
0000
,
1001
0000
0000
0000
,
2000
0000
0000
0000
,
3000
0000
0000
0000
,
1000
0100
1000
0000
,
0001
0000
0010
0000
,
0002
0000
0000
0000
,
0003
0000
0000
0000
,
0001
0010
0001
0000
,
0100
0000
0100
0000
,
0110
0000
0000
0000
,
1001
0000
0000
0000
,
1000
0001
1000
0000
,
0001
1001
0000
0000
,
0000
0000
0000
0000
;
#NOTES:
     dance-single:
     :
     Medium:
     9:
     :
0000
0000
0000
0000
,
0000
0000
0000
0000
,
0000
0000
0000
0000
,
0000
0000
0000
0000
,
0000
0000
0000
0000
,
2002
0000
0000
0000
,
0000
0000
0000
3003
,
1001
0000
0000
0000
0110
0000
0000
1000
,
0001
0000
0010
0000
0100
1000
0001
0000
,
1000
0001
0100
0001
,
0010
0000
0100
0000
1000
0001
1000
0000
,
0001
0000
0011
0000
,
1010
0000
1100
0000
,
1000
0100
1000
0010
,
0100
0000
0001
0000
0010
0100
0010
0000
,
0001
0000
0000
0001
0000
0000
1000
0000
,
2000
0000
0002
3003
,
1000
0000
0010
0000
0100
0001
0100
0000
,
0001
0010
0001
1000
,
0020
0100
0130
0000
,
0200
0010
0310
0000
,
1010
0000
0000
1001
0000
0000
0000
0000
,
0011
0000
0000
1001
0000
0000
0000
0000
,
1000
0000
0100
0000
0010
0001
0100
0000
,
0010
0010
0010
0000
,
1010
1000
1010
0000
,
0011
0001
0011
0000
,
1100
1000
0001
0100
,
0101
0000
1001
0000
,
1000
0000
0010
0100
0010
0000
0100
0001
,
0000
0100
0002
0000
1000
0000
1003
0000
,
0001
0100
1000
0100
,
0002
0013
0020
0130
,
1000
0000
0001
0010
0000
0001
0000
0010
,
0001
0000
1000
0010
0000
1000
0000
0220
,
0000
0000
0000
0000
,
0330
0000
0000
0000
,
1000
0000
0010
0000
0001
0010
1000
0000
,
0001
0000
0010
0000
1000
0010
0001
0000
,
2000
0010
0010
3010
,
0002
0010
0010
0013
,
1000
0000
0000
0110
0000
0000
0000
0000
,
0001
0000
0000
0110
0000
0000
0000
0000
,
1000
0100
0010
0000
0001
0100
0010
0000
,
2002
0000
0000
3003
,
1000
0000
0100
0000
0001
0100
1000
0000
,
0001
0000
0100
0000
1000
0100
0001
0000
,
2000
0100
0100
3100
,
0002
0100
0100
0103
,
1000
0000
0000
0110
0000
0000
0000
0000
,
0001
0000
0000
0110
0000
0000
0000
0000
,
1000
0010
0100
0000
0001
0010
0100
0000
,
1000
0010
0100
0001
,
1000
1000
0010
0010
,
0100
0001
0100
0000
0001
0000
0000
0000
,
2000
0000
0000
3000
,
0200
0000
0000
0300
,
0020
0000
0000
0030
,
0002
0000
0000
0003
,
0002
0000
0000
0003
,
0200
0000
0000
0300
,
0020
0000
0000
0030
,
1001
0000
0000
0000
,
1001
0000
0000
0000
0000
0000
0000
0000
1000
0000
0000
0001
0000
0000
1000
0000
,
0001
0000
0100
0000
0010
1000
0010
0000
,
1000
0000
0100
0000
0010
0001
0010
0000
,
0001
0000
0100
0000
0010
1000
0010
0000
,
1000
0100
1100
0000
,
0001
0100
0101
0000
,
1010
0000
0011
0000
,
1000
0001
1001
0000
,
1000
0100
1000
0100
0010
0000
0000
0000
,
0001
0100
0001
0100
0010
0000
0000
0000
,
1000
0001
1000
0000
0001
1000
0001
0000
,
0100
0010
0100
0010
0000
0000
0000
0000
,
0000
0000
0000
0000
;
#NOTES:
     dance-single:
     :
     Hard:
     12:
     :
0000
0000
0000
0000
,
0000
0000
0000
0000
,
0000
0000
0000
0000
,
0000
0000
0000
0000
,
0000
0000
0000
0000
,
2002
0000
0000
0000
,
0000
0000
0000
3003
,
1010
0000
0000
0000
0101
0000
0000
0001
,
1000
0000
1001
0110
,
1000
0010
1000
0010
0100
0010
0100
0000
,
0001
0010
0001
0010
0100
0010
0100
0000
,
1000
0100
0001
0000
0001
0100
1000
0000
,
1001
0000
0110
0000
0001
1000
0100
0000
,
1000
0001
0010
0001
0010
0001
1000
0000
,
0001
0100
0010
0100
0010
0100
0001
0000
,
1000
0000
0000
1010
0000
0000
0010
0000
0000
0110
0000
0000
0100
0000
0000
0100
,
0001
1000
0000
0000
0010
0100
0000
0100
,
0001
0010
0001
0010
0100
1000
0100
1000
,
0001
0010
0100
0010
0001
1000
0001
0000
,
1000
0010
1000
0010
0100
0001
0100
0001
,
1000
0001
0100
0010
1000
0010
0100
0000
,
0001
0010
0100
1000
0000
1000
0001
0000
,
1000
0010
0100
0001
0000
0001
1000
0000
,
0001
0100
1000
0000
1000
0100
0001
0000
,
0011
0101
1100
1010
,
0010
1000
0100
0001
0100
1000
0010
0000
,
0100
0001
0010
1000
0010
0001
0100
0000
,
0010
1000
0100
0000
0010
0001
0100
0000
,
0110
0000
0000
0000
0000
0000
0000
0000
1000
0000
0000
0001
0000
0000
1000
0000
,
0001
0010
0001
0100
0001
0000
0001
0010
,
0000
0010
0200
0000
0001
0000
0010
0000
,
1300
0010
0100
0000
0001
1000
0001
0010
,
0200
0000
0001
0000
0320
0000
0031
0100
,
1000
0000
1000
0100
0010
0100
0001
0010
,
0001
0000
0010
1000
0000
1000
0010
0001
,
1000
0100
1000
0100
0010
0001
0010
0001
,
2002
0000
0000
3003
,
1000
0010
1000
0010
1000
0001
0010
0001
,
0100
0001
0100
0001
1000
0100
0001
0100
,
1000
0010
0100
0010
1000
0100
0010
0001
,
1000
0010
0100
0010
1000
0100
0010
0001
,
2000
0000
0010
0010
0000
0100
0000
0001
,
3002
0000
0010
0010
0000
0100
0000
1000
,
1003
0100
0010
0000
0001
0100
0010
0000
,
1010
1100
0011
0101
,
0001
0010
0001
0010
0001
1000
0010
1000
,
0100
1000
0100
1000
0001
0100
1000
0100
,
0001
0010
0100
0010
0001
0100
0010
1000
,
0001
0010
0100
0010
0001
0100
0010
1000
,
0002
0000
0010
0010
0000
0100
0000
1000
,
2003
0000
0010
0010
0000
0100
0000
0001
,
3001
0100
0010
0000
1000
0100
0010
0000
,
0011
0101
1010
1100
,
0001
0010
1000
0000
1000
0010
0001
0000
,
1000
0100
0001
0100
0001
0100
1000
0000
,
0002
0023
0230
2300
,
3001
0100
0010
1000
0000
0000
0001
0100
0010
1000
0000
0000
,
0002
0203
2300
3200
,
0301
1000
0010
1000
0100
0010
0100
0000
,
1000
0001
1000
0001
0010
0100
0010
0000
,
0001
0010
0100
1000
0010
0100
0001
0000
,
1000
0010
0001
0010
0001
0010
1000
0001
,
0100
0000
0000
0000
,
0110
0000
0000
0000
0000
0000
0000
0000
1000
0000
0000
0001
0000
0000
1000
0000
,
0001
0100
0001
0100
0010
1000
0100
1000
,
0010
0001
0010
0001
0010
1000
0001
0100
,
1000
0100
1000
0100
0001
1000
0100
0010
,
0200
0000
0001
0001
0000
1000
0000
0010
,
0320
0000
1000
1000
0000
0001
0001
0000
,
0130
1000
1010
0000
0001
0100
0110
0000
,
0010
1000
0100
1000
1001
0000
0110
0000
,
0001
0100
1000
0100
0001
0010
0100
1000
,
0001
0010
1000
0010
0001
0100
0010
1000
,
0001
0001
0101
0000
1000
1000
1010
0000
,
0001
1000
0001
1001
0000
0000
0000
0000
,
0000
0000
0000
0000
;
#NOTES:
     dance-double:
     :
     Easy:
     4:
     :
00000000
00000000
00000000
00000000
,
00000000
00000000
00000000
00000000
,
00000000
00000000
00000000
00000000
,
00000000
00000000
00000000
00000000
,
00000000
00000000
00000000
00000000
,
00000110
00000000
00000000
00000000
,
00000000
00000000
00000000
00000000
,
00000001
00000000
00001000
00000000
,
00000100
00010000
00001000
00000000
,
00010000
00010000
00001000
00000000
,
00001000
00001000
01000000
00000000
,
00010000
00010000
10000000
00000000
,
00100000
00000000
10010000
00000000
,
10000000
10000000
00010000
00000000
,
00100000
00100000
00010000
00000000
,
00100000
00010000
01000000
00001000
,
00010000
00000000
00000000
00000000
,
00001000
00010000
00001000
00000000
,
00010000
00000100
00010000
00000000
,
00000100
00001000
00000100
00001000
,
00000001
00000000
00000000
00000000
,
00001001
00000000
00000000
00000000
,
00000110
00000000
00000000
00000000
,
00000001
00000100
00000010
00010000
,
00001000
00000000
00000000
00000000
,
00020000
00000000
00000000
00000000
,
00030000
00000000
00000000
00000000
,
00002000
00000000
00000000
00000000
,
00003000
00000000
00000000
00000000
,
00011000
00000000
00000000
00000000
,
00001000
00010000
00001000
00000000
,
01000000
00010000
00100000
00010000
,
20000000
00000000
00000000
30000000
,
10000000
00000000
01000000
00000000
,
00100000
00001000
00100000
00001000
,
00020000
00000000
00000000
00000000
,
00030000
00000000
00000000
00000000
,
00010000
00000000
00010000
00000010
,
00001000
00000000
00001000
00000001
,
00000200
00000000
00000000
00000300
,
00000020
00000000
00000000
00000030
,
00001001
00000000
00000001
00000100
,
00001000
00000000
00001000
00010000
,
00100000
00000000
00100000
10000000
,
00020000
00000000
00000000
00030000
,
00010000
00000000
10000000
00100000
,
01000000
00000000
01000000
00001000
,
00020000
00000000
00000000
00030000
,
00002000
00000000
00000000
00003000
,
00011000
00000000
00010000
00000010
,
00001000
00000000
00001000
00000100
,
00000010
00000000
00001001
00000000
,
00000001
00000100
00000010
00001000
,
00000020
00000000
00000000
00000000
,
00000030
00000000
00000000
00000000
,
00000110
00000000
00000000
00000000
,
00001001
00000000
00000000
00000000
,
00000220
00000000
00000000
00000000
,
00000330
00000000
00000000
00000000
,
00011000
00000000
00000000
00000000
,
00010000
00001000
00100000
00000000
,
00020000
00000000
00000000
00000000
,
00030000
00000000
00000000
00000000
,
10010000
00000000
10000000
00010000
,
10000000
00000000
10000000
00100000
,
10000000
00000000
01000000
00000000
,
00100000
00010000
00100000
00000000
,
00002000
00000000
00000000
00003000
,
00020000
00000000
00000000
00030000
,
00001000
00010000
00001000
00010000
,
00000200
00000000
00000000
00000300
,
00000110
00000000
00000000
00000000
,
00001001
00000000
00000000
00000000
,
00000001
00000100
00001000
00000000
,
00010000
00011000
00000000
00000000
,
00000000
00000000
00000000
00000000
;
#NOTES:
     dance-double:
     :
     Medium:
     9:
     :
00000000
00000000
00000000
00000000
,
00000000
00000000
00000000
00000000
,
00000000
00000000
00000000
00000000
,
00000000
00000000
00000000
00000000
,
00000000
00000000
00000000
00000000
,
20020000
00000000
00000000
00000000
,
00000000
00000000
00000000
30030000
,
10010000
00000000
00000000
00000000
01100000
00000000
00000000
10000000
,
01000000
00000000
00100000
00000000
00001000
00010000
00001000
00000000
,
00010000
00000010
00001000
00000100
,
00010000
00000010
00001000
00000100
,
00000010
00000001
00000010
00000000
00000001
00000000
00000100
00000000
,
00000110
00001000
00001001
00000000
,
00000001
00000100
00000010
00001000
,
00000001
00000100
00001000
00010000
,
00100000
00000000
00000000
00100000
00000000
00000000
10000000
00000000
,
20000000
00000000
00020000
30030000
,
10000000
00000000
01000000
00000000
00100000
00010000
00100000
00000000
,
00010000
01000000
00010000
00100000
,
00002000
00010000
00013000
00000000
,
00020000
00001000
00031000
00000000
,
00000100
00000000
00000000
00000110
00000000
00000000
00000000
00000000
,
00000001
00000000
00000000
00001001
00000000
00000000
00000000
00000000
,
00000001
00000000
00000100
00000000
00001000
00010000
00001000
00000000
,
00010000
00100000
10000000
00000000
,
00010000
00010000
00110000
10000000
,
01000000
01000000
01100000
00100000
,
00001000
00010000
00000010
00001000
,
00000110
00000000
00001001
00000000
,
00000001
00000000
00000010
00000100
00001000
00000000
00000010
00000100
,
00000000
00000010
00000200
00000000
00000001
00000000
00000301
00000000
,
00001000
00000000
00000100
00000000
00010000
00001000
00010000
00000000
,
00002000
00203000
00320000
02030000
,
03100000
00000000
01000000
00010000
00000000
00100000
00000000
00010000
,
01000000
00000000
00100000
10000000
00000000
01000000
00000000
10000000
,
00100000
00000000
00010000
00000000
00001000
00010000
00001000
00000000
,
00011000
00000000
00000000
00000000
,
00010000
00000000
00001000
00000000
00000010
00000100
00000010
00000000
,
00001000
00000000
00010000
00000000
01000000
00100000
01000000
00000000
,
20000000
00100000
30020000
01030000
,
00001000
00100000
00001000
00000000
00010000
00000100
00010000
00000000
,
00001000
00000000
00000000
00000110
00000000
00000000
00000000
00000000
,
00000001
00000000
00000000
00000110
00000000
00000000
00000000
00000000
,
00000001
00000100
00000010
00000000
00000100
00001000
00010000
00000000
,
00022000
00000000
00000000
00033000
,
00001000
00000000
00010000
00000000
00100000
01000000
00100000
00000000
,
00010000
00000000
00001000
00000000
00000100
00000010
00000100
00000000
,
00000002
00000010
00002003
00003100
,
00010000
00000010
00010000
00000000
00001000
01000000
00001000
00000000
,
00010000
00000000
00000000
01100000
00000000
00000000
00000000
00000000
,
10000000
00000000
00000000
01100000
00000000
00000000
00000000
00000000
,
10000000
01000000
00100000
00000000
01000000
00010000
00001000
00000000
,
00000010
00000000
00000001
00000000
00000100
00000010
00001000
00000000
,
00000100
00000100
00010000
00010000
,
00001000
00010000
00001000
00000000
00011000
00000000
00000000
00000000
,
00002000
00000000
00000000
00003000
,
02000000
00000000
00000000
03000000
,
00020000
00000000
00000000
00030000
,
20000000
00000000
00000000
30000000
,
02000000
00000000
00000000
03000000
,
00020000
00000000
00000000
00030000
,
00002000
00000000
00000000
00003000
,
00011000
00000000
00000000
00000000
,
00011000
00000000
00000000
00000000
00000000
00000000
00000000
00000000
00010000
00000000
00000000
00001000
00000000
00000000
00010000
00000000
,
00001000
00000000
00000010
00000000
00000100
00000010
00000001
00000000
,
00001000
00000000
00000010
00000000
00000100
00000010
00000100
00000000
,
00001000
00000000
00010000
00000000
00001000
00010000
00001000
00000000
,
00100000
00010000
01000000
01100000
,
00100000
10000000
01000000
01100000
,
00100000
00001000
00010000
00001000
,
00000010
00000010
00000001
00000000
,
00000001
00000100
00000001
00000100
00000010
00000000
00000000
00000000
,
00010000
00000010
00010000
00001000
00010000
00000000
00000000
00000000
,
00001000
00100000
00001000
00000000
01000000
00010000
01000000
00000000
,
00010000
10000000
00010000
10000000
00000000
00000000
00000000
00000000
,
00000000
00000000
00000000
00000000
;
#NOTES:
     dance-double:
     :
     Hard:
     13:
     :
00000000
00000000
00000000
00000000
,
00000000
00000000
00000000
00000000
,
00000000
00000000
00000000
00000000
,
00000000
00000000
00000000
00000000
,
00000000
00000000
00000000
00000000
,
00022000
00000000
00000000
00000000
,
00000000
00000000
00000000
00033000
,
00011000
00000000
00000000
00000000
00011000
00000000
00000000
00010000
,
00001000
00000000
00000010
00000000
00000001
00001000
00000001
00000000
,
00001000
00000010
00001000
00000010
00000100
00000010
00000100
00000000
,
00000001
00000100
00001000
00000000
00010000
00100000
10000000
00000000
,
00010000
01000000
00100000
10000000
01000000
00100000
00010000
00000000
,
00110000
00000000
00101000
00000000
00001000
00010000
00001000
00000000
,
00010000
00000010
00010000
00000010
00001000
00000010
00001000
00000000
,
00000100
00000010
00000001
00000000
00000100
00000010
00001000
00000000
,
00000001
00000000
00000000
00000101
00000000
00000000
00000100
00000000
00000000
00001100
00000000
00000000
00001000
00000000
00000000
00010000
,
00002000
00000000
00003000
00000000
00020000
00000000
00030000
00001000
,
01000000
00010000
01000000
00010000
00100000
01000000
00100000
01000000
,
10000000
00100000
01000000
00100000
00010000
00001000
00010000
00000000
,
00001000
00010000
00001000
00010000
00000010
00001000
00000010
00001000
,
00000100
00000010
00000001
00000100
00001000
00000100
00000001
00000000
,
00000001
00000100
00001000
00010000
00000000
00010000
00100000
00000000
,
10000000
01000000
00010000
00001000
00000000
00001000
00000010
00000000
,
00000001
00000100
00001000
00010000
00000010
00000100
00001000
00010000
,
00100000
10100000
10010000
00110000
,
00100000
00010000
10000000
00100000
01000000
10000000
01000000
00001000
,
00010000
00000100
00000010
00001000
00000010
00000001
00000100
00010000
,
00000100
00000010
00010000
00001000
00010000
01000000
10000000
00000000
,
10010000
00000000
00000000
00000000
00000000
00000000
00000000
00000000
00100000
00000000
00000000
01000000
00000000
00000000
01100000
00000000
,
10000000
01000000
00100000
00010000
00001000
00000000
00001000
00000100
,
00000000
00000010
00000002
00000000
00000100
00000000
00000103
00000000
,
00000001
00000010
00000100
00000000
00001000
00000010
00000100
00000000
,
00000002
00000023
00002030
00023000
,
01030000
10000000
01000000
10000000
00100000
00010000
00100000
00010000
,
00001000
00000100
00001000
00000100
00000000
00000100
00000001
00000010
,
00000100
00000001
00000100
00000010
00000100
00001000
00000100
00010000
,
00002000
00000000
00000000
00003000
,
00001000
00010000
00001000
00010000
00100000
01000000
00100000
00010000
,
00100000
10000000
00100000
10000000
01000000
00010000
01000000
00100000
,
00001000
00010000
00000100
00001000
00000010
00000100
00001000
00010000
,
00001000
00010000
00000100
00001000
00000010
00000100
00001000
00010000
,
00002000
00000000
00100000
00100000
00000000
01000000
00000000
00010000
,
00023000
00000000
00000010
00000010
00000000
00000100
00000000
00001000
,
00031000
00000000
00101000
00000000
01001000
00000000
01010000
00010000
,
00100000
01000000
00010000
00001000
00100000
01000000
00010000
00001000
,
00010000
00001000
00010000
00001000
00000010
00000100
00000010
00001000
,
00000010
00000001
00000010
00000001
00000100
00001000
00000100
00000010
,
00010000
00001000
01000000
00010000
00100000
01000000
00010000
00001000
,
00010000
00001000
01000000
00010000
00100000
01000000
00010000
00001000
,
00020000
00000000
00000010
00000010
00000000
00000100
00000000
00001000
,
00032000
00000000
00100000
00100000
00000000
01000000
00000000
00010000
,
00013000
00000000
00010010
00000000
00010100
00000000
00001100
00001000
,
00000010
00000100
00001000
00010000
00000010
00000100
00001000
00010000
,
00200000
20300000
32000000
03020000
,
00031000
00000010
00000001
00000010
00001000
00000000
00000110
00000000
,
00000002
00002003
00003020
00020030
,
00031000
00100000
00001000
00100000
00000000
00000000
00010000
01000000
00010000
01000000
00000000
00000000
,
00200000
20300000
30020000
00230000
,
01300000
10000000
00010000
01000000
00001000
00010000
00000100
00000000
,
00000010
00000001
00000010
00001000
00010000
01000000
00100000
00010000
,
10000000
01000000
00010000
00000000
00001000
00000100
00000001
00000000
,
00000010
00000001
00000010
00001000
00010000
00000000
00001000
00000000
,
00011000
00000000
00000000
00000000
,
00011000
00000000
00000000
00000000
00000000
00000000
00000000
00000000
00001000
00000000
00000000
00001000
00000000
00000000
00001000
00000000
,
00010000
00001000
01000000
00010000
00100000
00010000
01000000
00100000
,
10000000
01000000
10000000
01000000
00010000
01000000
10000000
00100000
,
00010000
00001000
00010000
00001000
00000010
00000001
00001000
00000100
,
00000020
00000000
00000001
00000001
00000000
00001030
00010000
00000000
,
02000000
00000000
00010000
00010000
00000000
13000000
00010000
00000000
,
10000000
00100000
01100000
00000000
01000000
00001000
00011000
00000000
,
00010000
00000100
00001000
00000100
00000110
00000000
00001001
00000000
,
00001000
00000100
00000010
00001000
00010000
00000010
00000100
00001000
,
00010000
00100000
01000000
00001000
00010000
01000000
00100000
00010000
,
10000000
10000000
10100000
00000000
00010000
00010000
00110000
00000000
,
00100000
00001000
00010000
00011000
00000000
00000000
00000000
00000000
,
00000000
00000000
00000000
00000000
;
