
//----- song ID: thst -----//
#TITLE:THUNDERSTRIKE;
#ARTIST:BlackY feat. Risa Yuzuki;
#BANNER:THUNDERSTRIKE.png;
#BACKGROUND:THUNDERSTRIKE-bg.png;
#CDTITLE:./CDTitles/DDR WORLD.png;
#MUSIC:THUNDERSTRIKE.ogg;
#SAMPLESTART:73.819;
#SAMPLELENGTH:15;
#BPMS:0=165,268=82.5,284=165;
#BGSTAGE:15;
#NOTES:
     dance-single:
     :
     Beginner:
     3:
     :
0000
0000
0000
0000
,
0000
0000
0000
0000
,
0000
0000
0000
0000
,
0000
0000
0000
0000
,
0000
0000
0000
0000
,
0000
0000
0000
0000
,
0001
0000
0000
0000
,
0001
0000
0000
0000
,
0010
0000
0000
0000
,
0010
0000
0000
0000
,
0000
0000
0000
0000
,
1000
0000
0000
0000
,
1000
0000
0000
0000
,
0100
0000
0000
0000
,
0000
0000
0000
0000
,
1000
0000
0000
0000
,
1000
0000
0000
0000
,
0010
0000
0000
0000
,
0000
0000
0000
0000
,
0010
0000
0000
0000
,
0010
0000
0000
0000
,
0001
0000
0000
0000
,
0000
0000
0000
0000
,
0001
0000
0000
0000
,
0010
0000
0000
0000
,
0001
0000
0000
0000
,
0000
0000
0000
0000
,
0001
0000
0000
0000
,
0001
0000
0000
0000
,
0010
0000
0000
0000
,
0000
0000
0000
0000
,
0010
0000
0000
0000
,
1000
0000
0000
0000
,
0010
0000
0000
0000
,
0020
0000
0000
0000
,
0030
0000
0000
0000
,
1001
0000
0000
0000
,
0000
0000
0000
0000
,
1000
0000
0000
0000
,
0100
0000
0000
0000
,
1000
0000
0000
0000
,
0000
0000
0000
0000
,
1000
0000
0000
0000
,
1000
0000
0000
0000
,
0020
0000
0000
0000
,
0030
0000
0000
0000
,
0002
0000
0000
0000
,
0003
0000
0000
0000
,
0001
0000
0000
0000
,
0010
0000
0000
0000
,
0000
0000
0000
0000
,
0001
0000
0001
0000
,
0010
0000
0000
0000
,
0010
0000
0000
0000
,
0000
0000
0000
0000
,
1000
0000
1000
0000
,
0010
0000
0000
0000
,
0010
0000
0000
0000
,
0000
0000
0000
0000
,
0001
0000
0001
0000
,
0100
0000
0000
0000
,
0100
0000
0000
0000
,
0000
0000
0000
0000
,
1000
0000
1000
0000
,
0100
0000
0000
0000
,
0100
0000
0000
0000
,
0000
0000
0000
0000
,
1001
0000
0000
0000
,
0010
0000
0000
0000
,
0010
0000
0000
0000
,
0010
0000
0000
0000
,
0020
0000
0000
0000
,
0030
0000
0000
0000
,
0010
0000
0000
0000
,
1000
0000
0000
0000
,
0010
0000
0000
0000
,
0000
0000
0000
0000
,
0010
0000
0000
0000
,
0001
0000
0000
0000
0000
0000
0000
0001
,
0000
0000
0000
0000
;
#NOTES:
     dance-single:
     :
     Easy:
     6:
     :
0000
0000
0000
0000
,
0000
0000
0000
0000
,
0000
0000
0000
0000
,
0000
0000
0000
0000
,
0000
0000
0000
0000
,
0000
0000
0000
0000
,
0002
0000
0000
0003
,
2000
0000
0000
3000
,
0010
0010
0010
0000
,
0110
0000
0000
0000
,
1001
0000
0000
0000
,
1000
0100
1000
0000
,
1000
0100
0010
0000
,
0001
0100
0001
0000
,
0001
0100
0010
0000
,
1000
0001
1000
0000
,
0001
1000
0001
0000
,
0010
0100
0010
0100
,
0010
0000
0000
0000
,
0001
0001
0100
0100
,
0001
0100
0001
0000
,
1000
1000
0100
0100
,
1000
0100
1000
0000
,
0001
0001
0010
0010
,
0001
0010
0001
0000
,
1000
1000
0010
0000
,
1001
0000
0000
0000
,
1000
0100
0010
0000
,
0001
0100
0010
0000
,
1000
0001
0100
0010
,
1000
0001
1000
0000
,
0001
0010
0100
0000
,
1000
0010
0100
0000
,
0001
1000
0010
0100
,
0002
0000
0000
0003
,
2000
0000
0000
3000
,
1001
0000
0000
0000
,
0000
0000
0000
0000
,
1000
0100
1000
0010
,
1000
0000
1001
0000
,
0002
0000
0000
0003
,
2000
0000
0000
3000
,
0001
0010
0001
0100
,
0001
1000
0001
0000
,
1000
1000
0100
0000
,
1000
0010
0100
0000
,
0001
0001
0010
0000
,
0001
0100
0010
0000
,
2000
0000
0000
3000
,
0002
0000
0000
0003
,
0000
0000
0000
0000
,
1000
0100
0010
0001
,
1000
0100
0010
0001
,
0100
0100
0010
0010
,
1000
0001
1000
0000
,
0001
0100
0010
1000
,
0001
0100
0010
1000
,
0100
0100
0010
0010
,
0001
1000
0001
0000
,
1000
0100
0001
0000
,
0001
0100
1000
0000
,
1000
0001
1000
0001
,
1000
0000
1001
0000
,
0001
0100
1000
0000
,
1000
0100
0001
0000
,
1000
0001
1000
0001
,
2000
0000
0000
3000
,
1001
0000
0110
0000
,
0001
0001
1000
1000
,
1001
0000
0110
0000
,
1000
1000
0100
0000
0010
0010
0001
0000
,
2000
0000
0000
3000
,
1000
0010
0100
0000
,
0002
0000
0000
0003
,
0001
0010
0100
0000
,
1000
0001
0100
0010
,
1000
0001
0010
0100
,
2000
0000
0000
3000
,
1000
0000
0100
0000
0010
0000
0000
1001
,
0000
0000
0000
0000
;
#NOTES:
     dance-single:
     :
     Medium:
     12:
     :
0000
0000
0000
0000
,
0000
0000
0000
0000
,
0000
0000
0000
0000
,
0000
0000
0000
0000
,
0000
0000
0000
0000
,
0000
0000
0000
0000
,
2002
0000
0000
3003
,
0220
0000
0000
0330
,
1000
0100
0010
0000
0001
0100
0010
0000
,
0110
0000
0000
0000
,
0000
0000
0000
0000
,
1000
0000
0010
0000
1000
0010
1000
0000
,
0001
0000
0010
0000
0001
0010
0001
0000
,
1000
0000
0100
0000
1000
0000
0000
0000
0100
0000
0000
1000
0000
1000
0000
0000
,
0001
0100
0001
0100
0002
0000
0003
0000
,
0001
0100
0010
0000
1000
0100
0010
0000
,
0001
0010
0100
0000
1000
0010
0100
0000
,
0001
1000
0001
1000
0001
1000
0001
1000
,
0001
0000
0000
0000
,
1001
0000
1000
0010
0100
0001
1000
0000
,
0001
0010
0100
0001
0200
0000
0320
0000
,
0031
0000
1000
0010
0100
0001
1000
0010
,
0100
0000
0001
0000
1000
0000
0000
0000
0100
0000
0000
0100
0000
0000
0100
0000
,
0000
0010
0100
0000
1000
0001
0010
0000
,
0001
0100
0001
1000
0020
0000
0230
0000
,
0310
0000
1000
0000
0001
0000
0000
0000
0010
0000
0000
0010
0000
0000
0010
0000
,
0000
0010
0001
0000
0011
0000
1100
0000
,
1000
0100
0010
0001
0100
0010
0001
0010
,
1000
0100
0010
0001
0100
0010
0001
0000
,
0110
0000
1001
0000
0001
0100
1000
0100
,
0002
0000
0000
0000
0023
0000
0000
0000
0130
0000
0000
1000
0000
0000
1000
0000
,
0001
0010
0100
1000
0010
0100
1000
0100
,
0001
0010
0100
1000
0010
0100
1000
0000
,
0110
0000
0000
0000
1001
0000
0000
0000
1000
0000
0000
0010
0000
0000
0001
0000
,
0000
0001
0010
1000
0000
1000
0100
0001
,
0000
0001
1000
0010
0001
1000
0001
0000
,
2000
0000
0000
0000
,
3002
0000
0000
0000
,
0103
0010
1000
0010
0100
0001
0010
0100
,
1000
0000
0100
0000
0010
0000
0000
0000
0001
0000
0000
1000
0000
0000
0001
0000
,
0200
0000
0000
0000
,
0320
0000
0000
0000
,
1030
0100
0010
0001
0100
0010
0100
0001
,
0010
0000
0100
0000
1000
0000
0010
0000
0100
0000
0000
0001
0000
0000
1000
0000
,
0001
0000
0000
0010
0000
0000
0010
0000
0001
0000
0100
0000
0010
0000
1000
0000
,
0100
0000
0000
1000
0000
0000
1000
0000
0010
0000
0100
0000
0010
0000
1000
0000
,
0100
0000
0001
0000
0100
0000
0000
0000
1000
0000
0010
0000
0000
0001
0000
0000
,
0010
0000
1000
0000
0000
1000
0000
0000
0001
0000
0100
0000
0010
0000
1000
0000
,
0002
0000
0000
0000
0003
0000
1000
0000
0020
0000
0000
0000
0030
0000
0000
1000
,
0000
0000
0100
0000
0000
0100
0000
0000
0010
0000
0000
0010
0000
0000
0001
0000
,
0000
0000
0000
0000
,
0001
0100
1000
0100
0001
0010
0100
0001
,
1000
0010
0100
1000
0001
0100
0001
0000
,
1000
0100
0001
0000
0001
0100
1000
0000
,
1100
0110
0011
1001
,
0001
0100
0010
0001
1000
0100
0010
1000
,
0001
0010
1000
0001
0100
1000
0001
0010
,
0100
0001
0100
0010
0100
1000
0100
0000
,
1100
0011
0101
1010
,
1000
0010
0001
0010
1000
0100
0010
1000
,
0001
0100
0010
0001
1000
0010
1000
0000
,
0001
0010
1000
0000
1000
0010
0001
0000
,
0011
0110
1100
1001
,
1000
0010
0100
1000
0001
0010
0100
0001
,
1000
0100
0001
1000
0010
0001
1000
0100
,
0010
1000
0010
0100
0010
0001
0010
0000
,
0011
1100
1010
0101
,
0002
0000
0000
0000
1003
0000
0010
0100
0010
0100
0010
0100
0010
0100
0010
0000
,
2000
0000
0000
0000
3100
0000
0000
0000
0002
0000
0000
0000
0103
0000
0000
0000
1000
0000
0000
0000
0010
0000
0000
0000
0100
0000
0000
0010
0000
0000
0100
0000
,
0010
0000
1000
0000
0001
0000
0010
0100
0010
0100
0010
0100
0010
0100
0010
0000
,
0002
0203
0320
2030
3002
0000
2000
3003
,
1000
0010
0001
0000
0001
0010
1000
0000
,
0002
0000
0000
0000
0023
0000
0000
0000
0130
0000
0000
1000
0000
0000
0100
0000
,
1000
0000
0001
0000
0000
1000
0000
0000
0100
0000
0000
0010
0000
0000
0100
0000
,
0010
0000
0001
0000
0010
0000
0000
0000
0001
0000
0000
1000
0000
0010
0000
1000
,
0000
1000
0001
0000
0100
0010
1000
0000
,
0100
0000
0010
0000
0100
0000
0010
0000
0001
0000
0000
1000
0000
0000
0001
0000
,
2000
0000
0000
0000
3010
0000
0000
0100
0000
0000
0100
0000
0000
0100
0000
0000
,
0001
0000
0010
0000
0100
0000
1000
0000
0001
0000
0000
1000
0000
0000
0001
0000
,
0000
0000
0000
0000
;
#NOTES:
     dance-single:
     :
     Hard:
     16:
     :
0000
0000
0000
0000
,
0000
0000
0000
0000
,
0000
0000
0000
0000
,
0000
0000
0000
0000
,
0000
0000
0000
0000
,
0000
0000
0000
0000
,
2002
0000
0000
3003
,
0220
0000
0000
0330
,
1000
0100
1000
0100
0010
0100
0010
0000
0001
0100
0001
0100
0010
0100
0010
0000
,
1001
0000
0000
0000
,
0000
0000
0000
0000
,
1000
0000
0100
0010
0001
0010
0001
0000
1000
0010
1000
0010
0100
0000
0010
0000
,
1000
0000
0001
0100
0001
0100
0010
0000
0100
0001
0100
0001
1000
0000
0100
0000
,
0010
0000
0001
0000
0100
0010
0000
0010
1000
0000
1000
0001
0000
0001
0100
0000
,
0001
1000
0100
0010
0001
1000
0100
0000
0020
0000
0000
0000
0030
0000
0000
0000
,
0001
0000
0100
0010
0000
0010
1000
0000
0001
0000
0010
0100
0000
0100
1000
0000
,
0001
0000
0100
0010
0000
0010
1000
0000
0001
0000
0010
0100
0000
0100
1000
0000
,
0001
0100
0010
0000
1000
0100
0010
0000
0001
0100
0010
0000
1000
0100
0010
0000
,
0002
0000
0000
0003
,
1001
0000
0000
0000
0001
0100
0010
0000
1000
0010
1000
0000
0010
0000
0010
0000
,
1000
0000
0100
0000
0010
0001
0010
0000
0002
0000
0103
0000
0020
0000
1030
0000
,
0001
0000
0010
0000
1000
0000
0001
0100
0010
0000
0001
1000
0000
1000
0001
0000
,
0100
0000
0010
0000
1000
0100
0010
0001
0010
0000
0000
0010
0000
0000
0010
0000
,
0000
0000
0010
0000
1001
0000
0000
0000
1000
0000
0100
0000
0010
0000
0001
0100
,
0001
0000
1000
0000
0100
0000
0010
0001
0010
0000
0100
1000
0100
0000
0000
0100
,
1000
0000
0001
0000
0100
0000
0010
1000
0001
0000
1000
0010
0000
0100
0001
0000
,
0000
0000
0001
0000
1000
0100
0010
0000
0100
0010
0001
0000
0010
0001
1000
0000
,
0001
0100
0001
0000
1000
0010
0000
0010
0100
0000
1000
0000
0100
0000
0001
0000
,
1000
0100
1000
0000
0001
0010
0000
0010
0100
0000
0001
0000
0100
0000
1000
0000
,
0001
0000
0010
0000
0100
1000
0010
0000
0100
0001
0010
0000
0100
1000
0010
0000
,
0100
0000
0001
0010
0000
0000
0011
0000
1000
0000
0010
1000
0000
0000
0010
1000
,
0010
0100
0010
0000
0100
0001
0000
0001
0100
0000
0001
1000
0001
0000
0010
0000
,
0100
1000
0100
0000
0010
0001
0000
0010
0001
0010
0000
0100
0000
1000
0000
1001
,
0000
0000
0001
1000
0001
0000
0100
0000
0010
1000
0000
0001
0100
0000
0010
1000
,
0000
0000
0100
0010
0100
0000
1000
0000
0001
0000
0010
0000
1000
0000
0001
0000
,
0100
1000
0010
0001
1000
0100
0001
1000
,
0200
0000
0000
0000
,
0000
0000
0000
0000
0300
0000
0000
0000
0100
0010
0000
0001
0000
1000
0000
0001
,
0000
0000
0001
0000
1000
0000
0010
0100
0010
0000
1000
0000
0100
0000
0010
0000
,
0001
1000
0001
0000
0100
0010
0100
0000
0010
1000
0000
0010
0100
0000
0001
0000
,
2000
0000
0000
0000
,
0000
0000
0000
0000
3000
0000
0000
0000
1000
0100
0000
0010
0000
0001
0000
0100
,
0000
0000
0100
0010
0100
0000
0001
0000
1000
0010
1000
0000
0100
1000
0100
0000
,
1000
0100
0010
0000
0100
0010
0001
0000
0010
0000
0000
1001
0000
0000
0000
0000
,
0001
0000
0100
1000
0000
0000
1000
0000
0001
0000
0010
0000
1000
0000
0001
0000
,
1000
0000
0100
0001
0000
0000
0001
0000
1000
0000
0010
0000
0001
0000
1000
0001
,
1000
0000
0010
0100
0010
1000
0000
1000
0001
0000
0010
0001
0000
0010
0100
0000
,
1000
0010
1000
0000
0010
0100
0000
0000
0100
0000
0001
0000
1000
0001
1000
0001
,
2000
0000
0000
0000
0000
0000
0002
0000
0000
0000
0000
0000
3003
0000
0000
0011
,
0000
0000
0101
0000
0000
1010
0000
0000
1100
0000
0000
0110
0000
0000
2002
0000
,
0000
0000
0000
3003
,
1000
0000
0100
0010
0001
0000
0010
0100
1000
0000
0001
1000
0000
1000
0001
0000
,
0100
0000
0010
0000
0001
0000
1000
0000
0100
0000
0010
1000
0000
1000
0010
0000
,
0100
0000
0001
0100
0000
0000
0101
0000
0001
0000
0010
0001
0000
0000
0011
0000
,
0000
1001
1000
0100
0001
0100
1000
0000
,
0001
0000
0100
0010
1000
0000
0010
0100
0001
0000
0010
0100
0000
0100
0010
0000
,
0001
0000
1000
0010
0100
0000
0001
0000
0100
0010
1000
0000
0001
0000
1000
0000
,
0100
0000
0010
0001
0000
0010
0000
0001
0000
0000
0001
1000
0001
0000
0100
0000
,
0010
0100
1000
0001
0010
0100
0001
0000
,
0001
0000
0010
0100
1000
0000
0100
0010
0001
0000
1000
0001
0000
0001
1000
0000
,
0010
0000
0100
0000
1000
0000
0001
0000
0010
0000
0100
0001
0000
0001
0100
0000
,
0010
0000
1000
0010
0000
0000
1010
0000
1000
0000
0100
1000
0000
0000
1100
0000
,
0000
1001
0001
0010
1000
0010
0001
0000
,
1000
0000
0010
0100
0001
0000
0100
0010
1000
0000
0100
0010
0000
0010
0100
0000
,
1000
0000
0001
0100
0010
0000
1000
0000
0010
0100
0001
0000
1000
0000
0001
0000
,
0010
0000
0100
1000
0000
0100
0000
1000
0000
0000
1000
0001
1000
0000
0010
0000
,
0100
0000
0010
0000
0001
0000
1000
0000
0100
0000
0010
1000
0000
0010
0000
0100
,
0002
0000
0000
0000
0000
0000
0000
0000
0003
0000
0000
0000
0001
0010
0001
0010
0100
1000
0100
1000
0100
0010
0100
0010
0001
1000
0000
0010
0000
0100
0000
0010
,
1000
0000
0100
0000
0010
0000
0001
1000
0001
0000
0000
0100
0000
0000
0100
0000
0010
0000
1000
0000
0100
0010
0001
0000
1000
0000
0000
1000
0000
0000
1000
0000
,
0001
0000
0000
0000
0000
0000
0000
0000
0000
0000
0000
0000
1000
0010
1000
0010
0100
0001
0100
0001
0100
0010
0100
0010
1000
0000
0000
0000
1001
0000
0000
0000
,
1000
0100
0010
0001
0100
0010
1000
0100
0010
0001
0100
0010
1000
0100
0010
0000
,
0001
0010
0001
0010
0000
0100
1000
0000
0001
0100
0001
0100
0000
0010
1000
0000
,
0002
0203
2300
3200
,
0302
0000
0010
0000
0000
0023
0000
0000
0100
0000
0000
0230
0000
0000
1000
0000
,
1300
0000
0001
0100
0010
0000
1000
0100
0010
0000
0000
0001
0000
1000
0000
0001
,
0000
0000
1000
0000
1001
0000
0000
0000
0001
0100
0001
0000
0010
0100
1000
0000
,
0010
0100
0010
0100
0001
1000
0001
1000
0001
0000
0000
0001
0000
0000
0001
0000
,
1000
0000
0100
0010
0001
0000
0000
1001
0000
0000
0110
0000
0000
1001
0000
0000
,
1000
0010
0100
0000
0001
0010
0100
0000
1000
0000
0000
0001
0000
0000
1001
0000
,
0000
0000
0000
0000
;
#NOTES:
     dance-double:
     :
     Easy:
     5:
     :
00000000
00000000
00000000
00000000
,
00000000
00000000
00000000
00000000
,
00000000
00000000
00000000
00000000
,
00000000
00000000
00000000
00000000
,
00000000
00000000
00000000
00000000
,
00000000
00000000
00000000
00000000
,
00002000
00000000
00000000
00003000
,
00020000
00000000
00000000
00030000
,
00001000
00010000
00000100
00001000
,
00000010
00000000
00000000
00000000
,
00000110
00000000
00000000
00000000
,
00000001
00000100
00000001
00000000
,
00000001
00000100
00000010
00000000
,
00001000
00000010
00001000
00000010
,
00010000
00001000
00010000
00000000
,
00001000
00010000
00001000
00000000
,
00010000
00001000
00010000
00000000
,
00001000
00010000
00100000
00000000
,
01100000
00000000
00000000
00000000
,
10000000
00100000
10000000
00000000
,
00010000
01000000
00010000
00000000
,
10000000
01000000
00100000
00000000
,
00001000
00010000
00001000
00000000
,
00001000
00010000
00001000
00000000
,
00010000
00000100
00010000
00000000
,
00000100
00001000
00000100
00000010
,
00000001
00000000
00000000
00000000
,
00000001
00001000
00000100
00000000
,
00000100
00010000
00001000
00000000
,
00011000
00000000
00011000
00000000
,
00010000
00001000
01000000
00000000
,
00010000
10000000
00100000
00000000
,
00100000
01000000
00010000
00000000
,
00010000
00100000
00001000
00010000
,
00002000
00000000
00000000
00003000
,
00020000
00000000
00000000
00030000
,
00011000
00000000
00000000
00000000
,
00000000
00000000
00000000
00000000
,
00010000
00001000
00010000
00001000
,
00000010
00000000
00000001
00000000
,
00002000
00000000
00000000
00003000
,
00000002
00000000
00000000
00000003
,
00000001
00000100
00000001
00000100
,
00001000
00000000
00010000
00000000
,
00001000
00001000
01000000
00000000
,
00010000
00000000
01000000
00000000
,
00100000
00100000
10000000
00000000
,
10000000
01000000
00100000
00000000
,
00020000
00000000
00000000
00030000
,
20000000
00000000
00000000
30000000
,
00000000
00000000
00000000
00000000
,
10000000
00100000
10000000
00100000
,
01000000
00010000
01000000
00000000
,
00010000
00010000
00100000
00100000
,
00001000
00010000
00001000
00000000
,
00010000
00000010
00010000
00000010
,
00001000
00000010
00001000
00000000
,
00000001
00000001
00000100
00000100
,
00000010
00000100
00000010
00000000
,
00000110
00000000
00001001
00000000
,
00000001
00000100
00001000
00000000
,
00010000
00010000
00001000
00000000
,
00001000
00001000
00010000
00000000
,
00010000
00100000
10000000
00000000
,
00100000
00100000
01000000
00000000
,
00020000
00000000
00000000
00030000
,
20000000
00000000
00000000
30000000
,
10010000
00000000
10000000
00010000
,
00100000
00001000
00010000
00000000
,
00011000
00000000
00011000
00000000
,
00001000
00001000
00010000
00000000
00010000
00010000
00001000
00000000
,
00002000
00000000
00000000
00003000
,
00001000
00000000
00010000
00000000
,
00000100
00001000
00000100
00000000
,
00000020
00000000
00000000
00000030
,
00000010
00000001
00001000
00000000
,
00001000
00000100
00010000
00000000
,
00002000
00000000
00000000
00003000
,
00011000
00000000
00000000
00000000
00010000
00000000
00000000
00011000
,
00000000
00000000
00000000
00000000
;
#NOTES:
     dance-double:
     :
     Medium:
     12:
     :
00000000
00000000
00000000
00000000
,
00000000
00000000
00000000
00000000
,
00000000
00000000
00000000
00000000
,
00000000
00000000
00000000
00000000
,
00000000
00000000
00000000
00000000
,
00000000
00000000
00000000
00000000
,
00011000
00000000
00000000
00000000
00001000
00000000
00010000
00000000
00001000
00000000
00000000
00010000
00000000
00000000
00100000
00000000
,
00000000
01000000
00000000
01100000
00000000
00000000
10010000
00000000
,
10000000
01000000
00100000
00000000
00001000
00010000
00001000
00000000
,
00011000
00000000
00000000
00000000
,
00000000
00000000
00000000
00000000
,
00010000
00000000
00001000
00000000
00000010
00000001
00000010
00000000
,
00000001
00000000
00001000
00000000
00000010
00000100
00000010
00000000
,
00000100
00000000
00000000
00000000
00001000
00000000
00000000
00000000
00010000
00000000
00000000
00001000
00000000
00001000
00000000
00000000
,
00010000
00001000
01000000
00010000
02000000
00000000
03000000
00000000
,
01000000
00010000
10000000
00000000
01000000
10000000
00010000
00000000
,
00100000
01000000
00100000
00000000
00001000
00010000
00001000
00000000
,
00001000
00010000
00000100
00001000
00000010
00000100
00000001
00000000
,
00001001
00000000
00000000
00000000
,
00001001
00000000
00000001
00000100
00000010
00001000
00000010
00000000
,
00000010
00000100
00001000
00010000
00002000
00000000
00023000
00000000
,
00031000
00000000
00010000
00001000
00100000
00010000
01000000
00000000
,
00010000
00000000
00100000
00000000
01000000
00000000
10000000
00000000
01000000
00000000
00000000
01000000
00000000
00000000
01000000
00000000
,
00000000
01000000
10000000
00000000
10000000
00010000
00100000
00000000
,
00100000
00001000
00010000
00001000
00020000
00000000
00032000
00000000
,
00013000
00000000
00000100
00000000
00001000
00000000
00000000
00000000
00000010
00000000
00000000
00000100
00000000
00000000
00000010
00000000
,
00000000
00000010
00001000
00000000
00001010
00000000
00000101
00000000
,
00000001
00000010
00000100
00001000
00000010
00000100
00001000
00000000
,
00010000
00100000
01000000
00010000
00100000
01000000
10000000
00000000
,
00010000
01000000
10000000
01000000
00010000
10000000
00010000
00000000
,
10000000
01000000
00100000
00001000
00020000
00000000
00030000
00000000
,
00010000
00001000
01000000
00100000
01000000
00001000
00010000
00000000
,
00001000
00010000
00000100
00000010
00000100
00010000
00001000
00000000
,
00010000
00000000
00000100
00000000
00001000
00000000
00000000
00000000
00000010
00000000
00000000
00000100
00000000
00000000
00000001
00000000
,
00000000
00000001
00000100
00000010
00000100
00001000
00010000
00001000
,
00010000
00000000
00010000
00001000
00010000
01000000
10000000
00000000
,
00020000
00000000
00000000
00000000
,
20030000
00000000
00000000
00000000
,
30000000
00000000
10000000
01000000
00100000
00001000
00010000
00000000
,
00001000
00000000
00000000
00000000
00000010
00000000
00000000
00000000
00000001
00000000
00000000
00001000
00000000
00000000
00000001
00000000
,
00000200
00000000
00000000
00000000
,
00000320
00000000
00000000
00000000
,
00000030
00000000
00000010
00000100
00000001
00001000
00000100
00000000
,
00000100
00000000
00010000
00000000
00001000
00000000
00010000
00000000
00001000
00000000
00000000
00011000
00000000
00000000
00000000
00000000
,
00010000
00000000
00000000
00001000
00000000
00000000
00001000
00000000
01000000
00000000
00010000
00000000
00100000
00000000
00010000
00000000
,
01000000
00000000
00000000
00100000
00000000
00000000
00100000
00000000
10000000
00000000
00010000
00000000
00100000
00000000
00000000
00000000
,
01000000
00000000
10000000
00000000
00010000
00000000
00000000
00000000
01000000
00000000
00001000
00000000
00000000
00010000
00000000
00000000
,
00001000
00000000
00010000
00000000
00000000
00000010
00000000
00000000
00001000
00000000
00000100
00000000
00000010
00000000
00000001
00000000
,
00000200
00000000
00000000
00000000
00000300
00000000
00000010
00000000
00002000
00000000
00000000
00000000
00003000
00000000
00000000
00000001
,
00000000
00000000
00001000
00000000
00000000
00000100
00000000
00000000
00010000
00000000
00000000
00001000
00000000
00000000
00010000
00000000
,
00000000
00000000
00000000
00000000
,
00010000
00001000
00100000
00010000
01000000
00100000
10000000
01000000
,
00010000
01000000
10000000
00010000
00100000
01000000
00010000
00000000
,
00001000
00000000
00000000
00000010
00000000
00000000
00001000
00000000
00010000
00000000
00000000
00100000
00000000
00000000
00010000
00000000
,
00000000
00010000
00001000
00010000
00000000
00010000
00001000
00000000
,
00010000
00000100
00001000
00000010
00000100
00001000
00010000
00001000
,
00000100
00000010
00010000
00001000
00000010
00000100
00001000
00000000
,
00000100
00010000
00001000
00100000
00010000
00100000
01000000
00010000
,
10000000
00100000
00010000
00000000
00100000
00001000
00010000
00000000
,
00001000
00010000
00000010
00001000
00000100
00000010
00000001
00000100
,
00001000
00000100
00000001
00001000
00000010
00000100
00001000
00000000
,
00010000
00000000
00000000
00100000
00000000
00000000
00010000
00000000
00001000
00000000
00000000
00000010
00000000
00000000
00001000
00000000
,
00000000
00001000
00010000
00001000
00000000
00001000
00010000
00000000
,
00001000
01000000
00010000
00100000
01000000
00010000
00001000
00010000
,
01000000
00100000
00001000
00010000
00100000
01000000
00010000
00000000
,
01000000
00001000
00010000
00000010
00001000
00000010
00000100
00001000
,
00000001
00000010
00001000
00000000
00000010
00010000
00001000
00000000
,
00022000
00000000
00000000
00000000
00033000
00000000
00010000
00001000
00010000
00001000
00010000
00001000
00010000
00001000
00010000
00000000
,
00001000
00000000
00000000
00000000
01000000
00000000
00000000
00000000
00010000
00000000
00000000
00100000
00000000
00000000
01000000
00000000
00000000
00000000
10000000
00000000
00100000
00000000
01000000
00000000
00001000
00000000
00000000
00010000
00000000
00000000
00001000
00000000
,
00010000
00000000
00000000
00000000
00011000
00000000
00001000
00010000
00001000
00010000
00001000
00010000
00001000
00010000
00001000
00000000
,
00020000
00030200
00002300
00003002
00000203
00000320
00002030
00003000
,
00000001
00000100
00000010
00001000
00000001
00000010
00000100
00001000
,
00000200
00020300
00032000
00203000
,
00310000
00000000
01000000
00000000
00000000
01000000
00000000
00000000
00100000
00000000
00000000
00100000
00000000
00000000
10000000
00000000
,
00010000
00000000
00000000
00000000
10010000
00000000
00000000
00000000
10000000
00000000
00000000
01000000
00000000
00100000
00000000
01000000
,
00000000
01000000
10000000
00000000
00010000
00100000
00001000
00000000
,
00010000
00000000
00001000
00000000
00010000
00000000
00001000
00000000
00000100
00000000
00000000
00000001
00000000
00000000
00001000
00000000
,
00000001
00000000
00000000
00000000
00000010
00000000
00000000
00000100
00000000
00000000
00001000
00000000
00000000
00000100
00000000
00000000
,
00010000
00000000
00001000
00000000
01000000
00000000
00010000
00000000
00100000
00000000
00000000
01000000
00000000
00000000
00100000
00000000
,
00000000
00000000
00000000
00000000
;
#NOTES:
     dance-double:
     :
     Hard:
     16:
     :
00000000
00000000
00000000
00000000
,
00000000
00000000
00000000
00000000
,
00000000
00000000
00000000
00000000
,
00000000
00000000
00000000
00000000
,
00000000
00000000
00000000
00000000
,
00000000
00000000
00000000
00000000
,
00011000
00000000
00000000
00000000
00001000
00000000
00010000
00000000
00100000
00000000
00000000
10000000
00000000
00000000
00010000
00000000
,
00000000
01000000
00100000
01000000
00000000
01000000
00010000
10000000
,
01000000
00000000
00100000
00010000
00000000
00100000
00000000
00001000
00000000
00010000
00000100
00000000
00001000
00000100
00000010
00000001
,
00001000
00000000
00000000
00000000
,
00000000
00000000
00000000
00000000
,
00000001
00000000
00000100
00000010
00000100
00000010
00001000
00000000
00000010
00010000
00000000
00010000
00001000
00000000
00001000
00000000
,
00100000
00000000
00010000
00100000
00010000
00100000
01000000
00000000
10000000
00100000
00000000
00100000
01000000
00000000
00010000
00000000
,
00100000
00000000
00001000
00000000
00010000
00000100
00000000
00000100
00001000
00000000
00001000
00000010
00000000
00000010
00000100
00000000
,
00000001
00000010
00000100
00001000
00000100
00000010
00000001
00000000
00002000
00000000
00000000
00000000
00003000
00000000
00000000
00000000
,
00000001
00000000
00000100
00001000
00000000
00001000
00010000
00000000
00100000
00000000
01000000
00001000
00000000
00001000
00010000
00000000
,
01000000
00000000
00100000
00010000
00000000
00010000
10000000
00000000
00100000
00000000
01000000
00010000
00000000
00010000
10000000
00000000
,
01000000
00100000
00010000
00000000
00100000
00001000
00010000
00000000
00001000
00010000
00000010
00000000
00001000
00000010
00000100
00000000
,
00000002
00000000
00000000
00000003
,
00001001
00000000
00000000
00000000
00000001
00000010
00000100
00000000
00001000
00000100
00001000
00000000
00000010
00000000
00000010
00000000
,
00001000
00000000
00000010
00000000
00010000
00001000
00010000
00000000
00002000
00000000
01003000
00000000
00020000
00000000
00130000
00000000
,
01000000
00000000
10000000
00000000
00010000
00000000
01000000
00100000
10000000
00000000
00010000
01000000
00000000
01000000
00001000
00000000
,
00010000
00000000
00000100
00000000
00001000
00000010
00001000
00000010
00000100
00000000
00000000
00000010
00000000
00000000
00000100
00000000
,
00000000
00000000
00000100
00000000
00001001
00000000
00000000
00000000
00000001
00000000
00000100
00000000
00000010
00000000
00001000
00000010
,
00010000
00000000
00001000
00000000
00100000
00000000
00010000
00100000
01000000
00000000
10000000
00100000
01000000
00000000
00000000
01000000
,
00010000
00000000
10000000
00000000
01000000
00000000
00010000
00000000
00001000
00000000
00000010
00000001
00000000
00000001
00001000
00000000
,
00000000
00000000
00000001
00000000
00000010
00000001
00001000
00000000
00000100
00010000
00001000
00000000
00100000
00010000
10000000
00000000
,
01000000
00100000
00010000
00000000
01000000
00100000
00000000
00100000
10000000
00000000
01000000
00000000
00100000
00000000
00001000
00000000
,
00010000
00000100
00010000
00000000
00001000
00000010
00000000
00000010
00000001
00000000
00000010
00000000
00001000
00000000
00000010
00000000
,
00000001
00000000
00000010
00000000
00000100
00001000
00000100
00010000
00001000
00000000
00010000
00001000
01000000
00010000
01000000
00000000
,
00100000
00000000
10000000
00100000
00000000
00000000
10100000
00000000
10000000
00000000
01000000
00100000
00000000
00010000
00100000
00000000
,
00001000
00010000
00001000
00000000
00010000
00000100
00000000
00000100
00001000
00000000
00000010
00000000
00000100
00000001
00000100
00000000
,
00000001
00000010
00000001
00000000
00001000
00000100
00000000
00000100
00010000
00001000
00000000
00100000
00000000
00010000
00000000
01000000
,
00000000
00000000
01000000
00100000
01000000
00000000
00010000
00000000
10000000
01000000
00000000
00100000
00010000
00000000
10000000
01000000
,
00000000
00000000
10000000
00010000
10000000
00000000
00100000
00000000
00010000
00000000
00001000
00000000
00000100
00000000
00000001
00000000
,
00000010
00001000
00010000
01000000
10000000
00100000
00010000
00001000
,
00020000
00000000
00000000
00000000
,
00000000
00000000
00000000
00000000
00030000
00000000
00000000
00000000
00010000
00001000
00000000
00010000
00000000
00010000
00000000
00010000
,
00000000
00000000
00001000
00000000
00011000
00000000
00010000
00000010
00010000
00000000
00000010
00000000
00001000
00000000
00000100
00000000
,
00000010
00000100
00000010
00000000
00000001
00000000
00000100
00000000
00000010
00001000
00000000
00000010
00010000
00000000
00001000
00000000
,
00020000
00000000
00000000
00000000
,
00000000
00000000
00000000
00000000
00030000
00000000
00000000
00000000
00001000
00010000
00000000
00001000
00000000
00001000
00000000
00001000
,
00000000
00000000
00010000
00000000
00011000
00000000
00001000
00100000
00001000
00000000
00100000
00010000
00100000
00000000
01000000
10000000
,
00010000
00000000
01000000
00000000
00100000
00000000
00010000
00000000
00001000
00000000
00000000
00011000
00000000
00000000
00000000
00000000
,
00010000
00000000
00001000
00010000
00000000
00000000
00010000
00000000
00001000
00000000
00000010
00000000
00000001
00000000
00001000
00000000
,
00000100
00000000
00000010
00000001
00000000
00000000
00000001
00000000
00000100
00000000
00001000
00000000
00010000
00000000
00100000
00000000
,
10000000
00000000
01000000
00100000
00000000
00100000
00010000
00000000
01000000
00000000
00001000
00010000
00000000
00010000
00000100
00000000
,
00001000
00000010
00001000
00000000
00000001
00000100
00000000
00000000
00000100
00000000
00000010
00000000
00001000
00000001
00001000
00000001
,
00002000
00000000
00000000
00000000
00000000
00000000
00000002
00000000
00000000
00000000
00000000
00000000
00003003
00000000
00000000
00001001
,
00000000
00000000
00000001
00000010
00000000
00000010
00001000
00000000
00001000
00010000
00000000
00010000
01000000
00000000
02200000
00000000
,
00000000
00000000
00000000
03300000
,
10000000
00000000
01000000
00100000
00010000
00000000
01000000
00100000
10000000
00000000
01000000
00100000
00000000
00100000
01000000
00000000
,
00010000
00001000
00000010
00000100
00010000
00001000
00000100
00000001
,
00000010
00000000
00000100
00010000
00000000
00010000
00001000
00000000
00100000
00000000
00010000
01000000
00000000
01000000
00100000
00000000
,
00010000
00000000
00001000
00010000
00001000
00000000
00000100
00000010
00000100
00000000
00000001
00001000
00000001
00000000
00000000
00000000
,
00000001
00000000
00000010
00000100
00001000
00000000
00000010
00000100
00000001
00000000
00001000
00000010
00000000
00000010
00010000
00000000
,
00001000
00000000
01000000
00000000
00010000
00000000
00100000
00000000
01000000
00000000
00100000
00010000
10000000
00000000
00100000
00000000
,
01000000
00000000
00100000
00010000
00000000
00001000
00000000
00010000
00000000
00000000
00001000
00010000
00001000
00000000
00000100
00000000
,
00000010
00001000
00000010
00001000
00000100
00000010
00000100
00000010
00000001
00001000
00000001
00001000
00000001
00000000
00000000
00000000
,
00000001
00000000
00000100
00000010
00001000
00000000
00000100
00000010
00000001
00000000
00000100
00000010
00000000
00000010
00000100
00000000
,
00001000
00010000
00100000
01000000
00001000
00010000
01000000
10000000
,
00100000
00000000
01000000
00001000
00000000
00001000
00010000
00000000
00000010
00000000
00001000
00000100
00000000
00000100
00000010
00000000
,
00001000
00000000
00010000
00001000
00010000
00000000
01000000
00100000
01000000
00000000
10000000
00010000
10000000
00000000
00000000
00000000
,
10000000
00000000
00100000
01000000
00010000
00000000
00100000
01000000
10000000
00000000
00010000
00100000
00000000
00100000
00001000
00000000
,
00010000
00000000
00000100
00000000
00001000
00000000
00000010
00000000
00000100
00000000
00000010
00001000
00000001
00000000
00000010
00000000
,
00000100
00000000
00000010
00001000
00000000
00010000
00000000
00001000
00000000
00000000
00010000
00001000
00010000
00000000
01000000
00000000
,
00100000
00010000
00100000
00010000
01000000
00100000
01000000
00100000
10000000
00010000
10000000
00010000
10000000
00000000
00000000
00000000
,
00200000
00000000
00000000
00000000
00000000
00000000
00000000
00000000
00300000
00000000
00000000
00000000
10000000
01000000
00100000
00000000
00001000
00010000
00001000
00000000
00010000
00000010
00001000
00000000
00000100
00000010
00000000
00000001
00000000
00001000
00000000
00000001
,
00000100
00000000
00000010
00000000
00000100
00000000
00001000
00000000
00010000
00000000
00000000
00001000
00000000
00000000
00011000
00000000
00000000
00000000
00001000
00000000
01000000
00010000
01000000
00010000
00100000
00000000
00000000
01000000
00000000
00000000
00100000
00000000
,
01100000
00000000
00000000
00000000
00000000
00000000
00000000
00000000
00000000
00000000
00000000
00000000
10000000
01000000
00100000
00000000
00001000
00010000
00000010
00000000
00000100
00001000
00000100
00000000
00000001
00000000
00000000
00000000
00001001
00000000
00000000
00000000
,
00000001
00000100
00000010
00001000
00010000
01000000
00100000
10000000
01000000
00100000
00010000
00001000
00000100
00000010
00000001
00000000
,
00000001
00000010
00000001
00000010
00000000
00000100
00001000
00000000
00000100
00010000
00000100
00010000
00000000
00001000
00010000
00000000
,
00002000
00203000
02300000
23000000
,
30100000
00000000
01000000
00000000
00000000
00100000
00000000
00000000
00010000
00000000
00000000
00001000
00000000
00000000
00000010
00000000
,
00000001
00000010
00000001
00000010
00000100
00001000
00000100
00001000
00000001
00000000
00000000
00001000
00000000
00000001
00000000
00001000
,
00000000
00000000
00000001
00000000
00001001
00000000
00000000
00000000
00001000
00000100
00000010
00000000
00000001
00000000
00001000
00000000
,
00000100
00000000
00000010
00000000
00001000
00000000
00010000
00000000
01000000
00000000
00000000
10000000
00000000
00000000
10010000
00000000
,
00010000
00100000
01000000
00000000
10000000
00010000
01000000
00010000
00000000
00100000
00001000
00000000
00010000
00001000
00000000
00010000
,
00000100
00001000
00000100
00000000
00000010
00000001
00001000
00000010
00000100
00000000
00000000
00000001
00000000
00000000
00001001
00000000
,
00000000
00000000
00000000
00000000
;
