
//----- song ID: safa2 -----//
#TITLE:THE SAFARI (STARDOM Remix);
#ARTIST:BEMANI Sound Team "SYUNN";
#BANNER:THE SAFARI (STARDOM Remix).png;
#BACKGROUND:THE SAFARI (STARDOM Remix)-bg.png;
#CDTITLE:./CDTitles/DANCERUSH STARDOM.png;
#MUSIC:THE SAFARI (STARDOM Remix).ogg;
#SAMPLESTART:16.116;
#SAMPLELENGTH:15;
#BPMS:0=134;
#BGSTAGE:29;
#NOTES:
     dance-single:
     :
     Beginner:
     3:
     :
0000
0000
0000
0000
,
0000
0000
0000
0000
,
0000
0000
0000
0000
,
0000
0000
0000
0000
,
0000
0000
0000
0000
,
0001
0000
0000
0000
,
1000
0000
0000
0000
,
0001
0000
0000
0000
,
2002
0000
3003
0000
,
2000
0000
3000
0000
,
0200
0000
0300
0000
,
0020
0000
0030
0000
,
0002
0000
0003
0000
,
2000
0000
3000
0000
,
0002
0000
0003
0000
,
0020
0000
0030
0000
,
0200
0000
0300
0000
,
1000
0000
0100
0000
,
1000
0000
0100
0000
,
0010
0000
0001
0000
,
1000
0000
0000
0000
,
0001
0000
0100
0000
,
0001
0000
0100
0000
,
0010
0000
0100
0000
,
0010
0000
0000
0000
,
1000
0000
0001
0000
,
1000
0000
0000
0000
,
0010
0000
0100
0000
,
0010
0010
0010
0000
,
1000
0000
0001
0000
,
1000
0000
0000
0000
,
0100
0000
0010
0000
,
0110
0000
0000
0000
,
0100
0000
1000
0000
,
0100
0000
1000
0000
,
0001
0000
1000
0000
,
0001
0001
0001
0000
,
0100
0000
0010
0000
,
0100
0000
0010
0000
,
1000
0000
0001
0000
,
1001
0000
0000
0000
,
1000
0000
1000
0000
,
0001
0000
0001
0000
,
1000
0000
1000
0000
,
0001
0001
0001
0000
,
0100
0000
0100
0000
,
0010
0000
0010
0000
,
0100
0000
0100
0000
,
0220
0000
0330
0000
,
0010
0000
1000
0000
,
0010
0000
1000
0000
,
0001
0000
0100
0000
,
0001
0001
0001
0000
,
1000
0000
0100
0000
,
1000
0000
0100
0000
,
0010
0000
0001
0000
,
1000
0000
0001
0000
,
1001
0000
0000
0000
,
0000
0000
0000
0000
;
#NOTES:
     dance-single:
     :
     Easy:
     6:
     :
0000
0000
0000
0000
,
0000
0000
0000
0000
,
0000
0000
0000
0000
,
0000
0000
0000
0000
,
0000
0000
0000
0000
,
0001
0000
0100
0001
,
1000
0000
0100
1000
,
0001
0000
1000
0001
,
0200
0000
0320
0000
,
2030
0000
3000
1000
,
0002
0000
0003
0001
,
0020
0000
0030
0010
,
0200
0000
0300
0100
,
2000
0000
3010
1000
,
0002
0000
0013
0001
,
0020
0000
0130
0010
,
0200
0000
1300
0001
,
1000
0100
0010
0001
,
1000
0100
0010
0100
,
1000
0010
0100
0001
,
1000
0010
0100
0001
,
1000
0100
1000
0100
,
0010
0001
0010
0001
,
1000
0000
0100
0000
0010
0100
0010
0100
,
0010
0000
0000
0000
,
0001
1000
0100
1000
,
0010
0100
0010
1000
,
0002
0003
2000
3000
,
0001
1000
1001
1001
,
1000
0001
0010
0001
,
0100
0010
0100
0001
,
2000
3000
0002
0003
,
1000
0010
0100
0001
,
1000
0100
1000
0100
,
0010
0100
1000
0001
,
0200
0300
0020
0030
,
0100
0010
0110
0110
,
0001
0010
0001
0010
,
0100
0010
0001
1000
,
0020
0030
0200
0300
,
1001
0000
0000
0000
,
1000
0001
1000
0100
,
0010
0001
1000
0001
,
0100
0010
0100
0010
,
1000
0001
1001
1001
,
0001
1000
0001
0010
,
0100
1000
0001
1000
,
0010
0100
0010
0100
,
0002
0203
0320
2030
,
3001
0100
1000
0100
,
0001
0100
1000
0100
,
0001
0010
1000
0010
,
0001
1000
1001
1001
,
1000
0100
0001
0100
,
1000
0100
0001
0100
,
1000
0010
0001
0010
,
1000
0100
0010
0001
,
1001
0000
0000
0000
,
0000
0000
0000
0000
;
#NOTES:
     dance-single:
     :
     Medium:
     11:
     :
0000
0000
0000
0000
,
0000
0000
0000
0000
,
0000
0000
0000
0000
,
0000
0000
0000
0000
,
0000
0000
0000
0000
,
1000
0000
0000
0000
0000
0001
0010
0100
,
1000
0000
0000
0000
0000
0001
0100
0010
,
1000
0000
0000
0000
0000
0100
0010
0001
,
2000
3200
0320
0032
,
2003
0000
0000
0000
3000
0010
0100
0010
,
0200
0000
0000
0000
0300
0001
0010
0001
,
0020
0000
0000
0000
0030
0100
1000
0100
,
2000
0000
0000
0000
3000
0010
0100
0001
,
0020
0000
0000
0000
0030
0001
0100
0001
,
2000
0000
0000
0000
3000
0100
0010
0100
,
2000
0000
0000
0000
3000
0001
0100
0010
,
0200
0000
0000
0000
0301
1000
0001
0000
,
0100
0000
0000
0010
0000
0000
0100
0000
0000
0001
0000
0000
1000
0000
0100
0000
,
1000
0000
0000
0010
0000
0000
1000
0000
0000
0100
0000
0000
0010
0000
0001
0000
,
1000
0000
0000
0100
0000
0000
1000
0000
0000
0001
0000
0000
0100
0000
0001
0000
,
0000
0000
0100
0000
0000
0010
0000
1000
0000
0001
0000
0000
0100
0000
0010
0000
,
1000
0000
0000
0100
0000
0000
0010
0000
0000
0001
0000
0000
1000
0000
0001
0000
,
1000
0000
0000
0010
0000
0000
0100
0000
0000
0001
0000
0000
1000
0000
0001
0000
,
0100
0010
0100
0010
1000
0100
0010
0001
,
1000
0000
0000
0000
,
0001
0011
0110
1100
,
1000
0000
0010
0100
0000
0100
0001
0100
,
0020
0031
0020
1030
,
0110
0000
1001
0000
0001
0010
0200
0000
,
1300
1100
0110
0011
,
0001
0000
0100
0010
0000
0010
1000
0010
,
0200
1300
0200
0301
,
1000
0000
0100
0000
0010
0000
0100
0010
,
0001
0100
0010
1000
,
0010
0100
0001
0100
0000
0100
0010
1000
,
0002
0013
2000
3010
,
0110
0000
0011
0000
0001
1000
0020
0000
,
0130
0001
1000
0100
,
0010
0100
1000
0100
0000
0100
0010
0001
,
2000
3010
0002
0013
,
1000
0000
0001
0000
0010
0100
0010
0000
,
0001
0100
0001
0100
0001
0100
0010
0000
,
1000
0100
1000
0100
1000
0000
1001
0000
,
0001
0100
0001
0100
0001
0100
0010
1000
,
1010
0000
1001
0000
0001
1000
0002
0000
,
1003
0100
1000
0100
1000
0100
0010
0000
,
0001
0100
0001
0100
0001
0000
1001
0000
,
1000
0010
1000
0010
1000
0010
0100
0001
,
2000
3200
0320
0032
,
1003
0100
1000
0100
0010
0001
0100
0010
,
1000
0010
1000
0010
0100
0001
0010
0100
,
0010
0100
0010
0100
1000
0001
0100
0010
,
0110
0000
1010
0000
1000
0001
2000
0000
,
3001
0010
0100
0010
0001
0100
1000
0100
,
0010
1000
0100
1000
0010
0001
0010
1000
,
0001
0100
0010
0100
1000
0100
0010
0100
,
0001
0010
0100
1000
0010
0100
0010
0000
,
0110
0000
0000
0000
,
0000
0000
0000
0000
;
#NOTES:
     dance-single:
     :
     Hard:
     13:
     :
0000
0000
0000
0000
,
0000
0000
0000
0000
,
0000
0000
0000
0000
,
0000
0000
0000
0000
,
0000
0000
0000
0000
,
1000
0000
0000
0001
0100
0000
0001
0000
1000
0000
0010
0000
1000
0000
0010
0000
,
0100
0000
0001
0100
0001
0000
0010
0000
0100
0000
1000
0000
0100
0000
1000
0000
,
0010
0000
1000
0010
1000
0000
0001
0010
0001
0000
0100
0000
0001
0000
0100
0000
,
0010
1000
0010
1000
0001
0010
0100
0000
,
2002
0000
0000
0000
3003
1000
0100
0010
,
0220
0000
0000
0000
0330
0100
1000
0010
,
2020
0000
0000
0000
3030
1000
0001
0100
,
0202
0000
0000
0000
0303
0001
0010
0100
,
1000
0000
1000
0000
0001
0000
0100
0000
0010
0100
0010
0000
0100
0000
0001
0000
,
1000
0000
1000
0000
0100
0000
0010
0100
0000
0010
0100
0000
1000
0000
0001
0000
,
0100
0000
0100
0000
0010
0000
1000
0100
1000
0000
0100
0000
0010
0000
0001
0000
,
1000
0100
0010
0001
0100
0010
1001
0000
,
1010
0000
0000
0110
0000
0000
0101
0000
0000
1001
0000
0000
0010
0000
0100
0000
,
0110
0000
0000
1100
0000
0000
0101
0000
0000
1000
0010
0000
0100
0000
0010
0000
,
0101
0000
0000
0110
0000
0000
1010
0000
0000
1001
0000
0000
0010
0000
0100
0000
,
0000
0000
1100
0000
0000
0011
0000
0110
0000
1001
0000
0000
1000
0000
0001
0000
,
0100
0000
0001
0100
0001
0000
0100
0000
0010
0100
0010
0000
1000
0000
0100
0000
,
1000
0000
0100
1000
0100
0000
1000
0000
0100
0010
0100
0000
0010
0000
0001
0000
,
0100
0000
0010
0000
1000
0000
0001
0000
1000
0001
1000
0001
1000
0001
1000
0001
,
1000
0000
0000
0000
,
1100
1001
0011
0110
,
0010
0000
0000
0001
0000
0000
0010
0000
0000
0001
0000
0100
0000
0000
0000
0010
0000
0000
1000
0000
0000
0001
0000
0000
,
0100
0020
0000
0000
0130
0000
0000
0000
0001
2000
0000
0000
3100
0000
0000
0000
,
1000
0000
0010
0000
0000
0010
0100
0000
0010
0000
0000
0010
1000
0000
0000
0001
0000
0000
2002
0000
0000
3003
0000
0000
,
0011
1001
1100
0110
,
0100
0000
0000
1000
0000
0000
0100
0000
0000
1000
0000
0010
0000
0000
0000
0100
0000
0000
0001
0000
0000
1000
0000
0000
,
0010
0200
0000
0000
0310
0000
0000
0000
1000
0002
0000
0000
0013
0000
0000
0000
,
0001
0000
0100
0000
0010
0000
1000
0100
,
0010
0001
0010
1000
0010
0100
0010
0001
,
0100
0000
0010
0100
0000
0000
0001
0000
0000
0010
0000
0001
0000
0000
0000
1000
0000
0000
0010
0000
0000
0100
0000
0000
,
0010
2000
0000
0000
3100
0000
0000
0000
0010
0002
0000
0000
0103
0000
0000
0000
,
0001
0000
0100
0000
0000
0100
0010
0000
0100
0000
0000
0100
0001
0000
0000
1000
0000
0000
2002
0000
0000
3003
0000
0000
,
1010
0000
1000
0100
0001
0100
0010
0100
,
1000
0000
0010
1000
0000
0000
0100
0000
0000
0010
0000
0100
0000
0000
0000
1000
0000
0000
0100
0000
0000
0010
0000
0000
,
0100
2000
0000
0000
3010
0000
0000
0000
0100
0002
0000
0000
0013
0000
0000
0000
,
0001
0000
0100
0000
0010
1000
0001
0001
,
1000
0000
0010
0000
0100
0000
0010
0000
1000
0010
1000
0010
1000
0000
0001
0000
,
0010
0000
0100
0000
0010
0000
0001
0000
0010
0100
0010
0100
0010
0000
0001
0000
,
1000
0000
0100
0000
0010
0000
0100
0000
1000
0100
1000
0100
1000
0000
0010
0000
,
0100
0000
0001
0000
0000
0001
1000
0000
0001
0000
0000
0001
0010
0000
0000
0100
0000
0000
0220
0000
0000
0330
0000
0000
,
0001
0000
0010
0000
0100
0000
0010
0000
0001
0010
0001
0010
0001
0000
1000
0000
,
0010
0000
0100
0000
0010
0000
1000
0000
0010
0100
0010
0100
0010
0000
1000
0000
,
0001
0000
0100
0000
0010
0000
0100
0000
0001
0100
0001
0100
0001
0000
0010
0000
,
0011
0110
1100
1001
,
1000
0000
0010
0000
0001
0000
0010
0000
0100
0010
0100
0010
0100
0000
0001
0000
,
1000
0000
0100
0000
0001
0000
0100
0000
0010
0100
0010
0100
0010
0000
0001
0000
,
1000
0000
0010
0000
0001
0000
0010
0000
1000
0010
1000
0010
1000
0000
0100
0000
,
0010
0000
0001
0000
0000
0001
1000
0000
0001
0000
0000
0001
0100
0000
0000
0010
0000
0000
0220
0000
0000
0330
0000
0000
,
0001
0000
0010
0000
1000
0000
0010
0000
0100
0010
0100
0010
0100
0000
1000
0000
,
0001
0000
0100
0000
1000
0000
0100
0000
0010
0100
0010
0100
0010
0000
1000
0000
,
0001
0000
0010
0000
1000
0000
0010
0000
0001
0010
0001
0010
0001
0000
0100
0000
,
0001
0010
0100
1000
0010
0100
0001
0000
,
1001
0000
0000
0000
,
0000
0000
0000
0000
;
#NOTES:
     dance-single:
     :
     Challenge:
     16:
     :
0000
0000
0000
0000
,
0000
0000
0000
0000
,
0000
0000
0000
0000
,
0000
0000
0000
0000
,
0000
0000
0000
0000
,
0001
0000
1000
0010
0100
0000
0010
0000
1000
0100
1000
0000
1100
0000
0110
0000
,
0010
0000
0001
0100
0001
0100
0010
0000
1010
0000
1000
0001
1000
0000
0101
0000
,
0110
0000
0100
0001
1000
0000
0100
0010
0001
0010
0001
0010
0001
0000
1000
0001
,
0100
0010
0100
0010
1000
0010
1000
0010
0100
0000
0100
0000
0101
0000
0101
0000
,
1001
0000
1000
0100
1000
0000
0000
0000
0110
0000
0010
0001
1000
0000
0001
0000
,
0011
0000
0110
0000
1100
0000
1000
0010
0000
0010
0100
0000
0101
0000
0110
0000
,
1010
0000
0010
0000
0100
0000
0001
0010
0100
0000
0010
0100
1000
0000
0001
0000
,
1001
0000
1000
0100
0010
0100
0010
0100
0010
0000
0001
0000
0011
0000
1001
0000
,
1100
0000
0100
0010
0100
0000
1000
0000
0001
0100
0001
0000
1000
0000
0010
0000
,
1010
0000
0110
0000
0101
0000
0001
0010
0000
0010
0100
0000
1000
0000
0001
0000
,
1001
0000
0001
0100
0001
0100
0010
0000
1000
0100
1000
0100
0010
0000
0001
0000
,
1000
0010
0100
0001
1000
0010
0100
0001
1000
0000
0011
0000
1100
0000
0000
0000
,
0001
0000
1000
0100
0000
0010
0001
0000
1000
0010
0000
0100
0001
0000
1000
0000
,
0001
0000
0010
0100
0000
1000
0001
0000
1000
0001
0100
0001
1000
0010
0100
0001
,
1000
0000
0001
0010
0000
0100
1000
0000
0001
0100
0000
0010
1000
0000
0001
0000
,
1000
0000
0010
0000
0100
0001
0000
1001
0000
1100
0000
0000
0011
0000
1100
0000
,
1000
0000
0010
0100
0001
0100
0001
0000
1000
0100
1000
0100
0010
0000
0001
0000
,
1000
0000
0010
0100
0010
0100
0001
0000
0010
0001
0010
0100
1000
0001
0010
0100
,
1000
0000
0001
0000
0100
0001
0100
0001
1000
0010
1000
0010
0100
0010
0100
0010
,
0100
0000
0000
0000
,
1001
1100
0110
0011
,
1000
0000
0100
1000
0000
0000
0001
0000
0000
0100
0000
0010
0000
0000
0000
1000
0000
0000
0100
0000
0000
0010
0000
0000
,
0002
0000
0000
0200
0000
0000
0303
0000
0000
0000
0000
0000
0110
0000
0000
0000
0000
0000
0000
0000
0000
0000
0000
0000
2000
0000
0000
0200
0000
0000
3300
0000
0000
0000
0000
0000
0110
0000
0000
0000
0000
0000
0000
0000
0000
0000
0001
0000
,
0100
0000
0010
0000
0000
0010
1000
0000
0001
0000
0000
0001
1000
0000
0000
1010
0000
0000
0202
0000
0000
0303
0000
0000
,
1001
0011
0110
1100
,
0001
0000
0010
0001
0000
0000
1000
0000
0000
0010
0000
0100
0000
0000
0000
0001
0000
0000
0010
0000
0000
0100
0000
0000
,
2000
0020
3030
0000
0110
0000
0000
0000
0002
0020
0033
0000
0110
0000
0000
0000
,
1000
0000
0000
0000
0001
0000
0000
0000
0010
0000
0000
0000
0100
1000
0001
0010
,
0100
0010
0001
0001
0100
0100
0010
0010
,
1000
0000
0100
1000
0000
0000
0001
0000
0000
0100
0000
1000
0000
0000
0000
0100
0000
0000
0001
0000
0000
0010
0000
0000
,
0200
0000
0000
0020
0000
0000
0330
0000
0000
0000
0000
0000
0011
0000
0000
0000
0000
0000
0000
0000
0000
0000
0000
0000
2000
0000
0000
0020
0000
0000
3030
0000
0000
0000
0000
0000
0110
0000
0000
0000
0000
0000
0000
0000
0000
0000
1000
0000
,
0001
0000
0100
0000
0000
0100
0010
0000
1000
0000
0000
1000
0100
0000
0000
1100
0000
0000
0022
0000
0000
0033
0000
0000
,
1001
0000
1010
0010
0110
0100
0101
0001
,
0010
0000
0100
0010
0000
0000
0001
0000
0000
1000
0000
0100
0000
0000
0000
0001
0000
0000
0100
0000
0000
1000
0000
0000
,
0200
0020
0330
0000
1100
0000
0000
0000
0002
0020
0033
0000
0101
0000
0000
0000
,
1000
0000
0001
0000
0010
0100
1000
1000
,
0001
0000
0000
0000
0000
0000
0010
0000
0000
0000
0000
0000
0100
0000
0000
0010
0000
0000
0000
0000
0000
0010
0000
0000
0001
0000
0000
0000
0100
0000
0010
0000
0000
0000
0100
0000
0001
0000
0000
0000
0100
0000
0010
0000
0000
0000
0100
0000
,
0001
0000
0000
0000
0000
0000
1000
0000
0000
0000
0000
0000
0100
0000
0000
0010
0000
0000
0000
0000
0000
0010
0000
0000
0100
0000
0000
0000
1000
0000
0100
0000
0000
0000
0010
0000
0100
0000
0000
0000
1000
0000
0100
0000
0000
0000
0010
0000
,
0001
0000
0000
0000
0000
0000
0000
0000
0000
0100
0000
0000
0010
0000
0000
0100
0000
0000
0000
0000
0000
0100
0000
0000
0001
0000
0000
0000
0010
0000
0100
0000
0000
0000
0010
0000
0001
0000
0000
0000
0010
0000
0100
0000
0000
0000
0010
0000
,
0001
0000
0100
0000
0000
0100
1000
0000
0100
0000
0000
0100
0010
0000
0000
1000
0000
0000
2002
0000
0000
3003
0000
0000
,
1000
0000
0000
0000
0000
0000
0100
0000
0000
0000
0000
0000
0010
0000
0000
0100
0000
0000
0000
0000
0000
0100
0000
0000
1000
0000
0000
0000
0010
0000
0100
0000
0000
0000
0010
0000
1000
0000
0000
0000
0010
0000
0100
0000
0000
0000
0010
0000
,
1000
0000
0000
0000
0000
0000
0001
0000
0000
0000
0000
0000
0010
0000
0000
0100
0000
0000
0000
0000
0000
0100
0000
0000
0010
0000
0000
0000
0001
0000
0010
0000
0000
0000
0100
0000
0010
0000
0000
0000
0001
0000
0010
0000
0000
0000
0100
0000
,
1000
0000
0000
0000
0000
0000
0000
0000
0000
0010
0000
0000
0100
0000
0000
0010
0000
0000
0000
0000
0000
0010
0000
0000
1000
0000
0000
0000
0100
0000
0010
0000
0000
0000
0100
0000
1000
0000
0000
0000
0100
0000
0010
0000
0000
0000
0100
0000
,
1000
0000
0010
0000
0100
0001
0100
0000
0001
0010
0001
0010
0100
1000
0001
0100
,
0001
0000
0100
0010
0000
0000
0100
0000
0010
1000
0000
0010
0100
0000
0010
0001
0000
0010
0100
0000
0010
1000
0000
0010
,
1000
0000
0100
0010
0000
0000
0100
0000
0010
0001
0000
0010
0100
0000
0010
1000
0000
0010
0100
0000
0010
0001
0000
0010
,
0100
0000
1000
0001
0000
0000
1000
0000
0100
0001
0000
0100
1000
0000
0100
0001
0000
0100
1000
0000
0100
0001
0000
0100
,
1000
0000
0010
0000
0000
0010
0100
0000
0001
0000
0000
0001
0010
0000
0000
0011
0000
0000
2200
0000
0000
3300
0000
0000
,
1000
0000
0010
0100
0000
0000
0010
0000
0100
0001
0000
0100
0010
0000
0100
1000
0000
0100
0010
0000
0100
0001
0000
0100
,
0001
0000
0010
0100
0000
0000
0010
0000
0100
1000
0000
0100
0010
0000
0100
0001
0000
0100
0010
0000
0100
1000
0000
0100
,
0010
0000
0001
1000
0000
0000
0001
0000
0010
1000
0000
0010
0001
0000
0010
1000
0000
0010
0001
0000
0010
1000
0000
0010
,
0001
0000
0100
0000
0010
0000
1000
0100
0010
0000
0110
0000
0011
0000
0000
0000
,
1001
0000
0000
0000
,
0000
0000
0000
0000
;
#NOTES:
     dance-double:
     :
     Easy:
     6:
     :
00000000
00000000
00000000
00000000
,
00000000
00000000
00000000
00000000
,
00000000
00000000
00000000
00000000
,
00000000
00000000
00000000
00000000
,
00000000
00000000
00000000
00000000
,
00000001
00000000
00001000
00000100
,
00001000
00000000
00000100
00010000
,
00001000
00000000
01000000
00010000
,
20000000
00000000
30020000
00000000
,
00230000
00000000
00300000
00100000
,
00002000
00000000
00003000
00001000
,
00020000
00000000
00030000
00010000
,
00000020
00000000
00000030
00000010
,
00002000
00000000
00003001
00001000
,
00000002
00000000
00000013
00000001
,
00000200
00000000
00000310
00000100
,
00000020
00000000
00001030
00000010
,
00010000
00001000
00010000
00001000
,
01000000
00010000
01000000
00010000
,
10000000
01000000
10000000
01000000
,
00100000
00010000
00100000
00001000
,
00010000
00000100
00010000
00000100
,
00001000
00000001
00001000
00000001
,
00000010
00000100
00001000
00000100
,
00010000
00000000
00000000
00000000
,
00001000
00100000
00010000
01000000
,
00100000
01000000
00100000
10000000
,
02000000
03000000
00020000
00030000
,
00001000
00010000
00011000
00011000
,
00010000
00000100
00001000
00000010
,
00000100
00000010
00000100
00000001
,
00000020
00000030
00002000
00003000
,
00010000
00001000
00100000
00010000
,
10000000
01000000
10000000
01000000
,
00100000
00010000
00001000
00000100
,
00000020
00000030
00000002
00000003
,
00001000
00000100
00001100
00001100
,
00000001
00000010
00000001
00000010
,
00000100
00001000
00010000
00100000
,
02000000
03000000
20000000
30000000
,
10010000
00000000
00000000
00000000
,
00010000
01000000
00010000
01000000
,
00001000
00010000
00001000
00010000
,
00000100
00001000
00000100
00001000
,
00000001
00001000
00001001
00001001
,
00001000
00000100
00001000
00000100
,
00010000
00001000
00010000
00001000
,
01000000
00010000
01000000
00010000
,
20000000
32000000
03200000
00320000
,
10030000
01000000
00010000
00001000
,
00010000
00001000
00000010
00000001
,
00001000
00000100
00000001
00000100
,
00001000
00000001
00001001
00001001
,
00000001
00000010
00001000
00010000
,
00001000
00010000
01000000
10000000
,
00010000
00100000
10000000
00100000
,
00010000
01000000
00001000
00010000
,
00011000
00000000
00000000
00000000
,
00000000
00000000
00000000
00000000
;
#NOTES:
     dance-double:
     :
     Medium:
     11:
     :
00000000
00000000
00000000
00000000
,
00000000
00000000
00000000
00000000
,
00000000
00000000
00000000
00000000
,
00000000
00000000
00000000
00000000
,
00000000
00000000
00000000
00000000
,
10000000
00000000
00000000
00000000
00000000
10000000
01000000
00100000
,
00010000
00000000
00000000
00000000
00000000
00001000
00000100
00000010
,
00000001
00000000
00000000
00000000
00000000
00000100
00000010
00001000
,
00000002
00000203
00002300
00023000
,
00032000
00000000
00000000
00000000
00003000
01000000
00100000
01000000
,
00200000
00000000
00000000
00000000
00300000
10000000
00010000
10000000
,
00020000
00000000
00000000
00000000
00030000
00100000
00001000
00100000
,
00002000
00000000
00000000
00000000
00003000
00010000
00000010
00001000
,
00000002
00000000
00000000
00000000
00000003
00001000
00000100
00010000
,
00002000
00000000
00000000
00000000
00003000
01000000
00010000
10000000
,
00200000
00000000
00000000
00000000
00300000
01000000
00001000
00010000
,
00000020
00000000
00000000
00000000
00001030
00000001
00001000
00000000
,
00000001
00000000
00000000
00000010
00000000
00000000
00000100
00000000
00000000
00001000
00000000
00000000
00000100
00000000
00010000
00000000
,
00001000
00000000
00000000
00100000
00000000
00000000
00010000
00000000
00000000
10000000
00000000
00000000
01000000
00000000
10000000
00000000
,
01000000
00000000
00000000
00100000
00000000
00000000
00010000
00000000
00000000
00100000
00000000
00000000
00001000
00000000
00010000
00000000
,
00000000
00000000
00000010
00000000
00000000
00001000
00000000
00000001
00000000
00001000
00000000
00000000
00000100
00000000
00000010
00000000
,
00000001
00000000
00000000
00000100
00000000
00000000
00001000
00000000
00000000
00010000
00000000
00000000
00100000
00000000
01000000
00000000
,
00100000
00000000
00000000
10000000
00000000
00000000
01000000
00000000
00000000
00010000
00000000
00000000
00001000
00000000
00010000
00000000
,
00000100
00001000
00000100
00001000
00000001
00000010
00000100
00001000
,
00000001
00000000
00000000
00000000
,
00000001
00000010
00000100
00001000
,
00000100
00000000
00010000
00001000
00000000
00001000
00100000
00010000
,
20000000
31000000
00020000
01030000
,
01100000
00000000
00110000
00000000
00010000
01000000
00020000
00000000
,
10030000
01000000
00100000
00010000
,
00100000
00000000
00001000
00010000
00000000
00010000
00000100
00001000
,
00000002
00000013
00002000
00003010
,
00000001
00000000
00000100
00000000
00001000
00000000
00010000
00001000
,
00100000
00010000
01000000
00100000
,
10000000
01000000
00100000
01000000
00000000
01000000
00010000
00001000
,
00000020
00000031
00000020
00001030
,
00000110
00000000
00000011
00000000
00000010
00000100
00000020
00000000
,
00000031
00001000
00000010
00000100
,
00000001
00000010
00000100
00000010
00000000
00000010
00001000
00010000
,
02000000
13000000
02000000
03010000
,
00001000
00000000
00010000
00000000
00000010
00000100
00000010
00000000
,
00001000
00000100
00001000
00000100
00001000
00000100
00010000
00000000
,
00001000
01000000
00001000
01000000
00001000
00000000
01010000
00000000
,
01000000
00100000
01000000
00100000
01000000
00100000
01000000
00000000
,
10100000
00000000
10010000
00000000
10000000
00100000
20000000
00000000
,
30010000
01000000
00010000
01000000
00010000
01000000
00001000
00000000
,
00010000
00000100
00010000
00000100
00010000
00000000
00001100
00000000
,
00000100
00000010
00000100
00000010
00000100
00000010
00000100
00000000
,
00002000
00003200
00020300
00032000
,
00103000
00010000
00100000
00010000
10000000
01000000
10000000
00000000
,
00010000
01000000
00010000
01000000
00001000
00010000
00001000
00000000
,
00010000
00000100
00001000
00000001
00000010
00000100
00001000
00000001
,
00001001
00000000
00001100
00000000
00000100
00001000
00000002
00000000
,
00000103
00001000
00010000
00100000
10000000
00100000
10000000
00000000
,
01000000
00010000
00001000
00000010
00000001
00000010
00000001
00000000
,
00001000
00000100
00010000
00001000
01000000
00010000
10000000
00100000
,
10000000
01000000
00010000
00001000
00000100
00000001
00001000
00000000
,
00001001
00000000
00000000
00000000
,
00000000
00000000
00000000
00000000
;
#NOTES:
     dance-double:
     :
     Hard:
     13:
     :
00000000
00000000
00000000
00000000
,
00000000
00000000
00000000
00000000
,
00000000
00000000
00000000
00000000
,
00000000
00000000
00000000
00000000
,
00000000
00000000
00000000
00000000
,
00000001
00000000
00000000
00000100
00000010
00000000
00001000
00000000
00000100
00000000
00010000
00000000
00000100
00000000
00010000
00000000
,
00001000
00010000
01000000
10000000
01000000
00100000
01000000
00100000
,
00010000
00000000
01000000
00010000
01000000
00000000
00001000
00000000
00010000
00000000
00000010
00000000
00001000
00000000
00000001
00000000
,
00000010
00001000
00010000
01000000
10000000
00100000
01000000
00010000
,
20020000
00000000
00000000
00000000
30030000
00010000
01000000
00001000
,
00022000
00000000
00000000
00000000
00033000
00001000
00000100
00000001
,
00000022
00000000
00000000
00000000
00000033
00000010
00001000
00010000
,
00022000
00000000
00000000
00000000
00033000
00001000
00010000
00100000
,
10000000
10000000
00010000
00100000
00001000
00010000
00000010
00001000
,
00000001
00000000
00000001
00000000
00001000
00000000
00000100
00010000
00000000
00001000
00010000
00000000
00001000
00000000
01000000
00000000
,
00010000
00010000
10000000
00100000
01000000
00010000
10000000
00010000
,
10000000
01000000
00010000
00001000
00000010
00000001
00001001
00000000
,
00001100
00000000
00000000
00010100
00000000
00000000
00011000
00000000
00000000
01001000
00000000
00000000
01000000
00000000
00010000
00000000
,
10010000
00000000
00000000
10100000
00000000
00000000
01100000
00000000
00000000
00100000
01000000
00000000
00001000
00000000
00010000
00000000
,
00011000
00000000
00000000
00010010
00000000
00000000
00001010
00000000
00000000
00001001
00000000
00000000
00000001
00000000
00000010
00000000
,
00000000
00000000
00000110
00000000
00000000
00001100
00000000
00000100
00000000
00010000
00000000
00000000
00001000
00000000
00010000
00000000
,
00001000
00000000
00100000
00010000
00100000
00000000
00010000
00000000
10000000
01000000
10000000
00000000
01000000
00000000
00100000
00000000
,
00010000
00000000
00100000
00010000
00100000
00000000
00001000
00000000
00010000
00001000
00010000
00000000
00000100
00000000
00001000
00000000
,
00000001
00000000
00000010
00000000
00000100
00000000
00001000
00000000
00000100
00001000
00000100
00001000
00000100
00001000
00000100
00001000
,
00000100
00000000
00000000
00000000
,
00011000
00101000
00011000
00010100
,
00000100
00000000
00000000
00001000
00000000
00000000
00000001
00000000
00000000
00000010
00000000
00000100
00000000
00000000
00000000
00001000
00000000
00000000
00000100
00000000
00000000
00001000
00000000
00000000
,
00000001
00000200
00000000
00000000
00001300
00000000
00000000
00000000
00010000
00200000
00000000
00000000
10300000
00000000
00000000
00000000
,
00010000
00000000
01000000
00000000
00000000
01000000
00100000
00000000
01000000
00000000
00000000
01000000
00010000
00000000
00000000
00100000
00000000
00000000
00202000
00000000
00000000
00303000
00000000
00000000
,
00011000
00010010
00011000
01001000
,
01000000
00000000
00000000
00010000
00000000
00000000
10000000
00000000
00000000
00100000
00000000
01000000
00000000
00000000
00000000
00010000
00000000
00000000
00100000
00000000
00000000
00010000
00000000
00000000
,
10000000
00200000
00000000
00000000
00310000
00000000
00000000
00000000
00001000
00000200
00000000
00000000
00000301
00000000
00000000
00000000
,
00000010
00000000
00000100
00000000
00001000
00000000
00000001
00001000
,
00000100
00000010
00001000
00010000
01000000
00100000
00010000
01000000
,
00001000
00000000
00010000
00001000
00000000
00000000
00000100
00000000
00000000
00000010
00000000
00000100
00000000
00000000
00000000
00000001
00000000
00000000
00000010
00000000
00000000
00000100
00000000
00000000
,
00000010
00000002
00000000
00000000
00000103
00000000
00000000
00000000
00000010
00002000
00000000
00000000
00003100
00000000
00000000
00000000
,
00010000
00000000
00001000
00000000
00000000
00001000
00100000
00000000
00001000
00000000
00000000
00001000
00010000
00000000
00000000
00001000
00000000
00000000
02002000
00000000
00000000
03003000
00000000
00000000
,
00011000
00000000
00010000
00001000
00000010
00000100
00001000
00000010
,
00010000
00000000
00001000
00010000
00000000
00000000
00100000
00000000
00000000
01000000
00000000
00100000
00000000
00000000
00000000
10000000
00000000
00000000
01000000
00000000
00000000
00100000
00000000
00000000
,
01000000
20000000
00000000
00000000
30100000
00000000
00000000
00000000
01000000
00020000
00000000
00000000
00130000
00000000
00000000
00000000
,
00001000
00000000
00010000
00000000
00000100
00001000
00000001
00000001
,
00000010
00000000
00000100
00000000
00000010
00000000
00000001
00000000
00001000
00000100
00001000
00000100
00001000
00000000
00000100
00000000
,
00010000
00000000
00001000
00000000
01000000
00000000
00010000
00000000
01000000
00100000
01000000
00100000
01000000
00000000
00100000
00000000
,
10000000
00000000
01000000
00000000
00100000
00000000
01000000
00000000
00100000
00010000
00100000
00010000
00100000
00000000
00001000
00000000
,
00010000
00000000
00001000
00000000
00000000
00001000
01000000
00000000
00001000
00000000
00000000
00001000
00010000
00000000
00000000
01000000
00000000
00000000
02200000
00000000
00000000
03300000
00000000
00000000
,
01000000
00000000
00100000
00000000
01000000
00000000
10000000
00000000
00010000
00100000
00010000
00100000
00010000
00000000
00100000
00000000
,
00001000
00000000
00010000
00000000
00000010
00000000
00001000
00000000
00000010
00000100
00000010
00000100
00000010
00000000
00000100
00000000
,
00000001
00000000
00000010
00000000
00000100
00000000
00000010
00000000
00000100
00001000
00000100
00001000
00000100
00000000
00010000
00000000
,
00011000
00101000
00110000
10010000
,
10000000
00000000
01000000
00000000
00010000
00000000
01000000
00000000
00100000
01000000
00100000
01000000
00100000
00000000
00001000
00000000
,
00010000
00000000
00001000
00000000
00000100
00000000
00000001
00000000
00000100
00000010
00000100
00000010
00000100
00000000
00000001
00000000
,
00000010
00000000
00001000
00000000
00010000
00000000
00001000
00000000
00010000
00001000
00010000
00001000
00010000
00000000
00000010
00000000
,
00001000
00000000
00000100
00000000
00000000
00000100
00000010
00000000
00000001
00000000
00000000
00000001
00001000
00000000
00000000
00000001
00000000
00000000
00002002
00000000
00000000
00003003
00000000
00000000
,
00000001
00000000
00000010
00000000
00001000
00000000
00000010
00000000
00000100
00000010
00000100
00000010
00000100
00000000
00010000
00000000
,
00001000
00000000
00010000
00000000
00100000
00000000
10000000
00000000
00100000
01000000
00100000
01000000
00100000
00000000
10000000
00000000
,
01000000
00000000
00010000
00000000
00001000
00000000
00010000
00000000
00001000
00010000
00001000
00010000
00001000
00000000
01000000
00000000
,
00100000
00010000
00001000
00000100
00000010
00001000
00000001
00000000
,
00001001
00000000
00000000
00000000
,
00000000
00000000
00000000
00000000
;
#NOTES:
     dance-double:
     :
     Challenge:
     16:
     :
00000000
00000000
00000000
00000000
,
00000000
00000000
00000000
00000000
,
00000000
00000000
00000000
00000000
,
00000000
00000000
00000000
00000000
,
00000000
00000000
00000000
00000000
,
00010000
00000000
00001000
00010000
00000100
00000000
00001000
00000000
00000001
00000010
00000001
00000000
00001000
00000000
00001001
00000000
,
00001000
00000000
00000100
00010000
00001000
00000000
00100000
00000000
00110000
00000000
00010000
10000000
00010000
00000000
01000000
00000000
,
00010000
00000000
01000000
00001000
00010000
00000000
00001000
00010000
00000010
00000000
00001000
00000010
00000100
00000000
00000001
00000000
,
00001000
00000100
00001000
00000100
00010000
00001000
00010000
00001000
01000000
00000000
01000000
00000000
00010000
00000000
00010000
00000000
,
10010000
00000000
10000000
01000000
10000000
00000000
00000000
00000000
11000000
00000000
01000000
00100000
00010000
00000000
00100000
00000000
,
00101000
00000000
00011000
00000000
00010100
00000000
00000100
00001000
00000000
00001000
00000001
00000000
00000101
00000000
00001001
00000000
,
00001010
00000000
00000010
00000000
00000100
00000000
00000001
00000010
00000100
00000000
00000010
00000100
00001000
00000000
00000100
00000000
,
00010000
00000000
00001000
00010000
00001000
00010000
00001000
01000000
00010000
00000000
10000000
00000000
11000000
00000000
10010000
00000000
,
00110000
00000000
00100000
00001000
00100000
00000000
00001000
00000000
00010000
00000100
00010000
00000000
00000100
00000000
00001000
00000000
,
00001100
00000000
00000110
00000000
00000011
00000000
00000001
00000100
00000000
00000100
00001000
00000000
00010000
00000000
00001000
00000000
,
00101000
00000000
00100000
00010000
00100000
00000000
00010000
00000000
01000000
00100000
01000000
00000000
00100000
00000000
10000000
00000000
,
00010000
01000000
00001000
00010000
00000010
00001000
00000001
00000100
00000001
00000000
00000011
00000000
00001100
00000000
00000000
00000000
,
00000001
00000000
00000010
00000100
00000000
00001000
00000100
00000000
00010000
00001000
00000000
00100000
00010000
00000000
10000000
00000000
,
01000000
00000000
00100000
00010000
00000000
00100000
00001000
00000000
00010000
00001000
00010000
00001000
01000000
00000000
00010000
00000000
,
10000000
00000000
01000000
00100000
00000000
00010000
00100000
00000000
00001000
00010000
00000000
00000100
00001000
00000000
00000001
00000000
,
00001000
00000000
00000010
00000000
00010000
00001000
00000000
00101000
00000000
00110000
00000000
00000000
11000000
00000000
10010000
00000000
,
10000000
00000000
00100000
01000000
00100000
01000000
00010000
00000000
00100000
00001000
00100000
00001000
00010000
00000000
00001000
00000000
,
00010000
00000000
00000010
00001000
00000010
00001000
00000001
00000000
00000010
00000100
00000010
00000100
00001000
00000000
00000100
00000000
,
00010000
00000000
00001000
00000000
00100000
00000000
00010000
00000000
10000000
01000000
10000000
01000000
00100000
01000000
00100000
01000000
,
00100000
00000000
00000000
00000000
,
00110000
00101000
00011000
00010010
,
00000010
00000000
00001000
00000010
00000000
00000000
00000100
00000000
00000000
00000001
00000000
00000010
00000000
00000000
00000000
00000001
00000000
00000000
00000100
00000000
00000000
00001000
00000000
00000000
,
00020000
00000000
00000000
00002000
00000000
00000000
00033000
00000000
00000000
00000000
00000000
00000000
00011000
00000000
00000000
00000000
00000000
00000000
00000000
00000000
00000000
00000000
00000000
00000000
02000000
00000000
00000000
00200000
00000000
00000000
03300000
00000000
00000000
00000000
00000000
00000000
01100000
00000000
00000000
00000000
00000000
00000000
00000000
00000000
00000000
00000000
10000000
00000000
,
01000000
00000000
00100000
00000000
00000000
00100000
00010000
00000000
00100000
00000000
00000000
00100000
00001000
00000000
00000000
00010000
00000000
00000000
00022000
00000000
00000000
00033000
00000000
00000000
,
00010100
00011000
01001000
00011000
,
00010000
00000000
00001000
00010000
00000000
00000000
01000000
00000000
00000000
10000000
00000000
00100000
00000000
00000000
00000000
10000000
00000000
00000000
00100000
00000000
00000000
00010000
00000000
00000000
,
00002000
00020000
00033000
00000000
00011000
00000000
00000000
00000000
00000020
00000200
00000330
00000000
00000110
00000000
00000000
00000000
,
00000001
00000000
00000000
00000000
00000010
00000000
00000000
00000000
00000100
00000000
00000000
00000000
00001000
00000001
00000010
00000100
,
00001000
00000100
00010000
00010000
00001000
00001000
00100000
00100000
,
00010000
00000000
10000000
01000000
00000000
00000000
10000000
00000000
00000000
01000000
00000000
00010000
00000000
00000000
00000000
00001000
00000000
00000000
00000010
00000000
00000000
00000001
00000000
00000000
,
00002000
00000000
00000000
00000002
00000000
00000000
00003003
00000000
00000000
00000000
00000000
00000000
00001100
00000000
00000000
00000000
00000000
00000000
00000000
00000000
00000000
00000000
00000000
00000000
00000200
00000000
00000000
00020000
00000000
00000000
00030300
00000000
00000000
00000000
00000000
00000000
00011000
00000000
00000000
00000000
00000000
00000000
00000000
00000000
00000000
00000000
00001000
00000000
,
00100000
00000000
00010000
00000000
00000000
00010000
10000000
00000000
01000000
00000000
00000000
01000000
00100000
00000000
00000000
00010000
00000000
00000000
20020000
00000000
00000000
30030000
00000000
00000000
,
01010000
00000000
01001000
00001000
00011000
00010000
00010100
00000100
,
00001000
00000000
00000001
00000010
00000000
00000000
00000001
00000000
00000000
00000010
00000000
00001000
00000000
00000000
00000000
00010000
00000000
00000000
01000000
00000000
00000000
10000000
00000000
00000000
,
00020000
20000000
30030000
00000000
00110000
00000000
00000000
00000000
00200000
00002000
00303000
00000000
00011000
00000000
00000000
00000000
,
00001000
00000000
00010000
00000000
00000010
00001000
00000001
00000001
,
00000010
00000000
00000000
00000000
00000000
00000000
00000100
00000000
00000000
00000000
00000000
00000000
00000010
00000000
00000000
00000001
00000000
00000000
00000000
00000000
00000000
00000001
00000000
00000000
00001000
00000000
00000000
00000000
00000100
00000000
00000010
00000000
00000000
00000000
00000100
00000000
00001000
00000000
00000000
00000000
00000100
00000000
00000010
00000000
00000000
00000000
00000100
00000000
,
00001000
00000000
00000000
00000000
00000000
00000000
00000100
00000000
00000000
00000000
00000000
00000000
00010000
00000000
00000000
00001000
00000000
00000000
00000000
00000000
00000000
00001000
00000000
00000000
00100000
00000000
00000000
00000000
00010000
00000000
00100000
00000000
00000000
00000000
01000000
00000000
00100000
00000000
00000000
00000000
00010000
00000000
00100000
00000000
00000000
00000000
01000000
00000000
,
10000000
00000000
00000000
00000000
00000000
00000000
00000000
00000000
00000000
00010000
00000000
00000000
00100000
00000000
00000000
00010000
00000000
00000000
00000000
00000000
00000000
00010000
00000000
00000000
01000000
00000000
00000000
00000000
00001000
00000000
00010000
00000000
00000000
00000000
00001000
00000000
01000000
00000000
00000000
00000000
00001000
00000000
00010000
00000000
00000000
00000000
00001000
00000000
,
01000000
00000000
00100000
00000000
00000000
00100000
10000000
00000000
00010000
00000000
00000000
00010000
00100000
00000000
00000000
01000000
00000000
00000000
02200000
00000000
00000000
03300000
00000000
00000000
,
01000000
00000000
00000000
00000000
00000000
00000000
00100000
00000000
00000000
00000000
00000000
00000000
01000000
00000000
00000000
10000000
00000000
00000000
00000000
00000000
00000000
10000000
00000000
00000000
00010000
00000000
00000000
00000000
00100000
00000000
01000000
00000000
00000000
00000000
00100000
00000000
00010000
00000000
00000000
00000000
00100000
00000000
01000000
00000000
00000000
00000000
00100000
00000000
,
00010000
00000000
00000000
00000000
00000000
00000000
00100000
00000000
00000000
00000000
00000000
00000000
00001000
00000000
00000000
00010000
00000000
00000000
00000000
00000000
00000000
00010000
00000000
00000000
00000100
00000000
00000000
00000000
00001000
00000000
00000100
00000000
00000000
00000000
00000010
00000000
00000100
00000000
00000000
00000000
00001000
00000000
00000100
00000000
00000000
00000000
00000010
00000000
,
00000001
00000000
00000000
00000000
00000000
00000000
00000000
00000000
00000000
00001000
00000000
00000000
00000100
00000000
00000000
00001000
00000000
00000000
00000000
00000000
00000000
00001000
00000000
00000000
00000010
00000000
00000000
00000000
00010000
00000000
00001000
00000000
00000000
00000000
00010000
00000000
00000010
00000000
00000000
00000000
00010000
00000000
00001000
00000000
00000000
00000000
00010000
00000000
,
00000100
00000000
00001000
00000000
00000001
00000000
00000010
00000000
00000100
00001000
00000100
00001000
00000001
00000000
00000100
00000000
,
00000010
00000000
00010000
00001000
00000000
00000000
00010000
00000000
01000000
00100000
00000000
01000000
10000000
00000000
01000000
00100000
00000000
01000000
00010000
00000000
01000000
00100000
00000000
01000000
,
00100000
00000000
00001000
00010000
00000000
00000000
00001000
00000000
00000010
00000100
00000000
00000010
00000001
00000000
00000010
00000100
00000000
00000010
00001000
00000000
00000010
00000100
00000000
00000010
,
00000001
00000000
00000100
00000010
00000000
00000000
00001000
00000000
00000100
00000001
00000000
00000100
00001000
00000000
00000100
00000001
00000000
00000100
00001000
00000000
00000100
00000001
00000000
00000100
,
00001000
00000000
00000100
00000000
00000000
00000100
00010000
00000000
00001000
00000000
00000000
00001000
01000000
00000000
00000000
01010000
00000000
00000000
20020000
00000000
00000000
30030000
00000000
00000000
,
10000000
00000000
01000000
00100000
00000000
00000000
00010000
00000000
00100000
01000000
00000000
00100000
10000000
00000000
00100000
01000000
00000000
00100000
00010000
00000000
00100000
01000000
00000000
00100000
,
00010000
00000000
00100000
00001000
00000000
00000000
00010000
00000000
00000010
00001000
00000000
00000010
00000100
00000000
00000010
00000001
00000000
00000010
00000100
00000000
00000010
00001000
00000000
00000010
,
00000100
00000000
00000001
00001000
00000000
00000000
00000001
00000000
00000100
00001000
00000000
00010000
00001000
00000000
00010000
00100000
00000000
01000000
00100000
00000000
01000000
10000000
00000000
01000000
,
00010000
00000000
10000000
00000000
01000000
00000000
00010000
00001000
00010000
00000000
00010100
00000000
00001100
00000000
00000000
00000000
,
00001001
00000000
00000000
00000000
,
00000000
00000000
00000000
00000000
;
