
//----- song ID: swfr -----//
#TITLE:Sweetin' Fruity;
#ARTIST:Malixi;
#BANNER:Sweetin' Fruity.png;
#BACKGROUND:Sweetin' Fruity-bg.png;
#CDTITLE:./CDTitles/DDR WORLD.png;
#MUSIC:Sweetin' Fruity.ogg;
#SAMPLESTART:52.801;
#SAMPLELENGTH:15;
#BPMS:0=150;
#BGSTAGE:5;
#NOTES:
     dance-single:
     :
     Beginner:
     3:
     :
0000
0000
0000
0000
,
0000
0000
0000
0000
,
0000
0000
0000
0000
,
0000
0000
0000
0000
,
0000
0000
0000
0000
,
0001
0000
0000
0000
,
0001
0000
0000
0000
,
1000
0000
0000
0000
,
1000
0000
0000
0000
,
0001
0000
0010
0000
,
0001
0000
0010
0000
,
1000
0000
0010
0000
,
1000
0000
0010
0000
,
0001
0000
0100
0000
,
0001
0000
0100
0000
,
1000
0000
0100
0000
,
1001
0000
0000
0000
,
0001
0000
0000
0000
,
0010
0000
0000
0000
,
1000
0000
0000
0000
,
0100
0000
0000
0000
,
0001
0000
0000
0000
,
0100
0000
0000
0000
,
1000
0000
0000
0000
,
0010
0000
0000
0000
,
0001
0000
0001
0000
,
0020
0000
0030
0000
,
1000
0000
1000
0000
,
0020
0000
0030
0000
,
0001
0000
0001
0000
,
0200
0000
0300
0000
,
1000
0000
1000
0000
,
1001
0000
0000
0000
,
0001
0000
1000
0000
,
0010
0010
0010
0000
,
1000
0000
0001
0000
,
0010
0010
0010
0000
,
0001
0000
1000
0000
,
0100
0100
0100
0000
,
1000
0000
0001
0000
,
1001
0000
0000
0000
,
0001
0000
0010
0000
,
1000
0000
0010
0000
,
0001
0000
0010
0000
,
1000
0000
0010
0000
,
0001
0000
0100
0000
,
1000
0000
0100
0000
,
0001
0000
0100
0000
,
1001
0000
0000
0000
,
2000
0000
3000
0000
,
0020
0000
0030
0000
,
0002
0000
0003
0000
,
0200
0000
0300
0000
,
2000
0000
3000
0000
,
0200
0000
0300
0000
,
0002
0000
0003
0000
,
1001
0000
0000
0000
,
0010
0000
1000
0000
,
0100
0100
0100
0000
,
0010
0000
0001
0000
,
0100
0100
0100
0000
,
0010
0000
1000
0000
,
0100
0100
0100
0000
,
0010
0000
0001
0000
,
1001
0000
0000
0000
,
0010
0010
0010
0000
,
1000
1000
1000
0000
,
0100
0100
0100
0000
,
0010
0010
0010
0000
,
0002
0000
0003
0000
,
0200
0000
0300
0000
,
0020
0000
0030
0000
,
2000
0000
3000
0000
,
1001
0000
0000
0000
,
0000
0000
0000
0000
;
#NOTES:
     dance-single:
     :
     Easy:
     7:
     :
0000
0000
0000
0000
,
0000
0000
0000
0000
,
0000
0000
0000
0000
,
0000
0000
0000
0000
,
0000
0000
0000
0000
,
0001
0000
0100
0000
,
0010
0000
1000
0000
,
0100
0010
0001
0100
,
2002
0000
0000
3003
,
0001
0100
0010
0110
,
1000
0100
0010
0110
,
0001
0010
0100
0110
,
1000
0010
0100
0110
,
0001
0100
1000
0110
,
1000
0100
0001
0110
,
0001
0100
1000
0110
,
1001
0000
1000
1000
,
0001
0010
0100
0100
,
1000
0100
0010
0010
,
0001
0010
0100
0100
,
1000
0100
0110
0000
,
1000
0010
0100
0100
,
0001
0100
0010
0010
,
1000
0010
0100
0100
,
0001
0100
0110
0000
,
1000
0100
1000
0000
0100
0000
0000
0000
,
1000
0010
0001
0100
,
0001
0100
0001
0000
0100
0000
0000
0000
,
0001
0010
1000
0100
,
1000
0010
1000
0000
0010
0000
0000
0000
,
1000
0100
0001
0010
,
0001
0010
0001
0000
0010
0000
0000
0000
,
1001
0000
0100
0100
,
0002
0103
2000
3100
,
0001
1000
0220
0330
,
0002
0013
2000
3010
,
0001
1000
0220
0330
,
0002
0103
2000
3100
,
0001
1000
0220
0330
,
0001
0100
1000
0010
,
2002
0000
0000
3003
,
1000
0100
0010
0110
,
0001
0100
0010
0110
,
1000
0010
0100
0110
,
0001
0010
0100
0110
,
1000
0100
0001
0110
,
0001
0100
1000
0110
,
1000
0100
0001
0110
,
1001
0000
0001
0001
,
2000
0000
0000
3000
,
0020
0030
2000
3000
,
0200
0000
0000
0300
,
0020
0030
0002
0003
,
1000
0000
0010
0000
,
0001
0000
0100
0000
,
1000
0100
0010
0001
,
2002
0000
0000
3003
,
1000
1100
0001
0101
,
0110
1001
0220
0330
,
1000
1010
0001
0011
,
0110
1001
0220
0330
,
1000
0110
0001
0110
,
1001
0110
2002
3003
,
1000
0100
0001
0010
,
2002
0000
0000
3003
,
0001
0100
0010
1000
,
0110
1001
0220
0330
,
1000
0100
0010
0001
,
0110
1001
0220
0330
,
0001
0010
0100
1000
,
0110
1001
0220
0330
,
1000
0010
0100
0001
,
0110
0000
1001
0110
,
1001
0000
0000
0000
,
0000
0000
0000
0000
;
#NOTES:
     dance-single:
     :
     Medium:
     10:
     :
0000
0000
0000
0000
,
0000
0000
0000
0000
,
0000
0000
0000
0000
,
0000
0000
0000
0000
,
0000
0000
0000
0000
,
1000
0100
0010
0001
,
0100
0010
1000
0100
,
0010
0001
0100
0000
0010
1000
0100
0000
,
0220
0000
0000
0330
,
1001
0000
0000
0010
0000
0000
0001
0000
0000
0100
0000
0000
0001
0000
0001
0000
,
1000
0000
0000
0010
0000
0000
1000
0000
0000
0100
0000
0000
1000
0000
1000
0000
,
0001
0000
0000
0100
0000
0000
0001
0000
0000
0010
0000
0000
0001
0000
0001
0000
,
1000
0000
0000
0100
0000
0000
1000
0000
0000
0010
0000
0000
1000
0000
1000
0000
,
0001
0000
0000
0100
0000
0000
1000
0000
0000
0100
0000
0000
0001
0000
0001
0000
,
1000
0000
0000
0100
0000
0000
0001
0000
0000
0100
0000
0000
1000
0000
1000
0000
,
0001
0000
0000
0010
0000
0000
1000
0000
0000
0010
0000
0000
0001
0000
0010
0000
,
0110
0000
1001
0110
,
1000
0100
0010
0001
0100
0000
0100
0000
,
0010
1000
0100
0010
0001
0000
0001
0000
,
0100
0010
1000
0100
0010
0000
0010
0000
,
0001
0100
0010
1000
0100
0000
0100
0000
,
0010
0001
0100
0001
0010
0000
0010
0000
,
0100
1000
0010
1000
0100
0000
0100
0000
,
1000
0001
0100
0001
1000
0000
1000
0000
,
0010
0100
2002
3003
,
0001
0100
0001
0100
1000
0100
1000
0100
,
0001
0010
1000
0100
,
1000
0100
1000
0100
0001
0100
0001
0100
,
1000
0010
0001
0100
,
0001
0010
0001
0010
1000
0010
1000
0010
,
0001
0100
1000
0010
,
1000
0010
1000
0010
0001
0010
0001
0000
,
1001
0000
0110
1001
,
0110
0000
0000
1000
0000
0000
0100
0000
0010
0000
0000
0001
0000
0000
0100
0000
,
0010
0000
0000
0100
0000
0000
1002
0000
0000
0000
0000
0000
1003
0000
0100
0000
,
0010
0000
0000
0001
0000
0000
0100
0000
0010
0000
0000
1000
0000
0000
0100
0000
,
0010
0000
0000
0100
0000
0000
2001
0000
0000
0000
0000
0000
3001
0000
1000
0000
,
0100
0000
0000
1000
0000
0000
0010
0000
0100
0000
0000
0001
0000
0000
0010
0000
,
0100
0000
0000
0010
0000
0000
1002
0000
0000
0000
0000
0000
0103
0000
0010
0000
,
1000
0100
0010
0000
0001
0100
0010
0000
,
1001
0000
0000
0010
0000
0000
0200
0000
0000
0000
0000
0000
0300
0000
0000
0000
,
1001
0000
0000
0010
0000
0000
1000
0000
0000
0100
0000
0000
1000
0000
1000
0000
,
0001
0000
0000
0010
0000
0000
0001
0000
0000
0100
0000
0000
0001
0000
0001
0000
,
1000
0000
0000
0100
0000
0000
1000
0000
0000
0010
0000
0000
1000
0000
1000
0000
,
0001
0000
0000
0100
0000
0000
0001
0000
0000
0010
0000
0000
0001
0000
0001
0000
,
1000
0000
0000
0100
0000
0000
0001
0000
0000
0100
0000
0000
1000
0000
1000
0000
,
0001
0000
0000
0100
0000
0000
1000
0000
0000
0100
0000
0000
0001
0000
0001
0000
,
1000
0000
0000
0010
0000
0000
0001
0000
0000
0010
0000
0000
1000
0000
0010
0000
,
0110
0000
1001
0110
,
2001
0000
0000
0000
0000
0000
0000
3200
,
0000
0000
0000
0320
0000
0000
0000
0032
,
0000
0000
0000
0000
0000
0000
0000
0203
,
0000
0000
0000
0320
0000
0000
0000
0000
,
1030
0100
0001
0010
,
1000
0010
0001
0100
,
1000
0100
0010
0000
0001
0100
0010
0000
,
0110
0000
0000
2000
0000
0000
0002
0000
0000
0000
0000
0000
3003
0000
0000
0000
,
0110
0000
0000
0001
0000
0000
0100
0000
0010
0000
0000
1000
0000
0000
0100
0000
,
0011
0000
0000
0110
0000
0000
2100
0000
0000
0000
0000
0000
3001
0000
0100
0000
,
0010
0000
0000
1000
0000
0000
0100
0000
0010
0000
0000
0001
0000
0000
0100
0000
,
1010
0000
0000
0110
0000
0000
0102
0000
0000
0000
0000
0000
1003
0000
0001
0000
,
0100
0000
0000
0001
0000
0000
0010
0000
0100
0000
0000
1000
0000
0000
0010
0000
,
0101
0000
0000
0110
0000
0000
2010
0000
0000
0000
0000
0000
3100
0000
0010
0000
,
0001
0100
0010
0000
1000
0100
0010
0000
,
1001
0000
0000
1100
0000
0000
0202
0000
0000
0000
0000
0000
0303
0000
0000
0000
,
1001
0000
0000
0010
0000
0000
0001
0000
0000
0100
0000
0000
0001
0000
0010
0000
,
0011
0000
0000
0110
0000
0000
1200
0000
0000
0000
0000
0000
1300
0000
0100
0000
,
1000
0000
0000
0010
0000
0000
1000
0000
0000
0100
0000
0000
1000
0000
0010
0000
,
1010
0000
0000
0110
0000
0000
0201
0000
0000
0000
0000
0000
0301
0000
0100
0000
,
0001
0000
0000
0100
0000
0000
1000
0000
0000
0100
0000
0000
0001
0000
1000
0000
,
1100
0000
0000
0101
0000
0000
1200
0000
0000
0000
0000
0000
1300
0000
0001
0000
,
1000
0000
0000
0010
0000
0000
0001
0000
0000
0010
0000
0000
1000
0000
0010
0000
,
1001
0000
0110
1001
,
0110
0000
0000
0000
,
0000
0000
0000
0000
;
#NOTES:
     dance-single:
     :
     Hard:
     14:
     :
0000
0000
0000
0000
,
0000
0000
0000
0000
,
0000
0000
0000
0000
,
0000
0000
0000
0000
,
0000
0000
0000
0000
,
0001
0100
0010
1000
,
0100
0010
0001
1000
,
0010
1000
0100
0010
0001
0100
0010
0100
,
2002
0000
0000
3003
,
0110
0000
0001
0010
0000
0001
0100
0000
0001
0010
0000
0001
0100
0000
0001
0000
,
0110
0000
1000
0010
0000
1000
0100
0000
1000
0010
0000
1000
0100
0000
1000
0000
,
0110
0000
0001
0100
0000
0001
0010
0000
0001
0100
0000
0001
0010
0000
0001
0000
,
0110
0000
1000
0100
0000
1000
0010
0000
1000
0100
0000
1000
0010
0000
1000
0000
,
0110
0000
0001
0100
0000
1000
0100
0000
0001
0100
0000
1000
0100
0000
0001
0000
,
0110
0000
1000
0100
0000
0001
0100
0000
1000
0100
0000
0001
0100
0000
1000
0000
,
0110
0000
0001
0010
0000
1000
0010
0000
0001
0010
0000
1000
0010
0000
0001
0000
,
0110
0000
1001
0110
,
0001
0100
0010
1000
0100
0010
0100
0000
,
0010
0001
0100
0010
1000
0100
1000
0000
,
0100
0010
0001
0100
0010
1000
0010
0000
,
1000
0100
0010
0001
0100
0010
0110
0000
,
0010
1000
0100
0001
0100
1000
0010
0000
,
0100
0001
0010
1000
0010
0001
0100
0000
,
0010
1000
0100
0001
0100
1000
0010
0100
,
0010
0000
0100
0000
1001
0000
1000
0100
,
0010
0000
0001
0000
1000
0000
0001
0100
0000
0001
0010
0000
0100
0000
1000
0000
,
0010
0000
1000
0000
0001
0000
1000
0100
0000
1000
0010
0000
0100
0000
0001
0000
,
1000
0000
0100
0000
0010
0000
0001
0010
0000
0001
0100
0000
0010
0000
1000
0000
,
0001
0000
0100
0000
0010
0000
1000
0010
0000
1000
0100
0000
0010
0000
0001
0000
,
1000
0000
0010
0000
0100
0000
0001
0100
0000
1000
0100
0000
0001
0000
1000
0000
,
0100
0000
0010
0000
0001
0000
1000
0100
0000
0001
0100
0000
1000
0000
0001
0000
,
0100
0000
0010
0000
1000
0000
0001
0010
0000
1000
0010
0000
0001
0000
1000
0000
,
1001
0000
0110
1001
,
0110
0000
0001
0100
0001
0000
0100
0000
0110
0000
1000
0100
1000
0000
0100
0000
,
0011
0000
0000
1100
0000
0000
0102
0000
0000
0000
0000
0000
0103
0000
0010
0000
,
0110
0000
1000
0100
1000
0000
0100
0000
0110
0000
0001
0100
0001
0000
0100
0000
,
1010
0000
0000
0101
0000
0000
2100
0000
0000
0000
0000
0000
3100
0000
0010
0000
,
1001
0000
0001
0100
0010
0000
1000
0000
1001
0000
1000
0100
0010
0000
0001
0000
,
1010
0000
0000
0101
0000
0000
2100
0000
0000
0000
0000
0000
3100
0000
0010
0000
,
0001
0000
0100
0000
0010
0000
0100
0001
0000
1000
0100
0000
0010
0000
0001
0000
,
1010
0000
0000
0110
0000
0000
0202
0000
0000
0000
0000
0000
0303
0000
0000
0000
,
0110
0000
1000
0010
0000
1000
0100
0000
1000
0010
0000
1000
0100
0000
1000
0000
,
0110
0000
0001
0010
0000
0001
0100
0000
0001
0010
0000
0001
0100
0000
0001
0000
,
0110
0000
1000
0100
0000
1000
0010
0000
1000
0100
0000
1000
0010
0000
1000
0000
,
0110
0000
0001
0100
0000
0001
0010
0000
0001
0100
0000
0001
0010
0000
0001
0000
,
0110
0000
1000
0100
0000
0001
0100
0000
1000
0100
0000
0001
0100
0000
1000
0000
,
0110
0000
0001
0100
0000
1000
0100
0000
0001
0100
0000
1000
0100
0000
0001
0000
,
0110
0000
1000
0010
0000
0001
0010
0000
1000
0010
0000
0001
0010
0000
1000
0000
,
0110
0000
1001
0110
,
2002
0000
0000
0000
0000
3000
0000
0200
,
0000
0003
0000
0020
0000
0300
0000
2000
,
0000
0000
0000
0000
0000
0030
0000
0200
,
0000
3000
0000
0020
0000
0000
0330
0000
,
0001
0100
1000
0010
,
0001
0010
1000
0100
,
0001
0100
0010
1000
0100
0010
0001
0100
,
0110
0000
0000
0002
0000
0000
2000
0000
0000
0000
0000
0000
3003
0000
0000
0000
,
0110
0000
0001
0100
0010
0000
0100
0000
0110
0000
1000
0100
0010
0000
0100
0000
,
0110
0000
0001
0100
0000
0100
2000
0000
0000
0000
0000
0000
3100
0000
0010
0000
,
0110
0000
0001
0010
0100
0000
0010
0000
0110
0000
1000
0010
0100
0000
0010
0000
,
0110
0000
0001
0010
0000
0010
2000
0000
0000
0000
0000
0000
3010
0000
0001
0000
,
1001
0000
0001
0100
1000
0000
0100
0000
1001
0000
1000
0100
0001
0000
0100
0000
,
1001
0000
0001
0100
0000
0100
2000
0000
0000
0000
0000
0000
3100
0000
0010
0000
,
1000
0000
0100
0000
0010
0000
0001
0100
0000
0001
0010
0000
0100
0000
1000
0000
,
1001
0000
0000
0101
0000
0000
2200
0000
0000
0000
0000
0000
3300
0000
0000
0000
,
0110
0000
2000
0010
3000
2000
0100
3000
2000
0010
3000
2000
0100
3000
1000
0000
,
0110
0000
0002
0010
0003
0002
0100
0003
0002
0010
0003
0002
0100
0003
0001
0000
,
0110
0000
2000
0100
3000
2000
0010
3000
2000
0100
3000
2000
0010
3000
1000
0000
,
0110
0000
0002
0100
0003
0002
0010
0003
0002
0100
0003
0002
0010
0003
0001
0000
,
0110
0000
1000
0100
0000
0100
0010
0000
0010
0001
0000
0001
0100
0000
0010
0000
,
1001
0000
1000
0010
0000
0010
0100
0000
0100
0001
0000
0001
0010
0000
0100
0000
,
0110
0000
1000
0100
0000
0100
0010
0000
0010
0001
0000
0001
0100
0000
0010
0000
,
1001
0000
0110
1001
,
0110
0000
0000
0000
,
0000
0000
0000
0000
;
#NOTES:
     dance-double:
     :
     Easy:
     7:
     :
00000000
00000000
00000000
00000000
,
00000000
00000000
00000000
00000000
,
00000000
00000000
00000000
00000000
,
00000000
00000000
00000000
00000000
,
00000000
00000000
00000000
00000000
,
00100000
00000000
10000000
00000000
,
01000000
00000000
00010000
00000000
,
00001000
00000000
00000010
00000000
,
00002002
00000000
00000000
00003003
,
00000001
00000000
00000100
00000000
00001000
00010000
00001000
00000000
,
00010000
00000000
00100000
00000000
10000000
00010000
10000000
00000000
,
01000000
00000000
00100000
00000000
00010000
01000000
00010000
00000000
,
01000000
00100000
10000000
00100000
,
10000000
00000000
01000000
00000000
00010000
00001000
00010000
00000000
,
00001000
00000000
00000010
00000000
00000001
00001000
00000001
00000000
,
00000100
00000000
00000010
00000000
00001000
00000100
00001000
00000000
,
00001001
00000000
00000001
00000001
,
00001000
00000100
00000010
00000010
,
00000001
00000100
00000010
00000010
,
00000100
00001000
00010000
00010000
,
00001000
00010000
00011000
00000000
,
00001000
00010000
00100000
00100000
,
00010000
00001000
00000100
00000100
,
00001000
00010000
00100000
00100000
,
01000000
00100000
10010000
00000000
,
10000000
01000000
10000000
00000000
00010000
00000000
00000000
00000000
,
10000000
01000000
00010000
00001000
,
00010000
00001000
00010000
00000000
00001000
00000000
00000000
00000000
,
00010000
00001000
00000010
00000001
,
00000100
00000010
00000100
00000000
00000001
00000000
00000000
00000000
,
00000100
00001000
00010000
00100000
,
10000000
00100000
10000000
00000000
01000000
00000000
00010000
00000000
,
00001000
00000000
00010000
00010000
,
00000020
00001030
00020000
00031000
,
00000020
00001030
00022000
00033000
,
00200000
00310000
00002000
00013000
,
00200000
00310000
00022000
00033000
,
00000200
00001300
00020000
00031000
,
00000200
00001300
00022000
00033000
,
01000000
00010000
00100000
01000000
,
20020000
00000000
00000000
30030000
,
10000000
00000000
01000000
00000000
00010000
00001000
00010000
00000000
,
00001000
00000000
00000010
00000000
00000001
00001000
00000001
00000000
,
00000100
00000000
00000010
00000000
00001000
00000100
00001000
00000000
,
00000100
00000010
00000001
00000010
,
00000001
00000000
00000100
00000000
00001000
00010000
00001000
00000000
,
00010000
00000000
00100000
00000000
10000000
00010000
10000000
00000000
,
01000000
00000000
00100000
00000000
00010000
01000000
00010000
00000000
,
10010000
00000000
10000000
10000000
,
00200000
00000000
00000000
00300000
,
00020000
00030000
00002000
00003000
,
00000020
00000000
00000000
00000030
,
00000002
00000003
00002000
00003000
,
00000001
00000000
00000100
00000000
,
00001000
00000000
00010000
00000000
,
00100000
10000000
01000000
00010000
,
00022000
00000000
00000000
00033000
,
00200000
00010000
00302000
00010000
,
00203000
00310000
00022000
00033000
,
00000020
00001000
00020030
00001000
,
00030020
00001030
00022000
00033000
,
02000000
00010000
03002000
00010000
,
02003000
03010000
00022000
00033000
,
00000100
00001000
00000010
00000100
,
00002002
00000000
00000000
00003003
,
00000001
00000000
00000100
00000000
00001000
00010000
00001000
00000000
,
01100000
10010000
02200000
03300000
,
10000000
00000000
01000000
00000000
00010000
00001000
00010000
00000000
,
00000110
00001001
00000220
00000330
,
00000001
00000000
00000100
00000000
00001000
00010000
00001000
00000000
,
01100000
10010000
02200000
03300000
,
10000000
00000000
01000000
00000000
00010000
00001000
00010000
00000000
,
00000110
00000000
00001001
00000110
,
00001001
00000000
00000000
00000000
,
00000000
00000000
00000000
00000000
;
#NOTES:
     dance-double:
     :
     Medium:
     10:
     :
00000000
00000000
00000000
00000000
,
00000000
00000000
00000000
00000000
,
00000000
00000000
00000000
00000000
,
00000000
00000000
00000000
00000000
,
00000000
00000000
00000000
00000000
,
00000001
00000100
00000010
00001000
,
00000100
00010000
00001000
01000000
,
00100000
10000000
01000000
00000000
00100000
00010000
01000000
00000000
,
00022000
00000000
00000000
00033000
,
00001000
00000000
00000000
00000010
00000000
00000000
00000001
00000000
00000000
00000010
00000000
00000000
00001000
00000000
00000000
00000000
,
00010000
00000000
00000000
00100000
00000000
00000000
10000000
00000000
00000000
00100000
00000000
00000000
00010000
00000000
00000000
00000000
,
00001000
00000000
00000000
00000100
00000000
00000000
00000001
00000000
00000000
00000100
00000000
00000000
00001000
00000000
00000000
00000000
,
00010000
00000000
00000000
01000000
00000000
00000000
10000000
00000000
00000000
01000000
00000000
00000000
00010000
00000000
00000000
00000000
,
00001000
00000000
00000000
00000010
00000000
00000000
00000001
00000000
00000000
00000100
00000000
00000000
00001000
00000000
00000000
00000000
,
00010000
00000000
00000000
00100000
00000000
00000000
10000000
00000000
00000000
01000000
00000000
00000000
00010000
00000000
00000000
00000000
,
00001000
00000000
00000000
00000100
00000000
00000000
00000001
00000000
00000000
00000010
00000000
00000000
00001000
00000000
00000000
00000000
,
00010000
00000000
00001000
00011000
,
00010000
00100000
01000000
00010000
00100000
00000000
01000000
00000000
,
10000000
00100000
01000000
00010000
00100000
00000000
01000000
00000000
,
00010000
00001000
00000010
00000100
00000010
00000000
00000100
00000000
,
00001000
00000100
00000010
00000001
00000100
00000000
00000010
00000000
,
00010000
00001000
00000100
00001000
00010000
00000000
00011000
00000000
,
00001000
00010000
01000000
00010000
00001000
00000000
00011000
00000000
,
00010000
00001000
00000010
00001000
00010000
00000000
00011000
00000000
,
00100000
01000000
20020000
30030000
,
10000000
01000000
10000000
01000000
00010000
01000000
00010000
00000000
,
00001000
00000010
00000001
00000100
,
00000001
00000100
00000001
00000100
00001000
00000100
00001000
00000000
,
00010000
00100000
10000000
01000000
,
10000000
00100000
10000000
00100000
00010000
00100000
00010000
00000000
,
00001000
00000100
00000001
00000010
,
00000001
00000010
00000001
00000010
00001000
00000010
00001000
00000000
,
00011000
00000000
00010000
00011000
,
00001000
00000000
00000000
00010000
00000000
00000000
00100000
00000000
00010000
00000000
00000000
00001000
00000000
00000000
00100000
00000000
,
01000000
00000000
00000000
00100000
00000000
00000000
00012000
00000000
00000000
00000000
00000000
00000000
00013000
00000000
00000100
00000000
,
00010000
00000000
00000000
00001000
00000000
00000000
00000010
00000000
00001000
00000000
00000000
00010000
00000000
00000000
00000010
00000000
,
00000100
00000000
00000000
00000010
00000000
00000000
00021000
00000000
00000000
00000000
00000000
00000000
00031000
00000000
00100000
00000000
,
00001000
00000000
00000000
00010000
00000000
00000000
01000000
00000000
00010000
00000000
00000000
00001000
00000000
00000000
01000000
00000000
,
00100000
00000000
00000000
01000000
00000000
00000000
00012000
00000000
00000000
00000000
00000000
00000000
00013000
00000000
00000010
00000000
,
00000100
00000001
00000010
00000000
00000100
00001000
00000010
00000000
,
00000110
00000000
00000000
00001000
00000000
00000000
00020000
00000000
00000000
00000000
00000000
00000000
00030000
00000000
00000000
00000000
,
00010000
00000000
00000000
00100000
00000000
00000000
10000000
00000000
00000000
00100000
00000000
00000000
00010000
00000000
00000000
00000000
,
00001000
00000000
00000000
00000010
00000000
00000000
00000001
00000000
00000000
00000010
00000000
00000000
00001000
00000000
00000000
00000000
,
00010000
00000000
00000000
01000000
00000000
00000000
10000000
00000000
00000000
01000000
00000000
00000000
00010000
00000000
00000000
00000000
,
00001000
00000000
00000000
00000100
00000000
00000000
00000001
00000000
00000000
00000100
00000000
00000000
00001000
00000000
00000000
00000000
,
00010000
00000000
00000000
00100000
00000000
00000000
10000000
00000000
00000000
01000000
00000000
00000000
00010000
00000000
00000000
00000000
,
00001000
00000000
00000000
00000010
00000000
00000000
00000001
00000000
00000000
00000100
00000000
00000000
00001000
00000000
00000000
00000000
,
00010000
00000000
00000000
01000000
00000000
00000000
10000000
00000000
00000000
00100000
00000000
00000000
00010000
00000000
00000000
00000000
,
00001000
00000000
00010000
00011000
,
00002000
00000000
00000000
00000000
00000000
00000000
00000000
00003020
,
00000000
00000000
00000000
00000032
00000000
00000000
00000000
00002003
,
00000000
00000000
00000000
00000000
00000000
00000000
00000000
00003020
,
00000000
00000000
00000000
00000230
00000000
00000000
00000000
00000000
,
00001300
00010000
01000000
10000000
,
00100000
00010000
00001000
00000100
,
00000001
00000010
00000100
00000000
00001000
00000010
00000100
00000000
,
00000110
00000000
00000000
00001000
00000000
00000000
00020000
00000000
00000000
00000000
00000000
00000000
00030000
00000000
00000000
00000000
,
00002000
00000000
00000000
00023000
00000000
00000000
00130000
00000000
00020000
00000000
00000000
00032000
00000000
00000000
00103000
00000000
,
01100000
00000000
00000000
00110000
00000000
00000000
00012000
00000000
00000000
00000000
00000000
00000000
00013000
00000000
00000100
00000000
,
00020000
00000000
00000000
00032000
00000000
00000000
00003010
00000000
00002000
00000000
00000000
00023000
00000000
00000000
00030010
00000000
,
00000110
00000000
00000000
00001010
00000000
00000000
00021000
00000000
00000000
00000000
00000000
00000000
00031000
00000000
00100000
00000000
,
00002000
00000000
00000000
00023000
00000000
00000000
01030000
00000000
00020000
00000000
00000000
00032000
00000000
00000000
01003000
00000000
,
01100000
00000000
00000000
01010000
00000000
00000000
00012000
00000000
00000000
00000000
00000000
00000000
00013000
00000000
00000010
00000000
,
00000100
00000001
00000010
00000000
00000100
00001000
00000010
00000000
,
00000110
00000000
00000000
00001000
00000000
00000000
00020000
00000000
00000000
00000000
00000000
00000000
00030000
00000000
00000000
00000000
,
00001000
00000000
00000000
00010000
00000000
00000000
00100000
00000000
00000000
10000000
00000000
00000000
01000000
00000000
00100000
00000000
,
01100000
00000000
00000000
00110000
00000000
00000000
00012000
00000000
00000000
00000000
00000000
00000000
00013000
00000000
00000100
00000000
,
00010000
00000000
00000000
00001000
00000000
00000000
00000010
00000000
00000000
00000001
00000000
00000000
00000100
00000000
00000010
00000000
,
00000110
00000000
00000000
00001010
00000000
00000000
00021000
00000000
00000000
00000000
00000000
00000000
00031000
00000000
00100000
00000000
,
00001000
00000000
00000000
00010000
00000000
00000000
01000000
00000000
00000000
10000000
00000000
00000000
00100000
00000000
01000000
00000000
,
01100000
00000000
00000000
01010000
00000000
00000000
00012000
00000000
00000000
00000000
00000000
00000000
00013000
00000000
00000010
00000000
,
00010000
00000000
00000000
00001000
00000000
00000000
00000100
00000000
00000000
00000001
00000000
00000000
00000010
00000000
00000100
00000000
,
00001001
00000000
00000110
00001001
,
00000110
00000000
00000000
00000000
,
00000000
00000000
00000000
00000000
;
#NOTES:
     dance-double:
     :
     Hard:
     14:
     :
00000000
00000000
00000000
00000000
,
00000000
00000000
00000000
00000000
,
00000000
00000000
00000000
00000000
,
00000000
00000000
00000000
00000000
,
00000000
00000000
00000000
00000000
,
10000000
01000000
00010000
00001000
,
00010000
00001000
00000100
00000001
,
00000010
00000001
00000100
00000010
00001000
00000100
00010000
00001000
,
00022000
00000000
00000000
00033000
,
01100000
00000000
00010000
01000000
00000000
00010000
00100000
00000000
00010000
01000000
00000000
00010000
00100000
00000000
00001000
00000000
,
00011000
00000000
00010000
00000010
00000000
00010000
00000100
00000000
00010000
00000010
00000000
00010000
00000100
00000000
00001000
00000000
,
00000110
00000000
00000001
00000100
00000000
00000001
00000010
00000000
00000001
00000100
00000000
00000001
00000010
00000000
00000001
00000000
,
00000110
00000000
00001000
00000100
00000000
00001000
00000010
00000000
00001000
00000100
00000000
00001000
00000010
00000000
00010000
00000000
,
00011000
00000000
00001000
00010000
00000000
00010000
00100000
00000000
00100000
10000000
00000000
10000000
01000000
00000000
00100000
00000000
,
01100000
00000000
01000000
00010000
00000000
00010000
00001000
00000000
00001000
00000010
00000000
00000010
00000001
00000000
00000100
00000000
,
00000110
00000000
00000010
00000100
00000000
00000100
00001000
00000000
00001000
00010000
00000000
00010000
00100000
00000000
10000000
00000000
,
01100000
00000000
10010000
01100000
,
10000000
01000000
00100000
00010000
01000000
00001000
00010000
00000000
,
00001000
00010000
00001000
00000100
00000001
00001000
00000001
00000000
,
00001000
00000100
00000010
00000001
00000100
00000010
00000100
00000000
,
00000010
00010000
00001000
00010000
01000000
10000000
00010000
00000000
,
01000000
00100000
10000000
01000000
00100000
00001000
00010000
00000000
,
00001000
00010000
00001000
00000010
00000001
00001000
00000001
00000000
,
00001000
00000010
00000100
00000001
00000010
00001000
00010000
00001000
,
00010000
00000000
00100000
00000000
10010000
00000000
10000000
01000000
,
00100000
00000000
00001000
00000000
00010000
00000000
00001000
00000010
00000000
00001000
00010000
00000000
00000010
00000000
00001000
00000000
,
00000100
00000000
00010000
00000000
00001000
00000000
00010000
00100000
00000000
00010000
00001000
00000000
00100000
00000000
00010000
00000000
,
01000000
00000000
00001000
00000000
00010000
00000000
00001000
00000100
00000000
00001000
00010000
00000000
00000100
00000000
00001000
00000000
,
00000010
00000000
00010000
00000000
00001000
00000000
00010000
01000000
00000000
00010000
00001000
00000000
01000000
00000000
00010000
00000000
,
00100000
00000000
00010000
00000000
01000000
00000000
00100000
00010000
00000000
00001000
00010000
00000000
00000100
00000000
00010000
00000000
,
00000010
00000000
00001000
00000000
00000100
00000000
00000010
00001000
00000000
00010000
00001000
00000000
00100000
00000000
00001000
00000000
,
01000000
00000000
00010000
00000000
00100000
00000000
01000000
00010000
00000000
00001000
00010000
00000000
00000010
00000000
00001000
00000000
,
00001001
00000000
00000110
00001001
,
00000110
00000000
00000001
00000100
00000001
00000000
00000100
00000000
00000010
00000000
00010000
00001000
00010000
00000000
00001000
00000000
,
00110000
00000000
00000000
01100000
00000000
00000000
21000000
00000000
00000000
00000000
00000000
00000000
30100000
00000000
01000000
00000000
,
01100000
00000000
10000000
01000000
10000000
00000000
01000000
00000000
00100000
00000000
00001000
00010000
00001000
00000000
00010000
00000000
,
00001010
00000000
00000000
00000110
00000000
00000000
00000102
00000000
00000000
00000000
00000000
00000000
00000013
00000000
00000100
00000000
,
00000110
00000000
00000001
00000010
00000001
00000000
00000010
00000000
00000100
00000000
00010000
00001000
00010000
00000000
00001000
00000000
,
01010000
00000000
00000000
01100000
00000000
00000000
20100000
00000000
00000000
00000000
00000000
00000000
31000000
00000000
00100000
00000000
,
00010000
00000000
01000000
00000000
00100000
00000000
00010000
00100000
00000000
10000000
01000000
00000000
00100000
00000000
00010000
00000000
,
00011000
00000000
00000000
00001010
00000000
00000000
00000022
00000000
00000000
00000000
00000000
00000000
00000033
00000000
00000000
00000000
,
00000110
00000000
00001000
00000100
00000000
00001000
00000010
00000000
00001000
00000100
00000000
00001000
00000010
00000000
00010000
00000000
,
00011000
00000000
00001000
00100000
00000000
00001000
01000000
00000000
00001000
00100000
00000000
00001000
01000000
00000000
00010000
00000000
,
01100000
00000000
10000000
01000000
00000000
10000000
00100000
00000000
10000000
01000000
00000000
10000000
00100000
00000000
10000000
00000000
,
01100000
00000000
00010000
01000000
00000000
00010000
00100000
00000000
00010000
01000000
00000000
00010000
00100000
00000000
00001000
00000000
,
00011000
00000000
00010000
00001000
00000000
00001000
00000010
00000000
00000010
00000001
00000000
00000001
00000100
00000000
00000010
00000000
,
00000110
00000000
00000100
00001000
00000000
00001000
00010000
00000000
00010000
00100000
00000000
00100000
10000000
00000000
01000000
00000000
,
01100000
00000000
00100000
01000000
00000000
01000000
00010000
00000000
00010000
00001000
00000000
00001000
00000010
00000000
00000001
00000000
,
00000110
00000000
00001001
00000110
,
00002002
00000000
00000000
00000000
00000000
00003000
00000000
00000200
,
00000000
00000003
00000000
00002000
00000000
00000300
00000000
00020000
,
00000000
00000000
00000000
00000000
00000000
00003000
00000000
02000000
,
00000000
00030000
00000000
20000000
00000000
00000000
33000000
00000000
,
00100000
10000000
00010000
01000000
,
00100000
00010000
00001000
00000010
,
00000001
00000100
00000010
00001000
00010000
01000000
00100000
10000000
,
01100000
00000000
00000000
00020000
00000000
00000000
20000000
00000000
00000000
00000000
00000000
00000000
30030000
00000000
00000000
00000000
,
01100000
00000000
10000000
01000000
10000000
00000000
01000000
00000000
01100000
00000000
00001000
00010000
00001000
00000000
00010000
00000000
,
00001010
00000000
00000000
00000110
00000000
00000000
00000102
00000000
00000000
00000000
00000000
00000000
00000013
00000000
00000100
00000000
,
00000110
00000000
00000001
00000100
00000001
00000000
00000100
00000000
00000110
00000000
00010000
00001000
00010000
00000000
00001000
00000000
,
00110000
00000000
00000000
01100000
00000000
00000000
21000000
00000000
00000000
00000000
00000000
00000000
30100000
00000000
01000000
00000000
,
01100000
00000000
10000000
00100000
10000000
00000000
00100000
00000000
01100000
00000000
00001000
00010000
00001000
00000000
00010000
00000000
,
00001100
00000000
00000000
00000110
00000000
00000000
00000012
00000000
00000000
00000000
00000000
00000000
00000103
00000000
00000010
00000000
,
00001000
00000000
00000100
00000000
00000010
00000000
00001000
00000010
00000000
00000001
00000100
00000000
00000010
00000000
00001000
00000000
,
00011000
00000000
00000000
00110000
00000000
00000000
20200000
00000000
00000000
00000000
00000000
00000000
30300000
00000000
00000000
00000000
,
01100000
00000000
10000000
01000000
00000000
00100000
00010000
00000000
00001000
00000100
00000000
00000010
00000001
00000000
00001000
00000000
,
00001010
00000000
00000000
00000101
00000000
00000000
00002100
00000000
00000000
00000000
00000000
00000000
00003100
00000000
00000010
00000000
,
00000110
00000000
00000001
00000100
00000000
00000010
00001000
00000000
00010000
01000000
00000000
00100000
10000000
00000000
00010000
00000000
,
00110000
00000000
00000000
11000000
00000000
00000000
01020000
00000000
00000000
00000000
00000000
00000000
01030000
00000000
00100000
00000000
,
01100000
00000000
10000000
01000000
00000000
01000000
00010000
00000000
00010000
00001000
00000000
00001000
00000100
00000000
00000001
00000000
,
00001100
00000000
00000000
00000101
00000000
00000000
00001020
00000000
00000000
00000000
00000000
00000000
00000130
00000000
00000010
00000000
,
00000110
00000000
00000001
00000100
00000000
00000100
00001000
00000000
00001000
00010000
00000000
00010000
01000000
00000000
10000000
00000000
,
10010000
00000000
01100000
10010000
,
01100000
00000000
00000000
00000000
,
00000000
00000000
00000000
00000000
;
