
//----- song ID: suma -----//
#VERSION:0.83;
#TITLE:Superior MAXXX;
#ARTIST:333-DJ TOTTO-444;
#BANNER:Superior MAXXX.png;
#BACKGROUND:Superior MAXXX-bg.png;
#CDTITLE:./CDTitles/DDR WORLD.png;
#MUSIC:Superior MAXXX.ogg;
#SAMPLESTART:15.888;
#SAMPLELENGTH:15;
#DISPLAYBPM:333:444;
#BPMS:0=333,344=444;
#BGSTAGE:28;
#NOTEDATA:;
#STEPSTYPE:dance-single;
#DIFFICULTY:Beginner;
#METER:6;
#NOTES:
0000
0000
0000
0000
,
0000
0000
0000
0000
,
0000
0000
0000
0000
,
0000
0000
0000
0000
,
0000
0000
0000
0000
,
0000
0000
0000
0000
,
0000
0000
0000
0000
,
0000
0000
0000
0000
,
0000
0000
0000
0000
,
0000
0000
0000
0000
,
0001
0000
0000
0000
,
0000
0000
0000
0000
,
1000
0000
0000
0000
,
0000
0000
0000
0000
,
0001
0000
0000
0000
,
0000
0000
0000
0000
,
1000
0000
0000
0000
,
1001
0000
0000
0000
,
0001
0000
0000
0000
,
0001
0000
0001
0000
,
0000
0000
1000
0000
,
1000
0000
0000
0000
,
0001
0000
0000
0000
,
0000
0000
0000
0000
,
1000
0000
0000
0000
,
0000
0000
0000
0000
,
0001
0000
0000
0000
,
0000
0000
0000
0000
,
0100
0000
0000
0000
,
0000
0000
0000
0000
,
0001
0000
0000
0000
,
1000
0000
0000
0000
,
0010
0000
0000
0000
,
0000
0000
0000
0000
,
1000
0000
0000
0000
,
0001
0000
0000
0000
,
0100
0000
0000
0000
,
0000
0000
0000
0000
,
0001
0000
0000
0000
,
0000
0000
0000
0000
,
0001
0000
0000
0000
,
0000
0000
0000
0000
,
0100
0000
0000
0000
,
0000
0000
0000
0000
,
0010
0000
0000
0000
,
0010
0000
0000
0000
,
0010
0000
0000
0000
,
0000
0000
0000
0000
,
1000
0000
0000
0000
,
0000
0000
0000
0000
,
0001
0000
0000
0000
,
0000
0000
0000
0000
,
0100
0000
0000
0000
,
0000
0000
0000
0000
,
0110
0000
0000
0000
,
0000
0000
0000
0000
,
0000
0000
0000
0000
,
0000
0000
0000
0000
,
1001
0000
0000
0000
,
0000
0000
0000
0000
,
0001
0000
0000
0000
,
0001
0000
0000
0000
,
0001
0000
0000
0000
,
1000
0000
0000
0000
,
0010
0000
0000
0000
,
0010
0000
0000
0000
,
1000
0000
0000
0000
,
0001
0000
0000
0000
,
0100
0000
0000
0000
,
0100
0000
0000
0000
,
0001
0000
2002
0000
,
0000
0000
0000
0000
,
0000
0000
0000
0000
,
0000
0000
0000
0000
,
0000
0000
0000
0000
,
0000
0000
0000
0000
,
3003
0000
0000
0000
,
0000
0000
0000
0000
,
1001
0000
0000
0000
,
0001
0000
0000
0000
,
1000
0000
0000
0000
,
1000
0000
0000
0000
,
0010
0000
0000
0000
,
0010
0000
0000
0000
,
0100
0000
0000
0000
,
0100
0000
0000
0000
,
0001
0000
0000
0000
,
0000
0000
0000
0000
0001
0000
0000
0000
0000
0000
0000
0000
,
0000
0000
0000
0000
0000
0000
0000
0000
1000
0000
0000
0000
,
0000
0000
0000
0000
,
0010
0000
0000
0000
,
0000
0000
0000
0000
0100
0000
0000
0000
0000
0000
0000
0000
,
0000
0000
0000
0000
0000
0000
0000
0000
0001
0000
0000
0000
,
0000
0000
0000
0000
,
0010
0000
0000
0000
,
0000
0000
0000
0000
0100
0000
0000
0000
0000
0000
0000
0000
,
0000
0000
0000
0000
0000
0000
0000
0000
1000
0000
0000
0000
,
0000
0000
0000
0000
,
0020
0000
0000
0000
,
0000
0000
0000
0000
,
0030
0000
0000
0000
,
1001
0000
0000
0000
,
0001
0000
0000
0000
,
0000
0000
0000
0000
,
1000
0000
0000
0000
,
0000
0000
0000
0000
,
0010
0000
0000
0000
,
0000
0000
0000
0000
,
0100
0000
0000
0000
,
0000
0000
0000
0000
,
0001
0000
0000
0000
,
0001
0000
0000
0000
,
1000
0000
0000
0000
,
0000
0000
0000
0000
,
1001
0000
0000
0000
,
0000
0000
0000
0000
,
0000
0000
0000
0000
,
0000
0000
0000
0000
,
0001
0000
0000
0000
,
0001
0000
0000
0000
,
1000
0000
0000
0000
,
0000
0000
0000
0000
,
0010
0000
0000
0000
,
0010
0000
0000
0000
,
0100
0000
0000
0000
,
0000
0000
0000
0000
,
0001
0000
0000
0000
,
0010
0000
0000
0000
,
0100
0000
0000
0000
,
0000
0000
0000
0000
,
1000
0000
0000
0000
,
0001
0000
0000
0000
,
1000
0000
0000
0000
,
1001
0000
0000
0000
,
0001
0000
0000
0000
,
0000
0000
0000
0000
,
0001
0000
0000
0000
,
0001
0000
0000
0000
,
1000
0000
0000
0000
,
0000
0000
0000
0000
,
1000
0000
0000
0000
,
1000
0000
0000
0000
,
0001
0000
0000
0000
,
0000
0000
0000
0000
,
1000
0000
0000
0000
,
0010
0000
0000
0000
,
0100
0000
0000
0000
,
0000
0000
0000
0000
,
0010
0000
0000
0000
,
1000
0000
0000
0000
,
0001
0000
0000
0000
,
0000
0000
0000
0000
,
0001
0000
0000
0000
,
0000
0000
0000
0000
,
1000
0000
0000
0000
,
0000
0000
0000
0000
,
1000
0000
0000
0000
,
0000
0000
0000
0000
,
0001
0000
0000
0000
,
0100
0000
0000
0000
,
0001
0000
0000
0000
,
0010
0000
0000
0000
,
0100
0000
0000
0000
,
1000
0000
0000
0000
,
0010
0000
0000
0000
,
1000
0000
0000
0000
,
1001
0000
0000
0000
,
0000
0000
0000
0000
,
0000
0000
0000
0000
,
0000
0000
0000
0000
,
0000
0000
0000
0000
,
0000
0000
0000
0000
,
0000
0000
0000
0000
,
0000
0000
0000
0000
,
0001
0000
0000
0000
,
0001
0000
0000
0000
,
1000
0000
0000
0000
,
1000
0000
0000
0000
,
0001
0000
0000
0000
,
1000
0000
0000
0000
,
0001
0000
0000
0000
,
1000
0000
0000
0000
,
0010
0000
0000
0000
,
0110
0000
0000
0000
,
0000
0000
2002
0000
,
0000
0000
0000
0000
,
0000
0000
0000
0000
,
0000
0000
0000
0000
,
0000
0000
3003
0000
;
#NOTEDATA:;
#STEPSTYPE:dance-single;
#DIFFICULTY:Easy;
#METER:10;
#NOTES:
0000
0000
0000
0000
,
0000
0000
0000
0000
,
0000
0000
0000
0000
,
0000
0000
0000
0000
,
0000
0000
0000
0000
,
0000
0000
0000
0000
,
0000
0000
0000
0000
,
0000
0000
0000
0000
,
0000
0000
0000
0000
,
0000
0000
0000
0000
,
0001
0000
0001
0000
,
1000
0000
1000
0000
,
0010
0000
0010
0000
,
0100
0000
0100
0000
,
0001
0001
0001
0000
,
1000
1000
1000
0000
,
0010
0100
0001
0000
,
2002
0000
3003
0000
,
0001
0000
0000
0000
,
1000
0000
1000
0000
,
0001
0000
1000
0100
,
0001
0100
1000
0000
,
1001
0000
0001
0000
,
0001
0010
0100
0000
,
1000
0000
0001
0000
,
0100
0000
0001
0000
,
0010
0001
0010
0000
,
0100
1000
0100
0000
,
1000
0000
0001
0000
,
0100
0000
0100
0000
,
0001
0000
1000
0000
,
0001
0010
0100
0000
,
1000
0000
0001
0000
,
0100
0000
0000
0010
0000
0000
0100
0000
,
0100
0000
0001
0000
,
1000
0000
0100
0000
,
1000
0001
1000
0001
,
0100
0000
0010
0000
,
1000
1000
0001
0000
,
0100
0100
0010
0000
,
1000
0000
0001
0000
,
0100
0000
0010
0000
,
1000
1000
0100
0000
,
0010
0010
0001
0000
,
0100
0000
0010
0000
,
0110
0000
2002
3003
,
0001
0001
1000
0000
,
0010
0010
0100
0000
,
0001
0000
1000
0000
,
0010
0000
0100
0000
,
0001
0001
0010
0000
,
0100
0100
1000
0000
,
0010
0000
0100
0000
,
0001
1000
0001
0000
,
2002
0000
0000
3003
,
0000
0000
0000
0000
,
0000
0000
0000
0000
,
0001
0000
0000
0100
0000
0000
0010
0000
,
1001
0000
0000
0000
,
0000
0000
0000
0000
,
0001
0000
0101
0000
,
1000
0000
1100
0000
,
0001
0010
0001
0010
,
0001
0000
1000
0000
,
0010
0100
0010
0100
,
0010
0000
1000
0000
,
1001
0000
0001
0000
,
0101
0000
0100
0000
,
0110
0000
1010
0000
,
1001
0000
0100
0000
,
0010
0000
2002
0000
,
0000
0000
0000
0000
,
0000
0000
0000
0000
,
0000
0000
0000
0000
,
0000
0000
0000
0000
,
0000
0000
0000
0000
,
3003
0000
0000
0000
,
0000
0000
0000
0000
,
0001
0100
0001
0000
,
1000
0100
1000
0000
,
0010
0000
0100
0000
,
0001
0000
2000
0000
,
3010
0100
0010
0000
,
1000
0001
1000
0000
,
0001
0000
0100
0000
,
0010
0000
1000
0000
,
0001
0000
0000
0000
0000
0000
0000
0000
0010
0000
0000
0000
,
0000
0000
0000
0000
0001
0000
0000
0000
0000
0000
0000
0000
,
0010
0000
0000
0000
0000
0000
0000
0000
0100
0000
0000
0000
,
0000
0000
0000
0000
1000
0000
0000
0000
0000
0000
0000
0000
,
0001
0000
0000
0000
0000
0000
0000
0000
0100
0000
0000
0000
,
0000
0000
0000
0000
0010
0000
0000
0000
0000
0000
0000
0000
,
1000
0000
0000
0000
0000
0000
0000
0000
0010
0000
0000
0000
,
0000
0000
0000
0000
0100
0000
0000
0000
0000
0000
0000
0000
,
0001
0000
0000
0000
0000
0000
0000
0000
0010
0000
0000
0000
,
0000
0000
0000
0000
0100
0000
0000
0000
0000
0000
0000
0000
,
1000
0000
0000
0000
0000
0000
0000
0000
0010
0000
0000
0000
,
0000
0000
0000
0000
0100
0000
0000
0000
0000
0000
0000
0000
,
0020
0000
0000
0000
,
0000
0000
0000
0000
,
0000
0000
0030
0000
,
2002
0000
3003
0000
,
0001
0000
0100
0000
,
0001
0000
0100
0000
,
0010
0000
1000
0000
,
0010
0000
1000
0000
,
0001
0000
0010
0000
,
0100
0000
1000
0000
,
0001
0000
0001
0000
,
1000
0000
1000
0000
,
0000
1001
0000
0000
,
0001
0000
0100
0000
,
0001
0000
0010
0000
,
0100
0000
1000
0000
,
0001
0000
0000
0100
,
0000
0000
0001
0000
,
0000
1000
0000
0000
,
0010
0010
0010
0000
,
1000
0000
0001
0000
,
0100
0000
0001
0000
,
0010
0000
0100
0000
,
1000
0000
1000
0000
,
0001
0000
0100
0000
,
0010
0000
0100
0000
,
0001
0000
0001
0000
,
1000
0000
1000
0000
,
0000
1001
0000
0000
,
0001
0000
1000
0000
,
0010
0000
1000
0000
,
0100
0000
0010
0000
,
0001
0000
0000
0000
,
1000
0000
0000
0000
,
0010
0000
0100
0000
,
2002
0000
3003
0000
,
0001
0000
0101
0000
,
0100
0000
0110
0000
,
0010
0000
1000
0000
,
1001
0000
0000
0000
,
1000
0000
1100
0000
,
0100
0000
0110
0000
,
0010
0000
0001
0000
,
1000
0000
2002
3003
,
0001
0000
0101
0000
,
0100
0000
0110
0000
,
0010
0000
1000
0000
,
1001
0000
0110
0000
,
1000
0000
1000
0000
,
0001
0000
0001
0000
,
0100
0000
0010
0000
,
1000
0000
1000
0000
,
0000
1001
0000
0000
,
0001
0000
1000
0000
,
0010
0000
0000
0000
,
0100
0000
0000
0000
,
0001
0000
0010
0000
,
0100
0000
0000
0000
,
1000
0000
0010
0000
,
1000
0000
2002
3003
,
0001
0000
0001
0000
,
1000
0000
1000
0000
,
0001
0000
0001
0000
,
1000
0000
1000
0000
,
0010
0000
0010
0000
,
1000
0000
1000
0000
,
0001
0010
0001
0000
,
1000
0100
1000
0000
,
2002
0000
0000
3003
,
0000
0000
0000
0000
,
0000
0000
0000
0000
,
0000
0000
0000
0000
,
0000
0000
0000
0000
,
0000
0000
0000
0000
,
0000
0000
0000
0000
,
0001
0000
1000
0000
,
0001
0100
0001
0000
,
1000
0000
0001
0000
,
1000
0010
1000
0000
,
0001
0000
0100
0000
,
0001
0010
0001
0000
,
1000
0100
1000
0000
,
0001
1000
0001
1000
,
0010
0100
0010
0100
,
0001
0000
0000
0000
,
1000
0000
0000
0000
,
0010
0000
2002
0000
,
0000
0000
0000
0000
,
0000
0000
0000
0000
,
0000
0000
0000
0000
,
0000
0000
3003
0000
;
#NOTEDATA:;
#STEPSTYPE:dance-single;
#DIFFICULTY:Medium;
#METER:15;
#BPMS:0=166.5,20=333,48=666,56=166.5,64=333,158=666,162=333,194=166.5,210=333,244=166.5,247=111,249=55.5,250=333,265=166.5,266=333,282=444,312=222,313=444,341=888,349=444,397=222,405=444,465=888,473=444,503=888,507=444,539=222,554=888,558=444,590=222,606=444,648=888;
#STOPS:250=1.982;
#NOTES:
0000
0000
0000
0000
,
0000
0000
0000
0000
,
0000
0000
0000
0000
,
0000
0000
0000
0000
,
0000
0000
0000
0000
,
1000
0001
0010
0100
,
1000
0000
0001
0000
0100
0010
0100
0000
,
0001
1000
0100
0010
,
0001
0000
1000
0000
0010
0100
0010
0000
,
1000
0001
1000
0001
,
1000
0001
1000
0001
1000
0000
0001
0000
,
0010
0100
1000
0000
0010
0100
0001
0000
,
2002
0000
0000
0000
,
3003
0000
0000
0000
,
0000
0000
0011
1100
,
0000
0000
1000
0010
0001
0010
2000
0000
,
3001
0100
0001
0010
,
0001
0100
0001
0010
,
0100
1000
0010
1000
,
0100
0000
1000
0000
0010
0000
1000
0001
,
1000
0100
0010
0100
,
1000
0100
0010
0001
,
0100
0010
0100
0001
,
0100
0010
0100
0001
,
1001
0000
1000
0000
,
0100
0010
0001
0000
,
0100
0010
1000
0001
,
0010
0000
0000
0100
0000
0000
0010
0000
,
0001
1000
0100
0010
,
0001
0000
1000
0010
0000
0010
0100
0000
,
0001
0001
1000
1000
,
0001
1000
0001
1000
0001
0000
0000
0000
,
0001
0001
0010
0010
,
0100
0100
1000
1000
,
0001
0010
0001
0000
0001
0000
0100
0000
,
0010
1000
1001
0000
,
0001
0001
1000
1000
,
0010
0010
0100
0100
,
0001
0000
0000
1000
0000
0000
0001
0000
0000
0000
0000
0000
1000
0000
0000
0000
0100
0000
0000
0000
1000
0000
0000
0000
,
0001
0000
0100
0000
0001
0000
2002
0000
0000
0000
0000
0000
,
3003
0000
0000
0000
,
0001
0001
1000
1000
,
0010
0100
0010
0000
1000
0000
1000
0000
,
0001
0100
0110
0010
,
1010
0000
1001
0001
,
1000
1000
0010
0010
,
0100
0000
0100
0000
0001
1000
0001
0000
,
1000
0000
0100
0000
1000
0000
0010
0000
0000
0000
0000
0000
,
1000
0000
0001
0000
1000
0000
0001
0000
1000
0000
0000
0100
0000
0000
0010
0000
,
0000
0000
0000
0000
,
0001
0010
0001
0010
0000
0000
0100
0000
1001
0000
0000
0000
0000
0000
0000
0000
,
0000
0000
0000
0000
1100
0100
0110
0010
,
0011
0001
1001
0000
1000
0000
0010
0000
,
1000
0000
0001
0000
0100
0000
0000
0010
,
0000
1000
0001
0010
,
0001
0000
1000
0000
0010
0000
0000
0100
,
0000
0001
1000
1000
,
2000
3001
0001
0002
,
0103
0100
0200
0310
,
0010
0000
0000
0020
0000
0000
1030
0000
0100
0000
1000
0000
,
0001
0000
0100
0000
0001
0000
0100
0000
0000
0000
0000
0000
,
2002
0000
0000
0000
,
0000
0000
3003
1000
,
0001
0100
0010
1000
,
0001
0010
0100
1000
,
0001
0100
0010
1000
,
0001
0010
0200
0000
1300
0000
0001
0000
,
0100
0010
1000
0100
,
1000
0001
0100
0010
,
0100
0001
0010
0100
,
1000
0000
0000
0001
0000
0000
1000
0000
0000
0001
0000
0000
1000
0000
0000
0000
0000
0000
0000
0000
0010
0000
0000
0000
,
0000
0000
0100
0000
0000
0000
0001
0000
0000
0000
0010
0000
,
0000
0000
0100
0000
0000
0000
1000
0000
0000
0000
0001
0000
,
0000
0000
0100
0000
0000
0000
0010
0000
0000
0000
1000
0000
,
0000
0000
0100
0000
0000
0000
0010
0000
0000
0000
0001
0000
,
0000
0000
1000
0000
0000
0000
0001
0000
0000
0000
0100
0000
,
0000
0000
0010
0000
0000
0000
1000
0000
0000
0000
0100
0000
,
0000
0000
0010
0000
0000
0000
0001
0000
1000
0000
0001
0000
,
2000
0000
0000
3010
0000
0000
0000
0100
0000
0000
0000
0001
,
0000
0000
0000
1000
0000
0000
0000
0100
0000
0000
0000
0010
,
0000
0000
0000
0001
0000
0000
0000
0100
0000
0000
0000
0001
,
0000
0000
0000
1000
0000
0000
0000
0010
0000
0000
0000
1000
,
0000
0001
1000
0001
,
1000
0001
1000
0001
,
1000
0001
1000
0001
,
1000
2002
0000
0000
,
0000
3003
0000
0000
,
0000
0000
0000
0001
,
0000
1000
0010
0100
,
0000
0001
0010
0100
,
1000
1000
0100
0010
,
0000
0001
1000
0010
,
0000
1000
0001
0010
,
0001
0001
0000
1000
,
0000
1010
0000
0101
,
0000
0000
1001
0000
,
0000
0001
0010
0100
,
0000
1000
0010
0100
,
0000
0000
0001
1000
0001
0000
1000
0000
,
0100
0000
0010
0000
0000
0001
0000
0000
,
0100
0000
0000
0110
0000
1000
0100
0100
,
0100
1000
0001
0100
,
0000
0010
1000
0001
,
0000
0100
0100
0001
,
0010
0100
1000
0001
,
0000
0100
0001
1000
,
0000
0100
1000
0001
,
0000
0011
0000
1100
,
0000
0110
0000
0011
,
0000
0000
1001
0000
,
0000
1000
0100
0010
,
0000
0001
0001
1000
,
0010
0100
0010
1000
,
0000
0001
0001
0010
,
0100
1000
1000
0010
,
0100
0001
0001
1000
,
0000
2002
0000
0000
,
0000
3003
0000
0000
,
0000
0000
0000
0101
,
0000
0000
0000
1100
,
0000
0001
0100
1000
,
0100
0001
0000
0010
,
0000
0001
1000
1010
,
0000
1000
0001
0011
,
0000
0010
0100
1000
,
0001
0100
0010
2000
,
0000
3000
0000
0000
,
0000
1010
0000
0000
,
0000
0101
0000
1000
,
0010
0001
0010
1000
,
0000
0001
0000
1000
,
0001
0101
0000
0001
,
1000
1100
0000
0110
,
0000
0011
0000
1001
,
0000
0000
0110
0000
0000
0000
0000
1001
,
0000
0000
1000
0100
1000
0100
0001
0100
,
0001
0100
1000
0001
1000
0001
1000
0100
,
1000
0100
0010
0001
1000
0100
0010
0001
,
0010
1000
0010
0001
0200
0000
0000
0000
,
0300
0000
0000
0000
,
0001
1000
0001
0010
,
0100
1000
0010
1000
,
0001
0100
0001
0010
,
0100
1000
0010
0100
,
0001
1000
0100
1000
,
0010
0100
0001
0010
,
0001
1000
0010
0100
,
0001
0000
0010
0000
0200
0000
0000
0300
,
0000
0000
0000
0000
,
0000
0000
0000
0000
,
0000
0000
0000
0000
,
1000
0000
0000
1000
0000
0000
0001
0000
0100
0000
0001
0000
,
0100
0000
0000
0000
0000
0000
0010
0000
1000
0000
0010
0000
,
1000
0000
0000
0000
0000
0000
0001
0000
0010
0000
0001
0000
,
0010
0000
0000
0000
0000
0000
0100
0000
1000
0000
0100
0000
,
1000
0000
0001
0100
,
0001
1000
0100
1000
,
0010
0100
0001
0010
,
0001
0100
0010
1000
,
0100
0000
1000
0000
0010
0000
0000
0010
,
0000
0000
0010
0000
0100
0000
0000
0100
,
0000
0110
0000
0000
,
2002
0000
0000
0000
,
0000
0000
0000
0000
,
0000
0000
0000
0000
,
0000
0000
0000
0000
,
0000
0000
0000
0000
,
0000
0000
0000
0000
,
0000
0000
0000
0000
,
0000
0000
0000
0000
,
3003
0000
0000
0000
;
#NOTEDATA:;
#STEPSTYPE:dance-single;
#DIFFICULTY:Hard;
#METER:17;
#BPMS:0=166.5,20=333,48=666,56=166.5,64=333,158=666,162=333,194=166.5,210=333,244=166.5,247=111,249=55.5,250=333,265=166.5,266=333,282=444,312=222,313=444,341=888,349=444,397=222,405=444,465=888,473=444,503=888,507=444,539=222,554=888,558=444,590=222,606=444,648=888;
#STOPS:250=1.982;
#NOTES:
0000
0000
0000
0000
,
0000
0000
0000
0000
,
0000
0000
0000
0000
,
0000
0000
0000
0000
,
0000
0000
0000
0000
,
0001
0100
0001
0100
0010
1000
0001
1000
,
0100
0010
0100
0010
0001
1000
0001
0100
,
0010
1000
0010
1000
0001
1000
0100
1000
,
0001
0100
0010
1000
0001
0000
0000
0000
,
1000
0100
1000
0010
1000
0001
0100
0001
,
0010
0001
1000
0010
1000
0100
0010
0001
,
0100
0001
1000
0100
0010
0001
1000
0000
,
2002
0000
0000
0000
,
3003
0000
0000
0000
,
0110
0000
0000
0000
0001
0001
0001
0000
,
0010
0001
0010
0100
1000
0010
0200
0000
,
0301
0000
1000
0000
0010
0000
0100
0001
,
1000
0000
0100
0000
1000
0000
0010
0100
,
0001
0010
0100
1000
,
0001
0100
0010
0000
1000
0001
1000
0001
,
0010
0000
0001
0000
1000
0000
0001
0100
,
0010
0000
1000
0000
0001
0000
1000
0100
,
1000
0000
0010
0000
0100
0000
0001
1000
,
0200
0310
0200
0310
,
0002
0103
0001
0100
,
0010
0000
0100
0000
0001
0100
0001
0000
,
1000
0100
1000
0100
,
1001
0000
0000
1100
0000
0000
0110
0000
,
0010
0100
1000
0100
,
0010
0000
0001
1000
0000
1000
0010
0000
,
0100
0001
0100
0000
0010
1000
0010
0000
,
0100
0001
1000
0001
0010
0100
1000
0010
,
0100
0001
0101
0100
,
0010
0000
1000
0000
0001
0000
0010
0000
0000
0011
0000
0000
,
1000
0000
0000
0010
0000
0000
1000
0000
0000
0100
0000
0000
0010
0000
0000
0000
0001
0000
0000
0000
0100
0000
0000
0000
,
0010
0000
1000
0001
1000
0000
0000
0000
,
0001
0000
0000
0000
0010
0000
0000
0000
0100
0000
0000
0000
1000
0000
0000
0001
0000
0000
1000
0000
0000
0001
0000
0000
,
0100
0000
0010
0000
0110
0000
0100
0001
,
1000
0000
0000
0001
0000
0000
0100
0000
0010
0000
1000
0000
,
0100
0000
0010
0000
0001
0000
2000
0000
0000
0000
0000
0000
,
3000
0000
0001
1000
,
0010
0000
0000
0100
0000
0000
0010
0000
0000
0100
0000
0000
0010
0000
0000
0000
1000
0000
0000
0000
0100
0000
0000
0000
,
0010
0001
0010
0001
0010
0100
1000
0001
,
0100
0000
0000
0000
0010
0000
0000
0000
1000
0000
0000
0000
0001
0000
0000
0010
0000
0000
0001
0000
0000
0100
0000
0000
,
0010
0000
0000
0000
0000
0000
1000
0000
0001
0000
0010
0000
,
0100
1000
0100
1000
0100
0000
1000
0000
,
0010
0100
0001
0100
0010
0000
1000
0000
,
0001
0000
0000
0000
0100
0000
0000
0000
0001
0000
0000
0000
0010
0000
0000
0000
0000
0000
0001
0000
0000
1000
0000
0000
,
0001
0100
0010
1000
1001
0000
0000
0000
,
0000
0000
0000
0000
,
0001
0010
0100
1000
0000
0000
0010
0000
1001
0000
0000
0000
0000
0000
0000
0000
,
0000
0000
0000
0000
0000
0000
0000
0000
0101
0000
1000
0100
0010
0000
0001
0100
,
0010
0000
1000
0100
0010
0000
0001
0100
0010
0000
1000
0000
0001
0000
0010
0000
,
0100
1000
0001
0000
0011
0000
0000
1100
,
0000
0000
1010
0000
0010
0100
0001
1000
,
0100
0010
0001
0000
1001
0000
0001
0100
,
0000
0010
1000
0000
0001
0100
0001
0100
,
0001
0000
1000
0100
1000
0100
1000
0000
,
0010
0100
0010
0100
0010
0000
1000
0100
,
1000
0000
0000
0100
0000
0000
1000
0000
0000
0100
0000
0000
1000
0000
0000
0000
0001
0000
0000
0000
1000
0000
0000
0000
,
0001
0000
1000
0000
0001
0000
0100
0000
0000
0000
0000
0000
,
2002
0000
0000
0000
,
0000
0000
0000
0000
3003
0000
1000
0001
,
0010
0100
1000
0001
1000
0100
0010
0001
,
1000
0001
0100
0010
1000
0001
0010
0001
,
1000
0010
0100
0001
0010
0001
1000
0100
,
1000
0001
0200
0000
0310
1000
0001
0010
,
0100
1000
0001
0100
0001
1000
0100
1000
,
0010
0100
0001
1000
0100
1000
0010
1000
,
0001
0100
0001
0010
0100
0010
0001
0010
,
0100
0000
0000
1000
0000
0000
0001
0000
0000
1000
0000
0000
0001
0000
0000
0000
0100
0000
0000
0000
0001
0000
0000
0000
,
0100
0000
0001
0000
1000
0000
0001
0000
1000
0000
0100
0000
,
1000
0000
0100
0000
1000
0000
0001
0000
1000
0000
0001
0000
,
0100
0000
0001
0000
0100
0000
0001
0000
0100
0000
0001
0000
,
1000
0000
0001
0000
1000
0000
0010
0000
1000
0000
0001
0000
,
1000
0000
0010
0000
1000
0000
0100
0000
1000
0000
0100
0000
,
0010
0000
0001
0000
0010
0000
0001
0000
1000
0000
0001
0000
,
1000
0000
0010
0000
1000
0000
0010
0000
0100
0000
0010
0000
,
0200
0000
0000
0301
0000
1000
0000
0010
0000
1000
0000
0100
,
0000
1000
0000
0001
0000
0010
0000
0001
0000
0100
0000
0001
,
0000
1000
0000
0010
0000
1000
0000
0100
0000
1000
0000
0001
,
0000
1000
0000
0001
0000
1000
0000
0001
0000
1000
0000
0001
,
0000
0000
1000
0000
0000
0000
0001
0000
0000
1000
0000
0000
0001
0000
0000
1000
0000
0000
0001
0000
0000
1000
0000
0000
,
0001
1000
0001
1000
0001
1000
0001
1000
,
0001
1000
0001
1000
0001
1000
0001
1000
,
0001
2000
0002
0000
0000
0000
0000
0000
,
0000
3003
0000
0000
,
0000
0110
0000
0001
,
1000
0010
0000
0100
,
0001
1000
0100
0100
,
0010
0001
0001
1000
,
1000
0001
0100
0010
,
1000
0001
0100
0001
,
1000
0000
0100
1000
0100
0000
0010
0000
,
0100
0000
0010
0001
0010
0000
0001
0000
,
1000
0000
1001
1000
,
0001
0010
0001
1000
,
0010
0100
0001
0001
,
0010
0100
0100
1000
,
0001
1000
0001
0000
0000
0010
0000
0000
,
0100
0000
0000
1000
0000
0100
0001
0001
,
0100
1000
0010
0100
,
0001
1000
0100
1000
,
0001
0000
0100
0000
0001
0010
0001
0000
,
0100
0000
0010
1000
0010
0000
0100
0001
,
0100
0010
1000
0001
,
0010
0001
1000
0010
,
0100
0101
0000
0011
,
0000
1100
0000
1010
,
0000
0000
1001
0001
,
0010
0100
1000
0010
,
1000
0001
0100
0100
,
0001
0010
0010
0001
,
1000
0000
0010
0100
0010
0000
1000
0000
,
0001
0000
0010
0100
0010
0000
0001
0000
,
1000
0000
0010
0100
0010
0000
1000
0000
,
0001
2002
0000
0000
,
0000
3003
0000
0000
,
0000
0000
0110
0000
0000
0000
1000
0001
,
1000
0000
0000
0000
0000
0000
0001
0000
0000
0000
0100
0000
0000
0000
0010
0000
0000
0000
1000
0000
0000
0001
0000
0000
,
1000
0000
0000
0100
0000
0000
0010
0000
0000
0001
0000
1000
,
0000
0000
0010
0000
0000
0000
0100
0000
0000
0001
0000
0000
1000
0000
0000
0000
0000
0000
0100
0000
0000
0000
0000
0000
,
0000
0000
0000
0000
0000
0000
1000
0000
0000
0000
0010
0000
0000
0000
1000
0000
0000
0000
0010
0000
0000
0100
0000
0000
,
0010
1000
0001
0010
,
0010
0000
0000
0000
0000
0000
0001
0000
0000
0010
0000
0000
0100
0000
0000
0000
0000
0000
1000
0000
0000
0000
0001
0000
,
0000
0100
0000
0010
0000
1000
0000
0001
0000
2000
0000
0000
,
0000
3000
0000
0001
,
1000
0000
0000
0000
0000
0000
0001
0000
0000
0010
0000
0000
0001
0000
0000
0000
0000
0000
1000
0000
0000
0000
0010
0000
,
0000
0000
0100
0000
0000
0000
0001
0000
0000
1000
0000
0000
0001
0000
0000
0000
0000
0000
0010
0000
0000
0000
0000
0000
,
0100
0000
0000
1000
0000
0010
0000
0100
0000
0001
0000
0000
,
0010
0000
0000
0011
0000
0000
0000
0000
0000
0010
0000
0100
,
0000
0000
1000
0000
0000
0000
0010
0000
0000
0100
0000
0000
0010
0000
0000
0000
0000
0000
1000
0000
0000
0000
0000
0000
,
0001
0000
0010
0001
0010
0000
0110
0000
,
0000
0000
0000
0000
0000
0000
0100
0000
0000
0000
1000
0000
0000
0000
0001
0000
0000
0000
0100
0000
0000
0010
0000
0000
,
1000
0000
0100
0010
0001
0000
0000
1001
,
1000
0000
0010
0000
1000
0000
0010
0000
0000
0100
0000
0000
0001
0000
0010
0000
0001
0000
0010
0000
0000
0100
0000
0000
,
1000
0000
0000
0000
0000
0000
0010
0000
0000
0000
0000
0000
0100
0000
0000
0000
0000
0000
0001
0000
0000
1000
0000
0000
0001
0000
0000
0000
0000
0000
0000
0000
0000
0000
0000
0000
0010
0000
0000
0000
0100
0000
0000
0000
0010
0000
0000
0000
,
0100
0000
0000
0000
0000
0000
1000
0000
0000
0000
0000
0000
0010
0000
0000
0100
0000
0000
0010
0000
0000
0000
0000
0000
1000
0000
0000
0000
0001
0000
0000
0000
1000
0000
0000
0000
0001
0000
0000
0000
0000
0000
0010
0000
0000
0000
0000
0000
,
0100
0000
0000
1000
0000
0000
0010
0000
0100
0000
0001
0000
2000
0000
0000
0000
0000
0000
0000
0000
0000
0000
0000
0000
,
3000
0000
0001
1000
,
0001
0010
0100
1000
,
0001
0000
0100
0000
0010
0100
0010
0100
,
0010
1000
0001
0010
,
0100
0000
1000
0000
0001
0100
0001
0100
,
0001
0010
0100
0010
,
0001
0000
1000
0000
0001
0010
0001
0000
,
1000
0100
1000
0000
0010
0100
0010
0000
,
1000
0000
0001
0000
2002
0000
0000
3003
,
0000
0000
0000
0000
,
0000
0000
0000
0000
,
0000
0000
0000
0000
,
1100
0000
0000
1001
0000
0000
0001
0000
0100
0000
0001
0000
,
0010
0000
0100
0000
1000
0000
0010
0000
1000
0000
0001
0000
,
0100
0000
0001
0000
0010
0000
0100
0000
1000
0000
0010
0000
,
0100
0000
0001
0000
1000
0000
0100
0000
1000
0000
0010
0000
,
0100
0000
0000
0000
0001
0000
0000
0000
0010
0000
0000
0000
0100
0000
0000
1000
0000
0000
0100
0000
0000
1000
0000
0000
,
0100
0000
0010
0000
0001
0100
0001
0100
,
0001
0000
1000
0000
0001
0010
0001
0000
,
1000
0100
1000
0000
0001
0100
0001
0000
,
1000
0100
1000
0100
0010
0000
0000
0011
,
0000
0000
1000
0000
1001
0000
0000
0101
,
0000
0010
0110
0000
,
2002
0000
0000
0000
,
0000
0000
0000
0000
,
0000
0000
0000
0000
,
0000
0000
0000
0000
,
0000
0000
0000
0000
,
0000
0000
0000
0000
,
0000
0000
0000
0000
,
0000
0000
0000
0000
,
3003
0000
0000
0000
;
#NOTEDATA:;
#STEPSTYPE:dance-single;
#DIFFICULTY:Challenge;
#METER:19;
#BPMS:0=166.5,20=333,48=666,56=166.5,64=333,158=666,162=333,194=166.5,210=333,244=166.5,247=111,249=55.5,250=333,265=166.5,266=333,282=444,312=222,313=444,341=888,349=444,397=222,405=444,465=888,473=444,503=888,507=444,539=222,554=888,558=444,590=222,606=444,648=888;
#STOPS:250=1.982;
#NOTES:
0000
0000
0000
0000
,
2002
0000
0000
0000
,
3003
0000
0000
0000
0000
0000
0000
0000
0000
0000
0000
0000
0000
0000
0000
0000
0001
0000
1000
0100
1000
0000
0001
0000
0000
0000
0000
0000
0100
0000
0000
0000
,
0220
0000
0330
0010
,
1010
0011
1100
0101
,
0001
0010
0001
0100
0010
1000
0010
0100
,
0001
0010
0001
0100
0010
1000
0100
0010
,
0001
0010
0100
1000
0010
1000
0100
0010
,
0100
1000
0010
0100
0001
0000
0000
0000
,
1000
0001
1000
0001
1000
0001
1000
0001
1000
0001
1000
0001
,
0010
0100
0010
0100
0010
0100
0010
0100
0010
0100
0010
0100
,
1000
0100
1000
0100
1000
0100
0010
0001
0010
0001
0010
0002
,
2000
0000
0000
0000
,
3003
0000
0000
0000
,
0110
0000
1010
0101
,
1000
0001
1000
0001
1000
0001
1000
0000
0000
0000
0000
0000
0021
0000
0000
0000
0000
0000
0230
0000
0000
0000
0000
0000
,
1300
1010
0100
0110
,
0001
0000
0011
0000
0100
0000
0110
1000
,
0001
1001
1000
0101
,
0001
0100
0010
1000
0100
1000
0010
0100
,
0001
0011
0100
0110
,
1000
0000
1010
0000
0100
0000
0110
0001
,
1000
1001
0001
1000
,
0100
1000
0010
1000
0100
0010
0001
1000
,
1001
0000
0001
0000
1000
0000
0001
0100
,
0110
0000
1000
0000
0001
0000
1000
0100
,
0110
0000
0001
0000
1000
0000
0010
0100
,
0101
0000
0000
1010
0000
0000
1001
0000
,
0001
1000
0010
0100
0010
0100
0001
0010
,
0001
1000
0010
0100
0001
0010
0100
0010
,
0100
1000
0010
0000
0100
0001
0010
0000
,
0100
1000
0010
0100
0001
0010
0100
1000
,
0001
0000
1000
0000
0010
0100
0001
1000
,
0100
0000
0000
0000
0001
0000
0000
0000
0100
0000
0000
0000
0010
0000
0000
0001
0000
0000
1000
0000
0000
0010
0000
0000
,
0100
0001
0100
0001
0100
0001
0100
0000
0010
0000
1000
0000
,
0001
0010
0100
1000
0001
0000
0000
0000
,
1000
0000
0000
0000
0001
0000
0000
0000
1000
0000
0000
0000
0010
0000
0000
0100
0000
0000
0001
0000
0000
1000
0000
0000
,
0100
0000
0010
0000
0100
1000
0001
0100
,
0010
0000
0000
1000
0000
0000
0100
0000
0000
1000
0000
0000
0001
0000
0000
0000
0010
0000
0000
0000
0100
0000
0000
0000
,
1000
0000
0001
0000
0100
0000
2002
0000
0000
0000
0000
0000
,
3003
0000
1000
0001
,
0010
0000
0000
0001
0000
0000
1000
0000
0000
0001
0000
0000
0100
0000
0000
0000
1000
0000
0000
0000
0100
0000
0000
0000
,
0010
0000
0000
1000
0000
0000
0001
0000
0000
0010
0000
0000
0100
0000
1000
0000
0100
0000
1000
0000
0100
0000
1000
0000
,
0100
0000
0000
0000
0010
0000
0000
0000
0001
0000
0000
0000
1000
0000
0000
0010
0000
0000
0100
0000
0000
0001
0000
0000
,
1000
0000
0000
0000
0000
0000
0001
0000
1000
0000
0001
0000
,
0010
0100
1000
0001
0100
0000
0010
0000
,
0100
0001
1000
0100
0010
0100
1000
0001
,
0100
0000
0000
0000
1000
0000
0000
0000
0100
0000
0000
0000
0010
0000
0000
1000
0000
0000
0001
0000
0000
1000
0000
0000
,
0100
0010
0100
0010
0100
0010
0200
0000
0000
0000
0000
0000
,
0300
0000
0000
0000
,
1000
0000
0001
0100
0001
0000
1000
0000
0000
0000
0000
0000
0100
0000
0000
0000
0220
0000
0000
0000
0000
0000
0000
0000
0000
0000
0000
0000
0000
0000
0000
0000
,
0330
0000
0000
0000
0000
0000
0011
0000
0000
0000
0000
0000
1100
0000
0000
0001
0010
0100
1000
0000
0000
0001
0100
0010
,
1000
0000
0000
0001
0010
0100
1000
0000
0000
0001
0100
0010
1000
0000
0000
0001
0000
0000
0010
0000
0000
0001
0000
0000
,
0100
0010
1000
0001
1000
1100
0000
0001
,
0101
0000
1001
0000
1000
0010
0100
0001
,
0010
0001
0100
0010
1000
0000
0001
0011
,
0000
1001
0000
1100
1000
0001
0010
0001
,
0100
0000
0001
1000
0010
1000
0100
0000
,
0010
0001
1000
0010
0100
0000
0010
1000
,
0001
0000
0000
0100
0000
0000
0001
0000
0000
0010
0000
0000
0100
0000
0000
0000
0100
0000
0000
0000
0100
0000
0000
0000
,
0010
0000
0010
0000
0010
0000
1001
0000
0000
0000
0000
0000
,
2002
0000
0000
0000
,
0000
0000
0000
0000
3003
0000
1000
0001
,
1000
0010
0100
0001
0010
0001
1000
0010
,
1000
0001
0010
0100
1000
0010
1000
0100
,
0010
0001
1000
0010
0100
0001
0010
0100
,
1000
0001
0200
0000
0310
1000
0001
1000
,
0100
0010
0001
1000
0010
0100
0001
1000
,
0100
1000
0001
0100
0010
1000
0100
1000
,
0010
0100
0001
1000
0100
0010
0001
1000
,
0100
0000
0000
0100
0000
0000
0100
0000
0000
0100
0000
0000
0001
0000
0000
0000
1000
0000
0000
0000
0100
0000
0000
0000
,
1000
0000
0010
0000
0100
0000
0010
0000
1000
0000
0100
0000
,
1000
0000
0010
0000
0100
0000
0001
0000
0010
0000
0100
0000
,
1000
0000
0010
0000
0100
0000
0001
0000
0010
0000
0001
0000
,
0100
0000
0010
0000
0100
0000
0001
0000
0010
0000
0001
0000
,
0100
0000
0010
0000
1000
0000
0100
0000
1000
0000
0010
0000
,
0100
0000
0010
0000
1000
0000
0100
0000
1000
0000
0010
0000
,
0100
0000
0001
0000
0010
0000
0001
0000
0100
0000
0010
0000
,
2000
0000
0000
3001
0000
0010
0000
0001
0000
0100
0000
0010
,
0000
0100
0000
0001
0000
0010
0000
0001
0000
0100
0000
0010
,
0000
1000
0000
0100
0000
1000
0000
0010
0000
0100
0000
0010
,
0000
1000
0000
0100
0000
1000
0000
0010
0000
0100
0000
0001
,
0000
0000
0010
0000
0000
0000
0001
0000
0000
1000
0000
0000
0001
0000
0000
1000
0000
0000
0010
0000
0000
0100
0000
0000
,
0001
1000
0100
0010
0001
1000
0010
1000
,
0001
0010
0100
1000
0010
1000
0100
0010
,
0001
2000
0002
0000
0000
0000
0000
0000
,
0000
3003
0000
0000
,
0000
0110
1001
0001
,
1000
0011
1100
0001
,
1000
0000
0010
0000
0100
0001
0010
0001
,
1000
0000
0010
0100
0001
0000
0010
0100
,
1000
0001
0100
0000
1001
0000
0001
0000
,
1000
0101
1010
0001
,
1000
0000
0010
1000
0100
0000
0010
0001
,
0100
0000
0010
1000
0100
1000
0010
0100
,
0001
1000
0100
0000
1001
0000
1000
0000
,
0001
1100
0011
1000
,
0001
0000
0010
0000
0100
1000
0010
1000
,
0001
0000
0010
0100
1000
0000
0010
0100
,
0001
0000
1000
1000
0010
0100
0100
0001
,
0010
0000
0010
0000
0100
0000
1000
0000
1000
0000
0010
0000
0100
0001
0100
0001
,
1000
0010
1000
0010
0100
0000
0001
0000
1000
0000
0001
0000
0010
0000
0000
0000
,
0100
0000
1000
0010
0100
0010
1000
0000
,
0001
0000
1000
0100
0010
0100
1000
0001
,
0100
0001
1000
0100
0010
0001
0100
0000
,
0010
0000
1000
0001
0100
0001
1000
0000
,
0010
0000
1000
0001
0010
0001
1000
0000
,
0100
0000
0010
0001
0100
0001
0010
0100
,
1000
0010
1000
0100
0010
0001
0100
0010
,
1000
0000
0100
1000
0001
1000
0010
0000
,
0100
0000
0001
0010
0100
0010
0001
0000
,
1000
0000
0001
0100
0010
0100
0001
1000
,
0100
1000
0001
0100
0010
1000
0002
0000
,
0003
0000
1000
0010
0100
0001
1000
0100
,
1000
0001
0100
0010
1000
0100
0010
0100
,
1000
0010
0100
0001
0010
0001
0100
0010
,
1000
0002
2000
0000
0000
0000
0000
0000
,
0000
3003
0000
0000
,
0000
0000
0110
0000
0001
0000
1000
0100
,
0010
0000
0000
0001
0000
0000
0100
0000
0000
0000
1000
0000
0000
0000
0100
0000
0000
0000
0010
0000
0000
1000
0000
0000
,
0001
0000
0000
0010
0000
0000
0100
0000
0000
0010
0000
0000
0001
0000
0000
1000
0000
0000
0010
0000
0000
0000
0001
0000
,
0000
0000
0010
0000
0000
0000
0100
0000
0000
0001
0000
0000
1000
0000
0000
0001
0000
0000
0010
0000
0000
0000
0000
0000
,
0000
0000
0000
0000
0000
0000
0100
0000
0000
0000
1000
0000
0000
0000
0001
0000
0000
0000
0100
0000
0000
0010
0000
0000
,
1000
0001
0010
0000
0100
0000
0010
0001
,
1000
0000
0000
0010
0000
0000
0100
0000
0000
0001
0000
0000
0010
0000
0000
0001
0000
0000
1000
0000
0000
0000
0010
0000
,
0000
0100
0000
0001
0000
1000
0000
0100
0000
2002
0000
0000
,
0000
3003
0000
0110
,
1000
0000
0000
0000
0000
0000
0001
0000
0000
0010
0000
0000
0100
0000
0000
1000
0000
0000
0010
0000
0000
0000
0001
0000
,
0000
0000
0010
0000
0000
0000
0100
0000
0000
0001
0000
0000
1000
0000
0000
0100
0000
0000
0010
0000
0000
0100
0000
0000
,
1000
0000
0000
0001
0000
0000
0100
0000
0000
0000
1000
0000
0000
0000
0100
0000
0000
0000
0010
0000
0000
1000
0000
0000
,
0001
0000
0000
1000
0000
0000
0100
0000
0000
0000
0000
0000
0000
0000
0000
0000
0000
0000
0010
0000
0000
0000
0001
0000
,
0000
0000
1000
0000
0000
0000
0010
0000
0000
0100
0000
0000
0001
0000
0000
1000
0000
0000
0100
0000
0000
0000
0000
0000
,
0010
0000
0100
1000
0010
1000
0001
0100
,
0010
0000
0000
1000
0000
0000
0100
0000
0000
0000
0010
0000
0000
0000
0100
0000
0000
0000
1000
0000
0000
0001
0000
0000
,
0100
0010
1000
0001
0010
0200
0300
1000
,
0001
0000
0000
0000
1000
0000
0000
0000
0001
0000
0000
0000
1000
0000
0000
0010
0000
0000
0100
0000
0000
0001
0000
0000
0010
0000
0000
0000
0001
0000
0000
0000
0100
0000
0000
0000
0010
0000
0000
0000
0000
0000
1000
0000
0000
0000
0000
0000
,
0001
0000
0000
0010
0000
0000
0100
0000
0000
1000
0000
0000
0010
0000
0000
1000
0000
0000
0100
0000
0000
0010
0000
0000
0001
0000
0000
0000
0000
0000
0000
0000
0000
0000
0000
0000
1000
0000
0000
0000
0010
0000
0000
0000
0100
0000
0000
0000
,
0001
0000
0000
0000
0000
0000
0010
0000
0000
0000
0000
0000
0001
0000
0000
1000
0000
0000
0100
0000
0000
1000
0000
0000
0001
0000
0000
0000
0100
0000
0000
0000
0010
0000
0000
0000
1000
0000
0000
0100
0000
0000
0010
0000
0000
0001
0000
0000
,
0100
0000
0000
0001
0000
0000
0010
0000
0000
0100
0000
0000
1000
0000
0000
0000
0010
0000
0000
0000
0100
0000
0000
0000
0002
0000
0000
0000
0000
0000
0000
0000
0000
0000
0000
0000
0000
0000
0000
0000
0000
0000
0000
0000
0000
0000
0000
0000
,
0003
0000
0000
0000
1000
0001
1000
0001
,
0010
0100
1000
0001
0100
0010
1000
0100
,
0010
0100
1000
0001
0100
0010
1000
0100
,
1000
0001
0010
0001
1000
0010
0100
0010
,
1000
0000
0000
0001
0000
0000
0010
0000
0000
0100
0000
0000
1000
0000
0001
0000
1000
0000
0001
0000
0000
0100
0000
0000
,
0001
0000
0000
1000
0000
0000
0100
0000
0000
0010
0000
0000
0001
0000
1000
0000
0001
0000
1000
0000
0000
0100
0000
0000
,
1000
0001
0100
0010
1000
0001
0010
0100
,
1000
0001
0100
0010
1000
0100
1000
0010
,
0100
0000
0001
0000
1000
0000
0200
0000
0020
0000
0000
0300
0000
0000
0030
0000
,
0000
0000
0000
0000
,
0000
0000
0000
0000
,
0000
0000
0000
0000
,
0100
0000
0000
0000
0000
0000
1001
0000
0000
0000
0000
0000
0001
0000
1000
0000
0001
0000
1000
0000
0000
0100
0000
0000
,
0010
0000
0001
0000
0100
0000
0001
0000
0010
0000
0100
0000
,
1000
0000
0000
0000
0010
0000
0000
0000
0100
0000
0000
0000
0001
0000
1000
0000
0001
0000
1000
0000
0000
0010
0000
0000
,
0100
0000
0001
0000
0010
0000
0001
0000
0100
0000
0010
0000
,
1000
0000
0000
0000
0100
0000
0000
0000
1000
0000
0000
0000
0001
0000
0100
0000
0001
0000
0100
0000
0000
0010
0000
0000
,
1000
0000
0000
0001
0000
0000
0010
0000
0000
0001
0000
0000
1000
0000
0100
0000
1000
0000
0100
0000
0000
0010
0000
0000
,
0001
0000
0000
1000
0000
0000
0010
0000
0000
1000
0000
0000
0001
0000
0010
0000
0100
0000
1000
0000
0000
0001
0000
0000
,
1000
0000
0010
0000
0100
0000
0001
0000
0000
0010
0000
0000
0100
0000
1000
0000
0001
0000
0100
0000
0000
0010
0000
0000
,
0100
0000
0001
0000
1000
0000
0100
0000
0000
0000
0000
0000
0010
0000
0000
0000
0000
0000
0000
0000
0000
0011
0000
0000
,
0000
0000
1100
0000
1010
0000
0000
0101
,
0000
0011
0100
0000
,
2002
0000
0000
0000
,
0000
0000
0000
0000
,
0000
0000
0000
0000
,
0000
0000
0000
0000
,
0000
0000
0000
0000
,
0000
0000
0000
0000
,
0000
0000
0000
0000
,
0000
0000
0000
0000
,
3003
0000
0000
0000
;
#NOTEDATA:;
#STEPSTYPE:dance-double;
#DIFFICULTY:Easy;
#METER:10;
#NOTES:
00000000
00000000
00000000
00000000
,
00000000
00000000
00000000
00000000
,
00000000
00000000
00000000
00000000
,
00000000
00000000
00000000
00000000
,
00000000
00000000
00000000
00000000
,
00000000
00000000
00000000
00000000
,
00000000
00000000
00000000
00000000
,
00000000
00000000
00000000
00000000
,
00000000
00000000
00000000
00000000
,
00000000
00000000
00000000
00000000
,
00010000
00000000
00010000
00000000
,
00001000
00000000
00001000
00000000
,
01000000
00000000
01000000
00000000
,
00100000
00000000
00100000
00000000
,
10000000
10000000
10000000
00000000
,
00010000
00010000
00010000
00000000
,
00100000
00000000
00001000
00000000
,
00022000
00000000
00033000
00000000
,
00001000
00000000
00000000
00000000
,
00010000
00000000
00010000
00000000
,
00000010
00000000
00001000
00000100
,
00000001
00000100
00001000
00000000
,
00001001
00000000
00000001
00000000
,
00000100
00000000
00000010
00000000
,
00001000
00000000
00000100
00000000
,
00010000
00001000
00010000
00000000
,
00001000
00000000
00100000
00000000
,
00010000
00000000
10000000
00000000
,
00100000
00000000
00100000
00000000
,
01000000
00000000
01000000
00000000
,
00010000
00000000
10000000
00000000
,
01000000
00100000
00010000
00000000
,
00100000
00000000
00001000
00000000
,
00010000
00000000
00000000
00001000
00000000
00000000
00010000
00000000
,
00010000
00000000
00000100
00000000
,
00000010
00000000
00000001
00000000
,
00001000
00000001
00001000
00000001
,
00000100
00000000
00000010
00000000
,
00001000
00001000
00000100
00000000
,
00010000
00010000
00001000
00000000
,
00100000
00000000
00010000
00000000
,
01000000
00000000
01100000
00000000
,
10000000
10000000
00010000
00000000
,
01000000
01000000
00100000
00000000
,
00010000
00000000
00001000
00000000
,
00010000
00000000
00022000
00033000
,
00010000
00000100
00000100
00000000
,
00001000
00000010
00000010
00000000
,
00000100
00000000
00000001
00000000
,
00001000
00000000
00001001
00000000
,
00000001
00000100
00000100
00000000
,
00000010
00001000
00001000
00000000
,
00000100
00000000
00010000
00000000
,
00001000
00010000
00001000
00000000
,
00022000
00000000
00000000
00033000
,
00000000
00000000
00000000
00000000
,
00000000
00000000
00000000
00000000
,
00010000
00000000
00000000
01000000
00000000
00000000
10000000
00000000
,
10010000
00000000
00000000
00000000
,
00000000
00000000
00000000
00000000
,
10000000
00000000
11000000
00000000
,
01000000
00000000
01100000
00000000
,
00100000
00010000
00100000
00010000
,
00100000
00000000
00001000
00000000
,
00010000
00001000
00010000
00001000
,
00010000
00000000
00000100
00000000
,
00001000
00000000
00001010
00000000
,
00000010
00000000
00000110
00000000
,
00001010
00000000
00010010
00000000
,
00011000
00000000
00001000
00000000
,
00010000
00000000
00022000
00000000
,
00000000
00000000
00000000
00000000
,
00000000
00000000
00000000
00000000
,
00000000
00000000
00000000
00000000
,
00000000
00000000
00000000
00000000
,
00000000
00000000
00000000
00000000
,
00033000
00000000
00000000
00000000
,
00000000
00000000
00000000
00000000
,
00001000
00010000
00001000
00000000
,
00100000
00010000
00100000
00000000
,
00001000
00010000
00001000
00000000
,
01000000
00000000
00020000
00000000
,
10030000
01000000
10000000
00000000
,
00010000
00100000
00010000
00000000
,
10000000
00000000
00100000
00000000
,
01000000
00000000
01000000
00000000
,
00010000
00000000
00000000
00000000
00000000
00000000
00000000
00000000
00100000
00000000
00000000
00000000
,
00000000
00000000
00000000
00000000
00001000
00000000
00000000
00000000
00000000
00000000
00000000
00000000
,
00010000
00000000
00000000
00000000
00000000
00000000
00000000
00000000
00000100
00000000
00000000
00000000
,
00000000
00000000
00000000
00000000
00000010
00000000
00000000
00000000
00000000
00000000
00000000
00000000
,
00000001
00000000
00000000
00000000
00000000
00000000
00000000
00000000
00001000
00000000
00000000
00000000
,
00000000
00000000
00000000
00000000
00000010
00000000
00000000
00000000
00000000
00000000
00000000
00000000
,
00010000
00000000
00000000
00000000
00000000
00000000
00000000
00000000
00001000
00000000
00000000
00000000
,
00000000
00000000
00000000
00000000
01000000
00000000
00000000
00000000
00000000
00000000
00000000
00000000
,
00010000
00000000
00000000
00000000
00000000
00000000
00000000
00000000
10000000
00000000
00000000
00000000
,
00000000
00000000
00000000
00000000
01000000
00000000
00000000
00000000
00000000
00000000
00000000
00000000
,
00100000
00000000
00000000
00000000
00000000
00000000
00000000
00000000
00010000
00000000
00000000
00000000
,
00000000
00000000
00000000
00000000
01000000
00000000
00000000
00000000
00000000
00000000
00000000
00000000
,
00002000
00000000
00000000
00000000
,
00000000
00000000
00000000
00000000
,
00000000
00000000
00003000
00000000
,
00022000
00000000
00033000
00000000
,
00001000
00000000
00010000
00000000
,
00001000
00000000
00010000
00000000
,
00001000
00000000
00000010
00000000
,
00001000
00000000
00000010
00000000
,
00000001
00000000
00000100
00000000
,
00000001
00000000
00000100
00000000
,
00001000
00000000
00001000
00000000
,
00010000
00000000
00010000
00000000
,
00000000
00011000
00000000
00000000
,
00010000
00000000
00001000
00000000
,
00010000
00000000
00100000
00000000
,
00010000
00000000
00100000
00000000
,
10000000
00000000
00000000
01000000
,
00000000
00000000
00100000
00000000
,
00000000
00001000
00000000
00000000
,
00010000
00010000
00010000
00000000
,
00010000
00000000
00001000
00000000
,
00010000
00000000
00001000
00000000
,
00010000
00000000
00100000
00000000
,
00010000
00000000
00100000
00000000
,
10000000
00000000
01000000
00000000
,
10000000
00000000
01000000
00000000
,
00010000
00000000
00010000
00000000
,
00001000
00000000
00001000
00000000
,
00000000
00011000
00000000
00000000
,
00001000
00000000
00010000
00000000
,
00001000
00000000
00000010
00000000
,
00001000
00000000
00000010
00000000
,
00000001
00000000
00000000
00000000
,
00001000
00000000
00000000
00000000
,
00000010
00000000
00010000
00000000
,
00022000
00000000
00033000
00000000
,
00001000
00000000
01000000
00000000
,
00010000
00000000
00100000
00000000
,
01000000
00000000
10000000
00000000
,
10010000
00000000
00000000
00000000
,
10000000
00000000
00100000
00000000
,
10000000
00000000
00100000
00000000
,
00010000
00000000
00001000
00000000
,
00010000
00000000
00020200
00030300
,
00000100
00000000
00001000
00000000
,
00000010
00000000
00000001
00000000
,
00000010
00000000
00001000
00000000
,
00000100
00000000
00000100
00000000
,
00010000
00000000
00001000
00000000
,
00100000
00000000
00010000
00000000
,
01000000
00000000
01000000
00000000
,
00100000
00000000
00100000
00000000
,
00000000
10010000
00000000
00000000
,
00000000
00000000
00000000
00000000
,
00010000
00000000
10000000
00000000
,
00100000
00000000
00000000
00000000
,
01000000
00000000
00000000
00000000
,
00001000
00000000
00000000
00000000
,
00010000
00000000
00000010
00000000
,
00001000
00000000
00002002
00003003
,
00000001
00000000
00000001
00000000
,
00000100
00000000
00000100
00000000
,
00001000
00000000
00001000
00000000
,
00010000
00000000
00010000
00000000
,
01000000
00000000
01000000
00000000
,
10000000
00000000
10000000
00000000
,
00100000
00000000
00100000
00000000
,
00010000
00000000
00010000
00000000
,
00022000
00000000
00000000
00033000
,
00000000
00000000
00000000
00000000
,
00000000
00000000
00000000
00000000
,
00000000
00000000
00000000
00000000
,
00000000
00000000
00000000
00000000
,
00000000
00000000
00000000
00000000
,
00000000
00000000
00000000
00000000
,
00001000
00000000
00001000
00000000
,
00010000
00001000
00010000
00000000
,
00000100
00000000
00010000
00000000
,
00001000
00010000
00001000
00000000
,
01000000
00000000
00001000
00000000
,
00010000
00001000
00010000
00000000
,
00000010
00001000
00000010
00000000
,
00010000
00001000
00010000
00000000
,
00000100
00001000
00000100
00000000
,
00010000
00000000
00000000
00000000
,
00001000
00000000
00000000
00000000
,
00010000
00000000
00022000
00000000
,
00000000
00000000
00000000
00000000
,
00000000
00000000
00000000
00000000
,
00000000
00000000
00000000
00000000
,
00000000
00000000
00033000
00000000
;
#NOTEDATA:;
#STEPSTYPE:dance-double;
#DIFFICULTY:Medium;
#METER:15;
#BPMS:0=166.5,20=333,48=666,56=166.5,64=333,158=666,162=333,194=166.5,210=333,244=166.5,247=111,249=55.5,250=333,265=166.5,266=333,282=444,312=222,313=444,341=888,349=444,397=222,405=444,465=888,473=444,503=888,507=444,539=222,554=888,558=444,590=222,606=444,648=888;
#STOPS:250=1.982;
#NOTES:
00000000
00000000
00000000
00000000
,
00000000
00000000
00000000
00000000
,
00000000
00000000
00000000
00000000
,
00000000
00000000
00000000
00000000
,
00000000
00000000
00000000
00000000
,
00001000
00010000
00000100
00001000
,
00000010
00000000
00010000
00000000
00001000
00010000
00001000
00000000
,
00010000
00001000
01000000
00010000
,
00100000
00001000
00010000
00000000
,
00001000
00001000
00000100
00000100
,
00000010
00000100
00000010
00000000
00001000
00000001
00001000
00000000
,
00000001
00000100
00001000
00010000
,
00022000
00000000
00000000
00000000
,
00033000
00000000
00000000
00000000
,
00000000
00000000
00101000
00110000
,
00000000
00000000
00010000
01000000
10000000
01000000
00020000
00000000
,
00130000
00001000
00010000
00001000
,
01000000
00001000
00010000
00001000
,
00100000
00001000
00010000
00000100
,
00000010
00000000
00000001
00000000
00001000
00000000
00000010
00000100
,
00000010
00010000
00001000
00010000
,
00000100
00010000
00001000
00010000
,
00000010
00010000
00001000
00100000
,
01000000
10000000
01000000
10000000
,
10010000
00000000
00010000
01000000
,
00001000
00010000
00001000
00010000
,
00000100
00000010
00000100
00000010
,
00000001
00000000
00000000
00000001
00000000
00000000
00000001
00000000
,
00000100
00001000
00000100
00001000
,
00010000
00000000
00001000
01000000
00000000
01000000
00010000
00000000
,
00100000
01000000
10000000
00100000
,
01000000
00000000
00010000
00000000
10000000
01000000
00100000
00000000
,
00001000
00001000
00010000
00010000
,
00001000
00001000
00000100
00000100
,
00000001
00000001
00000010
00000010
,
00000100
00000000
00001000
00000001
00001000
00000000
00000000
00000000
,
00000010
00000010
00010000
00010000
,
00001000
00001000
00100000
00100000
,
00010000
00000000
00000000
10000000
00000000
00000000
00010000
00000000
01000000
00000000
00010000
00000000
,
10000000
00000000
00100000
00000000
10000000
00000000
20020000
00000000
00000000
00000000
00000000
00000000
,
30030000
00000000
00000000
00000000
,
00010000
00010000
01000000
01000000
,
00100000
01000000
00100000
00000000
00010000
00000000
00010000
00000000
,
00001000
00001000
00000100
00000010
,
00000110
00000000
00000100
00000001
,
00000010
00000100
00001000
00000010
,
00000100
00001000
00010000
01000000
,
10000000
00000000
01000000
00000000
00100000
00000000
00010000
00000000
00000000
00000000
00000000
00000000
,
10000000
00000000
00010000
00000000
10000000
00000000
00010000
00000000
10000000
00000000
00000000
00100000
00000000
00000000
01000000
00000000
,
00000000
00000000
00000000
00000000
,
00001000
00010000
00001000
00010000
00000000
00000000
00001000
00000000
00011000
00000000
00000000
00000000
00000000
00000000
00000000
00000000
,
00000000
00000000
00000000
00000000
00010100
00000100
00001100
00001000
,
00001010
00000010
00000110
00000000
00000100
00000000
00000001
00000000
,
00000100
00000000
00001000
00000000
00010000
00000000
00000000
01000000
,
00000000
10000000
00010000
01000000
,
00100000
00000000
00010000
00000000
00001000
00000000
00000000
00000010
,
00000000
00000001
00000100
00000100
,
00000200
00001300
00001000
00002000
,
00013000
00010000
00020000
01030000
,
01000000
00000000
00000000
02000000
00000000
00000000
13000000
00000000
00010000
00000000
10000000
00000000
,
00010000
00000000
10000000
00000000
00010000
00000000
10000000
00000000
00000000
00000000
00000000
00000000
,
20020000
00000000
00000000
00000000
,
00000000
00000000
30030000
10000000
,
00010000
01000000
00100000
00010000
,
00001000
00010000
00000100
00000010
,
00000001
00000100
00001000
00010000
,
00001000
00010000
00002000
00000000
00013000
00000000
00100000
00000000
,
01000000
10000000
01000000
00100000
,
00010000
00001000
00000010
00000001
,
00000010
00001000
00010000
01000000
,
00100000
00000000
00000000
00010000
00000000
00000000
00100000
00000000
00000000
00010000
00000000
00000000
00100000
00000000
00000000
00000000
00000000
00000000
00000000
00000000
00001000
00000000
00000000
00000000
,
00000000
00000000
00010000
00000000
00000000
00000000
00001000
00000000
00000000
00000000
00000100
00000000
,
00000000
00000000
00000010
00000000
00000000
00000000
00010000
00000000
00000000
00000000
00001000
00000000
,
00000000
00000000
00010000
00000000
00000000
00000000
01000000
00000000
00000000
00000000
00100000
00000000
,
00000000
00000000
00010000
00000000
00000000
00000000
01000000
00000000
00000000
00000000
00100000
00000000
,
00000000
00000000
00010000
00000000
00000000
00000000
00001000
00000000
00000000
00000000
00010000
00000000
,
00000000
00000000
00000010
00000000
00000000
00000000
00000100
00000000
00000000
00000000
00001000
00000000
,
00000000
00000000
00010000
00000000
00000000
00000000
00001000
00000000
00010000
00000000
00001000
00000000
,
00020000
00000000
00000000
00031000
00000000
00000000
00000000
00000100
00000000
00000000
00000000
00000010
,
00000000
00000000
00000000
00000100
00000000
00000000
00000000
00001000
00000000
00000000
00000000
00010000
,
00000000
00000000
00000000
01000000
00000000
00000000
00000000
00100000
00000000
00000000
00000000
01000000
,
00000000
00000000
00000000
00010000
00000000
00000000
00000000
00001000
00000000
00000000
00000000
00010000
,
00000000
00001000
00010000
00001000
,
00010000
00001000
00010000
00001000
,
00010000
00001000
00010000
00001000
,
00010000
00022000
00000000
00000000
,
00000000
00033000
00000000
00000000
,
00000000
00000000
00000000
00001000
,
00000000
00010000
00000100
00001000
,
00000000
00000001
00000100
00000010
,
00001000
00001000
00000010
00000100
,
00000000
00000010
00010000
00001000
,
00000000
00100000
00010000
10000000
,
00100000
00100000
00000000
01100000
,
00000000
01010000
00000000
01001000
,
00000000
00000000
00011000
00000000
,
00000000
00001000
00010000
00000010
,
00000000
00000100
00000001
00000010
,
00000000
00001000
00010000
00000100
,
00000000
00000000
00010000
00000000
00000000
00001000
00000000
00000000
,
00100000
00000000
00000000
00010000
00000000
01000000
00100000
00100000
,
00100000
10000000
01000000
00100000
,
00000000
00010000
01000000
00100000
,
00000000
00010000
00001000
00010000
,
00001000
00010000
00000100
00000010
,
00000000
00000001
00000100
00001000
,
00000000
00000100
00000010
00010000
,
00000000
00011000
00000000
01001000
,
00000000
01100000
00000000
01001000
,
00000000
00000000
01100000
00000000
,
00000000
00100000
10000000
00010000
,
00000000
10000000
10000000
01000000
,
00100000
00010000
00010000
01000000
,
00000000
00001000
00001000
00010000
,
00000100
00001000
00001000
00000010
,
00010000
00001000
00001000
00010000
,
00000000
00022000
00000000
00000000
,
00000000
00033000
00000000
00000000
,
00000000
00000000
00000000
00101000
,
00000000
00000000
00000000
00011000
,
00000000
00010000
00001000
00000100
,
00001000
00010000
00000000
00000100
,
00000000
00001000
00000010
00000100
,
00000000
00001000
00010000
01000000
,
00000000
00100000
00010000
01000000
,
00100000
10000000
00010000
20000000
,
00000000
30000000
00000000
00000000
,
00000000
11000000
00000000
00000000
,
00000000
00110000
00000000
00001000
,
00010000
01000000
00010000
00001000
,
00000000
01000000
00000000
00010000
,
00100000
01000000
00000000
00010000
,
00001000
00000100
00000000
00000110
,
00000000
00010010
00000000
00011000
,
00000000
00000000
00101000
00000000
00000000
00000000
00000000
00110000
,
00000000
00000000
10000000
01000000
00010000
00000000
00001000
00000100
,
00000001
00000000
00000001
00001000
00000100
00000000
00000010
00000001
,
00000100
00000000
00000001
00000100
00001000
00000000
00010000
01000000
,
10000000
00000000
10000000
00010000
02000000
00000000
00000000
00000000
,
03000000
00000000
00000000
00000000
,
00010000
10000000
01000000
00100000
,
00010000
01000000
00100000
00010000
,
00001000
00000010
00000001
00000010
,
00001000
00010000
00000010
00000100
,
00001000
00010000
01000000
10000000
,
00100000
00010000
00100000
10000000
,
01000000
00010000
00001000
00010000
,
00001000
00000000
00000100
00000000
00000020
00000000
00000000
00000030
,
00000000
00000000
00000000
00000000
,
00000000
00000000
00000000
00000000
,
00000000
00000000
00000000
00000000
,
00010000
00000000
00000000
00001000
00000000
00000000
00100000
00000000
00010000
00000000
00100000
00000000
,
00010000
00000000
00000000
00000000
00000000
00000000
10000000
00000000
01000000
00000000
10000000
00000000
,
01000000
00000000
00000000
00000000
00000000
00000000
00100000
00000000
00001000
00000000
00100000
00000000
,
00001000
00000000
00000000
00000000
00000000
00000000
00010000
00000000
00001000
00000000
00010000
00000000
,
00001000
00000000
00010000
00001000
,
00000100
00000010
00001000
00000001
,
00000010
00000100
00001000
00000010
,
00010000
00001000
00010000
01000000
,
00100000
00000000
00010000
00000000
10000000
00000000
00000000
10000000
,
00000000
00000000
10000000
00000000
00010000
00000000
00000000
00010000
,
00000000
00010000
00100000
00000000
,
00022000
00000000
00000000
00000000
,
00000000
00000000
00000000
00000000
,
00000000
00000000
00000000
00000000
,
00000000
00000000
00000000
00000000
,
00000000
00000000
00000000
00000000
,
00000000
00000000
00000000
00000000
,
00000000
00000000
00000000
00000000
,
00000000
00000000
00000000
00000000
,
00033000
00000000
00000000
00000000
;
#NOTEDATA:;
#STEPSTYPE:dance-double;
#DIFFICULTY:Hard;
#METER:17;
#BPMS:0=166.5,20=333,48=666,56=166.5,64=333,158=666,162=333,194=166.5,210=333,244=166.5,247=111,249=55.5,250=333,265=166.5,266=333,282=444,312=222,313=444,341=888,349=444,397=222,405=444,465=888,473=444,503=888,507=444,539=222,554=888,558=444,590=222,606=444,648=888;
#STOPS:250=1.982;
#NOTES:
00000000
00000000
00000000
00000000
,
00000000
00000000
00000000
00000000
,
00000000
00000000
00000000
00000000
,
00000000
00000000
00000000
00000000
,
00000000
00000000
00000000
00000000
,
00000001
00000100
00000001
00000100
00000010
00001000
00000010
00001000
,
00000010
00010000
00000010
00010000
00001000
00010000
00001000
00010000
,
00001000
01000000
00001000
01000000
00010000
01000000
00010000
10000000
,
00010000
10000000
01000000
00100000
00010000
00000000
00000000
00000000
,
00100000
00010000
00100000
00001000
00010000
00000100
00001000
00000100
,
00000010
00000001
00000010
00000001
00000100
00000010
00001000
00000010
,
00010000
00001000
00010000
00001000
01000000
00010000
10000000
00000000
,
20020000
00000000
00000000
00000000
,
30030000
00000000
00000000
00000000
,
01100000
00000000
00000000
00000000
00001000
00001000
00001000
00000000
,
00000000
00000000
00010000
00000010
00010000
00001000
00020000
00000000
,
00030100
00000010
00001000
00010000
,
01000000
00000000
10000000
00000000
00100000
00000000
01000000
00010000
,
00100000
00001000
00010000
00100000
,
00010000
00001000
00010000
00000000
00000100
00000000
00000000
00000000
,
00000100
00000000
00001000
00000000
00001000
00000000
00000001
00000100
,
00000001
00000000
00000100
00000000
00000100
00000000
00000010
00010000
,
00000010
00000000
00010000
00000000
00010000
00000000
00001000
00010000
,
02000000
03100000
02000000
03100000
,
00020000
00130000
00010000
00100000
,
00001000
00000000
00010000
00000000
00000100
00010000
00000100
00000000
,
00001000
00000001
00000100
00000010
,
00010010
00000000
00000000
00001010
00000000
00000000
00010100
00000000
,
00010000
00001000
00010000
00100000
,
01000000
00000000
00010000
10000000
00000000
10000000
01000000
00000000
,
10000000
01000000
00010000
00000000
01000000
00010000
00001000
00000000
,
00010000
00000100
00001000
00000100
00000010
00000000
00000001
00000000
,
00001000
00000010
00000001
00000010
,
00000100
00000000
00001000
00000000
00010000
00000000
01000000
00000000
00000000
00100000
00000000
00000000
,
00010000
00000000
00000000
00100000
00000000
00000000
00001000
00000000
00000000
00010000
00000000
00000000
00001000
00000000
00000000
00000000
00010000
00000000
00000000
00000000
00100000
00000000
00000000
00000000
,
01000000
00000000
00010000
10000000
00010000
00000000
00000000
00000000
,
10000000
00000000
00000000
00000000
01000000
00000000
00000000
00000000
00010000
00000000
00000000
00000000
00001000
00000000
00000000
00010000
00000000
00000000
00001000
00000000
00000000
00000010
00000000
00000000
,
00000001
00000000
00001000
00000000
00000010
00000000
00000100
00000001
,
00001000
00000000
00000000
00000001
00000000
00000000
00000100
00000000
00001000
00000000
00010000
00000000
,
01000000
00000000
10000000
00000000
00010000
00000000
20000000
00000000
00000000
00000000
00000000
00000000
,
30000000
00000000
00010000
01000000
,
10000000
00000000
00000000
01000000
00000000
00000000
00100000
00000000
00010000
00000000
00001000
00000000
,
00000010
00000100
00001000
00000000
00000001
00001000
00000001
00001000
,
00000010
00000000
00000000
00000000
00000100
00000000
00000000
00000000
00001000
00000000
00000000
00000000
00010000
00000000
00000000
00001000
00000000
00000000
00100000
00000000
00000000
00000000
00000000
00000000
,
01000000
00000000
00000000
00000000
00000000
00000000
00010000
00000000
01000000
00000000
10000000
00000000
,
01000000
00100000
00010000
00100000
01000000
00000000
00010000
00000000
,
00001000
00010000
00001000
00010000
00000100
00000000
00000010
00000000
,
00000001
00000000
00000000
00000000
00000100
00000000
00000000
00000000
00001000
00000000
00000000
00000000
00010000
00000000
00000000
00000000
00000000
00000000
01000000
00000000
00000000
10000000
00000000
00000000
,
01000000
00100000
00010000
01000000
00100000
00000000
00000000
00000000
,
00000000
00000000
00000000
00000000
,
10000000
00010000
01000000
00100000
00000000
00000000
00010000
00000000
00011000
00000000
00000000
00000000
00000000
00000000
00000000
00000000
,
00000000
00000000
00000000
00000000
00000000
00000000
00000000
00000000
00011000
00000000
00010000
00000100
00001000
00000000
00000010
00010000
,
00001000
00000000
01000000
00010000
00100000
00000000
00001000
00010000
00001000
00000000
00010000
00000000
00000100
00000000
00001000
00000000
,
00000010
00000100
00000001
00000000
00000011
00000000
00000000
00001100
,
00000000
00000000
00001010
00000000
00000010
00010000
00001000
00010000
,
00001000
01000000
00010000
00000000
10010000
00000000
10000000
01000000
,
00000000
00010000
00001000
00000000
00100000
00010000
00100000
00010000
,
00100000
00000000
00001000
00010000
00001000
00010000
00001000
00000000
,
00000100
00000010
00000100
00000010
00000100
00000000
00000001
00000100
,
00000001
00000000
00000000
00001000
00000000
00000000
00000010
00000000
00000000
00010000
00000000
00000000
00001000
00000000
00000000
00000000
00010000
00000000
00000000
00000000
00100000
00000000
00000000
00000000
,
00010000
00000000
00001000
00000000
00010000
00000000
00000100
00000000
00000000
00000000
00000000
00000000
,
00022000
00000000
00000000
00000000
,
00000000
00000000
00000000
00000000
00033000
00000000
00001000
00010000
,
00001000
00010000
00100000
00010000
00100000
00010000
00100000
10000000
,
00100000
10000000
00010000
10000000
00010000
10000000
01000000
10000000
,
01000000
10000000
01000000
00010000
01000000
00010000
00001000
00010000
,
00001000
00010000
00000200
00000000
00001300
00000001
00001000
00000001
,
00000010
00000001
00000010
00000001
00000010
00001000
00000010
00001000
,
00010000
00001000
00010000
00001000
00010000
00100000
00010000
00100000
,
10000000
00100000
10000000
00010000
01000000
00010000
01000000
00001000
,
00010000
00000000
00000000
00000010
00000000
00000000
00000100
00000000
00000000
00000001
00000000
00000000
00001000
00000000
00000000
00000000
00000100
00000000
00000000
00000000
00001000
00000000
00000000
00000000
,
00000100
00000000
00000010
00000000
00000001
00000000
00000010
00000000
00000001
00000000
00000100
00000000
,
00000010
00000000
00000100
00000000
00000010
00000000
00010000
00000000
00001000
00000000
00010000
00000000
,
00001000
00000000
00100000
00000000
00010000
00000000
00100000
00000000
00010000
00000000
10000000
00000000
,
01000000
00000000
10000000
00000000
01000000
00000000
10000000
00000000
00010000
00000000
10000000
00000000
,
00010000
00000000
01000000
00000000
00010000
00000000
01000000
00000000
00010000
00000000
00100000
00000000
,
00001000
00000000
00100000
00000000
00001000
00000000
00010000
00000000
00001000
00000000
00010000
00000000
,
00001000
00000000
00010000
00000000
00000010
00000000
00010000
00000000
00000010
00000000
00001000
00000000
,
00000002
00000000
00000000
00000013
00000000
00000100
00000000
00001000
00000000
00000010
00000000
00010000
,
00000000
00001000
00000000
01000000
00000000
00010000
00000000
00100000
00000000
00001000
00000000
00010000
,
00000000
00000100
00000000
00001000
00000000
00000010
00000000
00010000
00000000
00001000
00000000
01000000
,
00000000
00010000
00000000
00100000
00000000
00001000
00000000
00010000
00000000
00001000
00000000
00010000
,
00000000
00000000
00001000
00000000
00000000
00000000
00010000
00000000
00000000
00001000
00000000
00000000
00010000
00000000
00000000
00001000
00000000
00000000
00010000
00000000
00000000
00001000
00000000
00000000
,
00010000
00001000
00010000
00001000
00010000
00001000
00010000
00001000
,
00010000
00001000
00010000
00001000
00010000
00001000
00010000
00001000
,
00010000
00002000
00020000
00000000
00000000
00000000
00000000
00000000
,
00000000
00033000
00000000
00000000
,
00000000
00011000
00000000
00001000
,
00010000
00000100
00000000
00001000
,
00000010
00000100
00000001
00000001
,
00001000
00000010
00000010
00010000
,
00010000
00001000
00010000
00100000
,
01000000
00010000
10000000
01000000
,
00100000
00000000
00010000
00100000
00010000
00000000
00100000
00000000
,
00001000
00000000
00010000
00001000
00010000
00000000
00000100
00000000
,
00000010
00000000
00001001
00000001
,
00000100
00000010
00001000
00000100
,
00010000
00001000
00010000
01000000
,
01000000
10000000
00100000
00100000
,
10000000
00000000
10010000
00000000
00000000
00100000
00100000
00000000
,
11000000
00000000
00000000
10000000
10000000
00000000
01100000
00000000
,
10010000
10000000
01000000
00010000
,
00001000
00010000
00001000
00000100
,
00000010
00000000
00000100
00000000
00000001
00000100
00000001
00000000
,
00001000
00000000
00000100
00001000
00000100
00000000
00000010
00000001
,
00000010
00000100
00010000
00001000
,
01000000
00010000
00100000
00001000
,
00010000
00110000
00000000
01100000
,
00000000
11000000
00000000
01100000
,
00000000
00000000
10010000
10000000
,
00100000
00010000
00001000
00010000
,
00000100
00000010
00001000
00010000
,
00001000
00000100
00000001
00000010
,
00000100
00000000
00001000
00000100
00001000
00000000
00000010
00000000
,
00010000
00000000
00001000
00010000
00001000
00000000
00100000
00000000
,
00010000
00000000
01000000
00100000
01000000
00000000
00010000
00000000
,
10000000
20020000
00000000
00000000
,
00000000
30030000
00000000
00000000
,
00000000
00000000
10000000
00000000
00000000
00000000
00010000
01000000
,
00010000
00000000
00000000
00000000
00000000
00000000
00100000
00000000
00000000
00000000
00001000
00000000
00000000
00000000
00010000
00000000
00000000
00000000
00000100
00000000
00000000
00001000
00000000
00000000
,
00000100
00000000
00000000
00001000
00000000
00000000
00000010
00000000
00000000
00001000
00000000
00000001
,
00000000
00000000
00000010
00000000
00000000
00000000
00000100
00000000
00000000
00001000
00000000
00000000
00000100
00000000
00000000
00000000
00000000
00000000
00010000
00000000
00000000
00000000
00000000
00000000
,
00000000
00000000
00000000
00000000
00000000
00000000
00001000
00000000
00000000
00000000
00100000
00000000
00000000
00000000
00010000
00000000
00000000
00000000
01000000
00000000
00000000
00100000
00000000
00000000
,
01000000
00100000
00010000
00001000
,
00001000
00000000
00000000
00000000
00000000
00000000
00010000
00000000
00000000
00001000
00000000
00000000
00010000
00000000
00000000
00000000
00000000
00000000
00000100
00000000
00000000
00000000
00000010
00000000
,
00000000
00000001
00000000
00001000
00000000
00000010
00000000
00001000
00000000
00000002
00000000
00000000
,
00000000
00000003
00000000
00001000
,
00000001
00000000
00000000
00000000
00000000
00000000
00001000
00000000
00000000
00000100
00000000
00000000
00001000
00000000
00000000
00000000
00000000
00000000
00000010
00000000
00000000
00000000
00010000
00000000
,
00000000
00000100
00000000
00001000
00000000
00000000
00000010
00000000
00000000
00010000
00000000
00000000
,
00001000
00000000
00000000
00010000
00000000
00100000
00000000
01000000
00000000
00010000
00000000
00000000
,
00100000
00000000
00000000
00110000
00000000
00000000
00000000
00000000
00000000
10000000
00000000
01000000
,
00000000
00000000
00100000
00000000
00000000
00000000
00010000
00000000
00000000
00100000
00000000
00000000
00010000
00000000
00000000
00000000
00000000
00000000
01000000
00000000
00000000
00000000
00000000
00000000
,
00001000
00000000
00100000
00010000
00100000
00000000
00001000
00000000
,
00000000
00000000
00000000
00000000
00000000
00000000
00010000
00000000
00000000
00000000
00000010
00000000
00000000
00000000
00001000
00000000
00000000
00000000
00000100
00000000
00000000
00000010
00000000
00000000
,
00000001
00000000
00000100
00000010
00001000
00000000
00000000
00001001
,
00000001
00000000
00000100
00000000
00000001
00000000
00000100
00000000
00000000
00001000
00000000
00000000
00010000
00000000
00100000
00000000
00010000
00000000
00100000
00000000
00000000
00010000
00000000
00000000
,
00001000
00000000
00000000
00000000
00000000
00000000
00010000
00000000
00000000
00000000
00000000
00000000
01000000
00000000
00000000
00000000
00000000
00000000
10000000
00000000
00000000
00010000
00000000
00000000
10000000
00000000
00000000
00000000
00000000
00000000
00000000
00000000
00000000
00000000
00000000
00000000
10000000
00000000
00000000
00000000
00100000
00000000
00000000
00000000
10000000
00000000
00000000
00000000
,
00100000
00000000
00000000
00000000
00000000
00000000
00010000
00000000
00000000
00000000
00000000
00000000
00001000
00000000
00000000
00010000
00000000
00000000
00001000
00000000
00000000
00000000
00000000
00000000
00010000
00000000
00000000
00000000
00000100
00000000
00000000
00000000
00001000
00000000
00000000
00000000
00000010
00000000
00000000
00000000
00000000
00000000
00000100
00000000
00000000
00000000
00000000
00000000
,
00000001
00000000
00000000
00000100
00000000
00000000
00001000
00000000
00010000
00000000
00001000
00000000
00020000
00000000
00000000
00000000
00000000
00000000
00000000
00000000
00000000
00000000
00000000
00000000
,
00030000
00000000
00001000
00010000
,
00001000
01000000
00010000
01000000
,
00100000
00000000
10000000
00000000
00010000
01000000
00010000
01000000
,
00010000
00100000
00001000
00010000
,
00000100
00000000
00001000
00000000
00000010
00000100
00000010
00000100
,
00000010
00001000
00000001
00000100
,
00001000
00000000
00010000
00000000
00001000
00010000
00001000
00000000
,
00100000
00010000
00100000
00000000
01000000
10000000
01000000
00000000
,
10000000
00000000
00010000
00000000
20020000
00000000
00000000
30030000
,
00000000
00000000
00000000
00000000
,
00000000
00000000
00000000
00000000
,
00000000
00000000
00000000
00000000
,
10000000
00000000
00000000
00010000
00000000
00000000
10000000
00000000
01000000
00000000
10000000
00000000
,
00100000
00000000
01000000
00000000
00010000
00000000
00100000
00000000
00001000
00000000
00010000
00000000
,
00000100
00000000
00001000
00000000
00000010
00000000
00001000
00000000
00000001
00000000
00000100
00000000
,
00000001
00000000
00000010
00000000
00000001
00000000
00000100
00000000
00000010
00000000
00001000
00000000
,
00000100
00000000
00000000
00000000
00010000
00000000
00000000
00000000
00001000
00000000
00000000
00000000
00010000
00000000
00000000
00001000
00000000
00000000
00010000
00000000
00000000
00001000
00000000
00000000
,
00010000
00000000
00001000
00000000
00100000
00010000
00100000
00010000
,
00100000
00000000
01000000
00000000
10000000
01000000
10000000
00000000
,
01000000
00010000
01000000
00000000
00010000
00001000
00010000
00000000
,
00001000
00000010
00001000
00000000
00000010
00000000
00000000
00000011
,
00000000
00000000
00001000
00000000
00001100
00000000
00000000
00001010
,
00000000
00000010
00010010
00000000
,
00022000
00000000
00000000
00000000
,
00000000
00000000
00000000
00000000
,
00000000
00000000
00000000
00000000
,
00000000
00000000
00000000
00000000
,
00000000
00000000
00000000
00000000
,
00000000
00000000
00000000
00000000
,
00000000
00000000
00000000
00000000
,
00000000
00000000
00000000
00000000
,
00033000
00000000
00000000
00000000
;
#NOTEDATA:;
#STEPSTYPE:dance-double;
#DIFFICULTY:Challenge;
#METER:19;
#BPMS:0=166.5,20=333,48=666,56=166.5,64=333,158=666,162=333,194=166.5,210=333,244=166.5,247=111,249=55.5,250=333,265=166.5,266=333,282=444,312=222,313=444,341=888,349=444,397=222,405=444,465=888,473=444,503=888,507=444,539=222,554=888,558=444,590=222,606=444,648=888;
#STOPS:250=1.982;
#NOTES:
00000000
00000000
00000000
00000000
,
00022000
00000000
00000000
00000000
,
00033000
00000000
00000000
00000000
00000000
00000000
00000000
00000000
00000000
00000000
00000000
00000000
00000000
00000000
00000000
00000000
00001000
00000000
00010000
00001000
00010000
00000000
00001000
00000000
00000000
00000000
00000000
00000000
00010000
00000000
00000000
00000000
,
00022000
00000000
00033000
00001000
,
00101000
00110000
01010000
10010000
,
00010000
00100000
01000000
10000000
00010000
01000000
00010000
01000000
,
00001000
00010000
00001000
00010000
00000010
00001000
00000001
00001000
,
00000100
00000010
00000001
00001000
00000010
00010000
00001000
00010000
,
00001000
01000000
00010000
00100000
00001000
00000000
00000000
00000000
,
00001000
00010000
00001000
00010000
00001000
00010000
00001000
00010000
00001000
00010000
00001000
00010000
,
00001000
00010000
00001000
00010000
00001000
00010000
00001000
00010000
00001000
00010000
00001000
00010000
,
00001000
00010000
00001000
00010000
00001000
00010000
00001000
00010000
00001000
00010000
00001000
00020000
,
00002000
00000000
00000000
00000000
,
00033000
00000000
00000000
00000000
,
00011000
00000000
00010100
00001100
,
00000100
00001000
00000100
00001000
00000100
00001000
00000100
00000000
00000000
00001000
00000000
00000000
00000100
00000000
00000000
00000010
00000000
00000000
00002000
00000000
00000000
00000000
00000000
00000000
,
00013000
00001000
00100000
00010000
,
01000000
00000000
10000000
00000000
01000000
00000000
00100000
00010000
,
00001000
00010000
00000100
00000010
,
00000001
00001000
00000010
00000100
00000001
00000100
00001000
00010000
,
00001000
00100000
01000000
00010000
,
00001000
00000000
00000100
00000000
00000010
00000000
00010000
00001000
,
00000010
00000100
00010000
00001000
,
01000000
00010000
00100000
00010000
01000000
00100000
10000000
00010000
,
00110000
00000000
00100000
00000000
01000000
00000000
10000000
01000000
,
00010000
00000000
00001000
00000000
00000010
00000000
00000001
00000100
,
00001000
00000000
00010000
00000000
01000000
00000000
10000000
00100000
,
01100000
00000000
00000000
01001000
00000000
00000000
00011000
00000000
,
00001000
00010000
00100000
00000000
01000000
00010000
10000000
00000000
,
01000000
00100000
00010000
10000000
00000000
00010000
01000000
00100000
,
10000000
01000000
00010000
00000000
00001000
00000010
00000001
00000000
,
00000100
00000010
00001000
00000100
00010000
00001000
00100000
00010000
,
01000000
00000000
00100000
00000000
00010000
00001000
00010000
00000100
,
00010000
00000000
00000000
00000000
00001000
00000000
00000000
00000000
00000010
00000000
00000000
00000000
00000001
00000000
00000000
00000100
00000000
00000000
00000010
00000000
00000000
00001000
00000000
00000000
,
00000001
00000100
00000001
00000100
00000001
00000100
00000001
00000000
00000100
00000000
00001000
00000000
,
00020000
00000000
01030000
00000000
,
10000000
00000000
00000000
00000000
00100000
00000000
00000000
00000000
00010000
00000000
00000000
00000000
00001000
00000000
00000000
00010000
00000000
00000000
00000100
00000000
00000000
00001000
00000000
00000000
,
00000010
00000000
00000100
00000000
00000001
00000010
00000100
00001000
,
00000010
00000000
00000000
00010000
00000000
00000000
00001000
00000000
00000000
00100000
00000000
00000000
00001000
00000000
00000000
00000000
00010000
00000000
00000000
00000000
01000000
00000000
00000000
00000000
,
00010000
00000000
00001000
00000000
00000100
00000000
00000220
00000000
00000000
00000000
00000000
00000000
,
00000330
00000000
00000010
00001000
,
00000100
00000000
00000000
00000001
00000000
00000000
00000100
00000000
00000000
00001000
00000000
00000000
00000010
00000000
00000000
00000000
00010000
00000000
00000000
00000000
00001000
00000000
00000000
00000000
,
00100000
00000000
00000000
00010000
00000000
00000000
00100000
00000000
00000000
01000000
00000000
00000000
10000000
00000000
01000000
00000000
10000000
00000000
01000000
00000000
10000000
00000000
01000000
00000000
,
10000000
00000000
00100000
00000000
00010000
00000000
00001000
00000000
00000000
00000000
00000000
00000000
,
00010010
00000000
00000000
00000000
00000000
00000000
00000010
00000000
00000100
00000000
00001000
00000000
,
00010000
00001000
00100000
00001000
00010000
00000000
00001000
00000000
,
00000010
00000001
00001000
00000001
00000100
00001000
00010000
00001000
,
00010000
00000000
00000000
00000000
01000000
00000000
00000000
00000000
10000000
00000000
00000000
00000000
00100000
00000000
00000000
01000000
00000000
00000000
00010000
00000000
00000000
00100000
00000000
00000000
,
00001000
00000000
00010000
00000000
00001000
00000000
00010000
00000000
00001000
00000000
00010000
00000000
00002000
00000000
00000000
00000000
00000000
00000000
00000000
00000000
00000000
00003000
00000000
00000000
,
00000000
00000000
00000000
00000000
,
00001000
00000000
00100000
00010000
00100000
00000000
01000000
00000000
00000000
00000000
00000000
00000000
10000000
00000000
00000000
00000000
20020000
00000000
00000000
00000000
00000000
00000000
00000000
00000000
00000000
00000000
00000000
00000000
00000000
00000000
00000000
00000000
,
30030000
00000000
00000000
00000000
00000000
00000000
11000000
00000000
00000000
00000000
00000000
00000000
00110000
00000000
00000000
10000000
01000000
00100000
00010000
00000000
00000000
00100000
00001000
00010000
,
00000100
00000000
00000000
00001000
00000100
00000010
00000001
00000000
00000000
00001000
00000010
00000100
00000001
00000000
00000000
00001000
00000000
00000000
00000001
00000000
00000000
00000100
00000000
00000000
,
00000010
00010000
00001000
01000000
00010000
00110000
00000000
10000000
,
11000000
00000000
10010000
00000000
10000000
00100000
00010000
00001000
,
00010000
00000010
00001000
00000100
00000010
00000000
00000001
00000011
,
00000000
00001100
00000000
00001000
00000001
00000100
00001000
00010000
,
00100000
00000000
10000000
01000000
00010000
00001000
00000010
00000000
,
00000001
00000100
00001000
00010000
00100000
00000000
10000000
01000000
,
00010000
00000000
00000000
00001000
00000000
00000000
00000010
00000000
00000000
00000000
00000000
00000000
00000001
00000000
00000000
00000000
00000100
00000000
00000000
00000000
00000010
00000000
00000000
00000000
,
00001000
00000000
00000100
00000000
00010000
00000000
00001000
00000000
00000000
00000000
00000000
00000000
,
00022000
00000000
00000000
00000000
,
00000000
00000000
00000000
00000000
00033000
00000000
00010000
00000010
,
00001000
00000100
00000010
00000001
00001000
00000010
00001000
00000001
,
00000010
00000100
00001000
00000010
00010000
00001000
01000000
00100000
,
10000000
00010000
00100000
00010000
10000000
00100000
01000000
00010000
,
00100000
00001000
00020000
00000000
01030000
00100000
00010000
01000000
,
00001000
00010000
00000010
00001000
00000100
00000010
00001000
00010000
,
00000010
00001000
00000100
00010000
00001000
00000010
00000100
00001000
,
00000001
00000100
00000010
00001000
00000100
00000010
00000001
00001000
,
00000100
00000000
00000000
00000100
00000000
00000000
00000100
00000000
00000000
00000100
00000000
00000000
00000001
00000000
00000000
00000000
00000010
00000000
00000000
00000000
00000100
00000000
00000000
00000000
,
00001000
00000000
00000010
00000000
00010000
00000000
00001000
00000000
01000000
00000000
00010000
00000000
,
00100000
00000000
01000000
00000000
10000000
00000000
00010000
00000000
01000000
00000000
00001000
00000000
,
00010000
00000000
00000100
00000000
00001000
00000000
00000010
00000000
00000100
00000000
00000001
00000000
,
00001000
00000000
00000100
00000000
00001000
00000000
00000010
00000000
00010000
00000000
00001000
00000000
,
01000000
00000000
00010000
00000000
10000000
00000000
01000000
00000000
00100000
00000000
00010000
00000000
,
01000000
00000000
00001000
00000000
00010000
00000000
00000010
00000000
00001000
00000000
00000100
00000000
,
00010000
00000000
00001000
00000000
01000000
00000000
00010000
00000000
00100000
00000000
00001000
00000000
,
00020000
00000000
00000000
00130000
00000000
01000000
00000000
00010000
00000000
00100000
00000000
00001000
,
00000000
00010000
00000000
00000100
00000000
00001000
00000000
00000010
00000000
00000100
00000000
00000001
,
00000000
00000010
00000000
00000001
00000000
00000100
00000000
00000010
00000000
00001000
00000000
00000100
,
00000000
00010000
00000000
00001000
00000000
00100000
00000000
00010000
00000000
01000000
00000000
00100000
,
00000000
00000000
10000000
00000000
00000000
00000000
00010000
00000000
00000000
01000000
00000000
00000000
00010000
00000000
00000000
01000000
00000000
00000000
00001000
00000000
00000000
01000000
00000000
00000000
,
00001000
01000000
00001000
00010000
00001000
00010000
00000010
00010000
,
00000010
00010000
00000010
00001000
00000010
00001000
00000001
00000010
,
00000100
00002000
00000002
00000000
00000000
00000000
00000000
00000000
,
00000000
00003003
00000000
00000000
,
00000000
00000001
00000100
00001000
,
00011000
00010000
01000000
10000000
,
10100000
00000000
00100000
00000000
01000000
00010000
01000000
00010000
,
00100000
00000000
00001000
00010000
00000100
00000000
00001000
00000100
,
00000010
00000001
00000010
00001000
,
00011000
00010000
00100000
01000000
,
01001000
00000000
00001000
00100000
00010000
00000000
10000000
00100000
,
01000000
00000000
00010000
10000000
00010000
10000000
01000000
00100000
,
00010000
01000000
00001000
00010000
,
01010000
01000000
00100000
00001000
,
00011000
00000000
00010000
00000000
00000100
00000010
00000001
00001000
,
00000010
00000000
00000100
00000010
00001000
00000000
00000100
00010000
,
00001000
00000000
00010000
01000000
10000000
10000000
01000000
00010000
,
00001000
00000100
00000001
00000001
00000100
00001000
00010000
01000000
,
10000000
10000000
00100000
01000000
00100000
01000000
00010000
00000000
,
00100000
00000000
00001000
00010000
00001000
00010000
00000100
00000000
,
00000010
00000000
00000001
00001000
00000001
00000100
00000010
00001000
,
00000010
00010000
00001000
00010000
00001000
01000000
00010000
00100000
,
01000000
00000000
10000000
00010000
10000000
00010000
01000000
00000000
,
00100000
00000000
10000000
01000000
00100000
00010000
00100000
00000000
,
00001000
00010000
00001000
00010000
00000100
00001000
00000010
00001000
,
00000001
00000100
00000001
00000010
00000100
00001000
00000010
00010000
,
00001000
00000000
00010000
00001000
01000000
00010000
10000000
00000000
,
00010000
00000000
00100000
00010000
10000000
00010000
01000000
00000000
,
00100000
00000000
00010000
00001000
00010000
00001000
00100000
00001000
,
00010000
00001000
00010000
00000100
00001000
00000100
00000010
00000001
,
00001000
00000000
00000010
00010000
00000010
00010000
00001000
00000000
,
00100000
00000000
00010000
01000000
00100000
10000000
00010000
00000000
,
01000000
00000000
00001000
00010000
00001000
00010000
00000010
00001000
,
00000001
00000200
00000020
00000000
00000000
00000000
00000000
00000000
,
00000000
00000330
00000000
00000000
,
00000000
00000000
00000100
00000000
00000010
00000000
00001000
00000001
,
00000010
00000000
00000000
00000100
00000000
00000000
00001000
00000000
00000000
00000000
00000001
00000000
00000000
00000000
00000100
00000000
00000000
00000000
00001000
00000000
00000000
00010000
00000000
00000000
,
00001000
00000000
00000000
00100000
00000000
00000000
00010000
00000000
00000000
01000000
00000000
00000000
00100000
00000000
00000000
00000000
00000000
00000000
10000000
00000000
00000000
00000000
01000000
00000000
,
00000000
00000000
00010000
00000000
00000000
00000000
00001000
00000000
00000000
00010000
00000000
00000000
00000100
00000000
00000000
00001000
00000000
00000000
00000010
00000000
00000000
00000000
00000000
00000000
,
00000000
00000000
00000000
00000000
00000000
00000000
00010000
00000000
00000000
00000000
00001000
00000000
00000000
00000000
00000100
00000000
00000000
00000000
00000001
00000000
00000000
00001000
00000000
00000000
,
00000100
00000010
00000001
00000000
00001000
00000000
00000010
00010000
,
00001000
00000000
00000000
00010000
00000000
00000000
00001000
00000000
00000000
00100000
00000000
00000000
00010000
00000000
00000000
00100000
00000000
00000000
00001000
00000000
00000000
00000000
00010000
00000000
,
00000000
00100000
00000000
10000000
00000000
01000000
00000000
10000000
00000000
20020000
00000000
00000000
,
00000000
30030000
00000000
00010000
,
00000000
00000000
00000000
00000000
00000000
00000000
10000000
00000000
00000000
01000000
00000000
00000000
00100000
00000000
00000000
00010000
00000000
00000000
01000000
00000000
00000000
00000000
00100000
00000000
,
00000000
00000000
00010000
00000000
00000000
00000000
00001000
00000000
00000000
00010000
00000000
00000000
00000010
00000000
00000000
00001000
00000000
00000000
00000001
00000000
00000000
00000010
00000000
00000000
,
00000100
00000000
00000000
00001000
00000000
00000000
00000010
00000000
00000000
00000000
00000100
00000000
00000000
00000000
00001000
00000000
00000000
00000000
00010000
00000000
00000000
00001000
00000000
00000000
,
01000000
00000000
00000000
00010000
00000000
00000000
00100000
00000000
00000000
00000000
00000000
00000000
00000000
00000000
00000000
00000000
00000000
00000000
01000000
00000000
00000000
00000000
00010000
00000000
,
00000000
00000000
00001000
00000000
00000000
00000000
00000010
00000000
00000000
00000001
00000000
00000000
00000010
00000000
00000000
00000100
00000000
00000000
00001000
00000000
00000000
00000000
00000000
00000000
,
00000010
00000000
00010000
00001000
00100000
00000000
00110000
00000000
,
00010000
10010000
10000000
11000000
,
01000000
00000000
01010000
00000000
00000000
00000000
00000000
00011000
,
00001000
00000000
00000000
00000000
00000100
00000000
00000000
00000000
00000010
00000000
00000000
00000000
00001000
00000000
00000000
00000001
00000000
00000000
00000010
00000000
00000000
00000100
00000000
00000000
00001000
00000000
00000000
00000000
00000010
00000000
00000000
00000000
00010000
00000000
00000000
00000000
00001000
00000000
00000000
00000000
00000000
00000000
01000000
00000000
00000000
00010000
00000000
00000000
,
10000000
00000000
00000000
00000000
00000000
00000000
00100000
00000000
00000000
01000000
00000000
00000000
00010000
00000000
00000000
00000000
00000000
00000000
00100000
00000000
00000000
00001000
00000000
00000000
00010000
00000000
00000000
00000000
00000000
00000000
00000000
00000000
00000000
00000000
00000000
00000000
00010000
00000000
00000000
00000000
00001000
00000000
00000000
00000000
00000010
00000000
00000000
00000000
,
00000001
00000000
00000000
00000000
00000000
00000000
00001000
00000000
00000000
00000000
00000000
00000000
00000001
00000000
00000000
00000100
00000000
00000000
00000001
00000000
00000000
00000100
00000000
00000000
00000001
00000000
00000000
00000000
00000100
00000000
00000000
00000000
00001000
00000000
00000000
00000000
00010000
00000000
00000000
00000000
00000000
00000000
00001000
00000000
00000000
00100000
00000000
00000000
,
00010000
00000000
00000000
00000000
00000000
00000000
01000000
00000000
00000000
00100000
00000000
00000000
10000000
00000000
00000000
00000000
01000000
00000000
00000000
00000000
00100000
00000000
00000000
00000000
00020000
00000000
00000000
00000000
00000000
00000000
00000000
00000000
00000000
00000000
00000000
00000000
00000000
00000000
00000000
00000000
00000000
00000000
00000000
00000000
00000000
00000000
00000000
00000000
,
00030000
00000000
00000000
00000000
10000000
00010000
10000000
00010000
,
01000000
00001000
00010000
00001000
00010000
00000100
00001000
00000100
,
00000010
00000001
00001000
00000100
00001000
00000001
00000100
00000010
,
00001000
00000010
00010000
00001000
00010000
00001000
00100000
00010000
,
10000000
01000000
00100000
00010000
01000000
00010000
10000000
00100000
,
01000000
00010000
00100000
00001000
00010000
00001000
00010000
00000100
,
00001000
00000010
00001000
00000001
00000100
00000001
00000010
00000100
,
00001000
00000010
00010000
00001000
00010000
00001000
01000000
00010000
,
10000000
00000000
00100000
00000000
10000000
00000000
02000000
00000000
00200000
00000000
00000000
03000000
00000000
00000000
00300000
00000000
,
00000000
00000000
00000000
00000000
,
00000000
00000000
00000000
00000000
,
00000000
00000000
00000000
00000000
,
00001000
00000000
00000000
00010000
00000000
00000000
00001000
00000000
00010000
00000000
00100000
00000000
,
01000000
00000000
00010000
00000000
10000000
00000000
01000000
00000000
00100000
00000000
00010000
00000000
,
01000000
00000000
00001000
00000000
00010000
00000000
00001000
00000000
00000100
00000000
00000010
00000000
,
00001000
00000000
00000001
00000000
00000010
00000000
00000100
00000000
00001000
00000000
00000010
00000000
,
00010000
00000000
00000000
00000000
00001000
00000000
00000000
00000000
00010000
00000000
00000000
00000000
00100000
00000000
00000000
01000000
00000000
00000000
00010000
00000000
00000000
10000000
00000000
00000000
,
00010000
01000000
00100000
10000000
00010000
10000000
01000000
00100000
,
00010000
00100000
00001000
00010000
00000100
00001000
00000100
00000010
,
00000001
00001000
00000001
00000100
00000010
00001000
00000010
00010000
,
00001000
01000000
00010000
01000000
00100000
00000000
00000000
10100000
,
00000000
00000000
10010000
00000000
01010000
00000000
00000000
00110000
,
00000000
00101000
00000000
00000000
,
00022000
00000000
00000000
00000000
,
00000000
00000000
00000000
00000000
,
00000000
00000000
00000000
00000000
,
00000000
00000000
00000000
00000000
,
00000000
00000000
00000000
00000000
,
00000000
00000000
00000000
00000000
,
00000000
00000000
00000000
00000000
,
00000000
00000000
00000000
00000000
,
00033000
00000000
00000000
00000000
;
