
//----- song ID: suku -----//
#TITLE:水槽のクジラ;
#ARTIST:テヅカ feat. 大西あみみ;
#TITLETRANSLIT:Suisou no kujira;
#ARTISTTRANSLIT:Tezuka feat. Amimi Oonishi;
#BANNER:Suisou no kujira.png;
#BACKGROUND:Suisou no kujira-bg.png;
#CDTITLE:./CDTitles/SDVX IV HEAVENLY HAVEN.png;
#MUSIC:Suisou no kujira.ogg;
#SAMPLESTART:59.127;
#SAMPLELENGTH:15;
#BPMS:0=206;
#BGSTAGE:3;
#NOTES:
     dance-single:
     :
     Beginner:
     2:
     :
0000
0000
0000
0000
,
0000
0000
0000
0000
,
0000
0000
0000
0000
,
0000
0000
0000
0000
,
0000
0000
0000
0000
,
0000
0000
0000
0000
,
0000
0000
0000
0000
,
0001
0000
0000
0000
,
0000
0000
0000
0000
,
1000
0000
0000
0000
,
0000
0000
0000
0000
,
0001
0000
0000
0000
,
0001
0000
0000
0000
,
0010
0000
0000
0000
,
0000
0000
0000
0000
,
0010
0000
0000
0000
,
0010
0000
0000
0000
,
1000
0000
0000
0000
,
0000
0000
0000
0000
,
2000
0000
0000
0000
,
3000
0000
0000
0000
,
1000
0000
0000
0000
,
0010
0000
0000
0000
,
0020
0000
0000
0000
,
0030
0000
0000
0000
,
0010
0000
0000
0000
,
0001
0000
0000
0000
,
0001
0000
0000
0000
,
0000
0000
0000
0000
,
0100
0000
0000
0000
,
0000
0000
0000
0000
,
0001
0000
0000
0000
,
0000
0000
0000
0000
,
0001
0000
0000
0000
,
0000
0000
0000
0000
,
0010
0000
0000
0000
,
0010
0000
0000
0000
,
0001
0000
0000
0000
,
0000
0000
0000
0000
,
0010
0000
0000
0000
,
0010
0000
0000
0000
,
1000
0000
0000
0000
,
0000
0000
0000
0000
,
1000
0000
0000
0000
,
0000
0000
0000
0000
,
0100
0000
0000
0000
,
0000
0000
0000
0000
,
1000
0000
0000
0000
,
1000
0000
0000
0000
,
0010
0000
0000
0000
,
0000
0000
0000
0000
,
1001
0000
0000
0000
,
0000
0000
0000
0000
,
1000
0000
0000
0000
,
0010
0000
0000
0000
,
1000
0000
0000
0000
,
0000
0000
0000
0000
,
0010
0000
0000
0000
,
0010
0000
0000
0000
,
0010
0000
0000
0000
,
0000
0000
0000
0000
,
0001
0000
0000
0000
,
0010
0000
0000
0000
,
0001
0000
0000
0000
,
0000
0000
0000
0000
,
0020
0000
0000
0000
,
0030
0000
0000
0000
,
1001
0000
0000
0000
,
0000
0000
0000
0000
,
0001
0000
0000
0000
,
0001
0000
0000
0000
,
0100
0000
0000
0000
,
0000
0000
0000
0000
,
1000
0000
0000
0000
,
1000
0000
0000
0000
,
0100
0000
0000
0000
,
0000
0000
0000
0000
,
1000
0000
0000
0000
,
0000
0000
0000
0000
,
0010
0000
0000
0000
,
0000
0000
0000
0000
,
0001
0000
0000
0000
,
0000
0000
0000
0000
,
1001
0000
0000
0000
,
0000
0000
0000
0000
,
0010
0000
0000
0000
,
0000
0000
0000
0000
,
1001
0000
0000
0000
,
0000
0000
0000
0000
,
0020
0000
0000
0000
0000
0000
0000
0030
,
0000
0000
0000
0000
;
#NOTES:
     dance-single:
     :
     Easy:
     6:
     :
0000
0000
0000
0000
,
0000
0000
0000
0000
,
0000
0000
0000
0000
,
0000
0000
0000
0000
,
0000
0000
0000
0000
,
0000
0000
0000
0000
,
0000
0000
0000
0000
,
0001
1000
0001
0000
,
1000
0001
1000
0000
,
0010
0100
0010
0000
,
0100
0010
0100
0000
,
0001
1000
0010
0000
,
1000
0000
1000
0000
,
1000
0001
0010
0000
,
0001
0000
0001
0000
,
1000
0100
1000
0000
,
0001
0100
0001
0000
,
1000
0000
0001
0000
,
1001
0000
0000
0000
,
2000
0000
0000
3000
,
0200
0000
0000
0300
,
0020
0000
0000
0030
,
0002
0000
0000
0003
,
1000
0000
0010
0000
,
0100
0010
0100
0000
,
0001
0000
0010
0000
,
0100
0010
0100
0000
,
1000
0000
0100
0000
,
1000
0100
0010
0000
,
0001
0000
0100
0000
,
0001
0100
0010
0000
,
1000
0100
0010
0000
,
0100
0010
0001
0000
,
1000
0010
0100
0000
,
0010
0100
0001
0000
,
1000
0000
0001
0000
,
1001
0000
0000
0000
,
0100
0000
0010
0000
,
0110
0000
0000
0000
,
0001
0000
1000
0000
,
1001
0000
0000
0000
,
2000
0000
0000
3000
,
0002
0000
0000
0003
,
1000
0000
1000
0000
,
0010
0000
0010
0000
,
0100
0000
0100
0000
,
0001
0000
0000
0000
,
0001
0100
0010
0000
,
1000
0100
0010
0000
,
0001
0000
1000
0000
,
1001
0000
0000
0000
,
0001
1000
0001
1000
,
0001
0010
0001
0000
,
1000
0001
1000
0001
,
1000
0010
1000
0000
,
0001
1000
0001
1000
,
0001
0100
0001
0000
,
1000
0001
1000
0001
,
1000
0100
1000
0000
,
0001
0100
0010
0000
,
0010
0100
0010
0000
,
1000
0100
0010
0000
,
0010
0100
0010
0000
,
0002
0000
0000
0003
,
2000
0000
0000
3000
,
0001
0010
0100
1000
,
0200
0000
0000
0300
,
1000
0000
0001
0000
,
0100
0010
0100
0000
,
0001
0000
0010
0000
,
0001
1000
0001
0000
,
0100
0000
0010
0000
,
1000
0010
1000
0000
,
0001
0000
0010
0000
,
0100
0010
0100
0000
,
2000
0000
0000
3000
,
0002
0000
0000
0003
,
0200
0000
0000
0300
,
0020
0000
0000
0030
,
1000
0000
1001
0000
,
0110
0000
0001
0000
,
1000
0010
0100
0001
,
1000
0000
0000
0000
,
2000
0000
0000
0000
,
3000
0000
0000
0000
,
0002
0000
0000
0000
,
0003
0000
0000
0000
,
0020
0000
0000
0000
,
0030
0000
0000
0000
,
0200
0000
0000
0000
0000
0000
0000
0300
,
0000
0000
0000
0000
;
#NOTES:
     dance-single:
     :
     Medium:
     10:
     :
0000
0000
0000
0000
,
0000
0000
0000
0000
,
0000
0000
0000
0000
,
0000
0000
0000
0000
,
0000
0000
0000
0000
,
0000
0000
0000
0000
,
0000
0000
0000
0000
,
0001
0000
1000
0000
0010
0000
0100
0010
,
0000
0010
0100
0000
0001
0000
1000
0100
,
0000
0100
0010
0000
0001
1000
0001
0000
,
1000
0000
0000
1010
0000
0101
0000
0000
,
0001
0000
0100
0000
1000
0000
0100
0001
,
0000
0001
1000
0000
0010
0100
0010
0000
,
1000
0000
0100
0000
0001
0000
0100
1000
,
0000
1000
0001
0000
0100
0010
0100
0000
,
0002
0013
0002
0103
,
0010
1000
1010
1001
,
1000
0000
0100
0000
0010
0000
0001
1000
,
0000
0001
0000
1000
0000
0001
0000
0000
,
2000
0000
3200
0000
,
0310
0000
0000
0001
0000
0000
0010
0000
,
0001
0000
0100
0000
0010
0000
0000
0110
,
0000
0100
0000
0000
0000
0000
0100
0000
,
0002
0000
0000
0000
1003
0000
0100
1000
,
0000
0000
0001
1000
,
0200
0000
0000
0000
0310
0000
0001
0010
,
0000
0001
0000
0000
1000
0001
1000
0000
,
0001
0000
0010
0000
0100
1000
0000
0010
,
0000
1000
0100
0000
0010
0000
0001
0000
,
1000
0000
0010
0100
0000
0001
0000
0010
,
0000
0001
0100
0000
0010
0000
1000
0000
,
0100
0000
0000
0010
0000
0000
0002
0000
,
0000
1000
0100
1003
,
1000
0000
0000
0100
0000
0000
0010
0001
,
0000
0001
1000
0000
0100
0000
0110
0000
,
0001
0000
0010
0100
0010
0000
0001
1000
,
0000
1000
0000
1000
0010
0000
0100
0000
,
0001
0000
0100
0000
1000
0000
0100
0001
,
0000
1000
0001
0000
1000
0001
1000
0000
,
0001
0000
0010
0000
1000
0000
0010
0001
,
0000
0000
0001
0000
1000
0000
1000
0100
,
0000
0000
1000
0000
0010
0000
0100
0001
,
0000
1000
0000
0001
0000
1000
0000
0000
,
0002
0000
0013
0010
,
0020
0000
0230
0000
,
2300
0000
3001
0100
,
0002
0000
0000
0003
,
1000
0000
0010
0000
0100
0001
0000
1000
,
0000
0001
0100
0010
,
1000
0000
0100
0000
0010
0001
0010
0001
,
0000
1000
0000
1000
0000
0000
1000
0100
,
0010
0000
0000
0000
0010
0001
0000
0011
,
0000
0001
0100
1000
,
0100
0000
0001
0100
0000
0010
1000
0000
,
0001
0010
0000
0000
0100
0000
1000
0000
,
0001
0000
0010
0000
1000
0010
0000
0001
,
0000
1000
0100
0010
,
0002
0000
0003
2000
,
0000
3000
1000
1001
,
0110
0000
0000
0000
0000
0001
1000
0001
,
0000
0001
1001
0110
,
1000
0000
0000
0100
0000
0000
0010
0000
,
0000
0001
0010
0000
0001
0000
0001
0000
,
1000
0000
0010
0000
0001
0000
0010
1000
,
0000
0000
0001
0000
0100
0000
0010
0100
,
0000
0000
0001
0000
1000
0000
0001
0010
,
0000
0100
1000
0100
1000
0000
1100
0000
,
0011
0000
0001
0000
1000
0000
0010
0100
,
0000
0001
0100
0000
0010
0000
1000
0000
,
0100
0000
0001
0000
0100
0000
1000
0100
,
0000
0010
0001
0000
1000
0000
0010
0000
,
0100
0000
0001
0000
0010
0000
0001
0100
,
0000
0010
1000
0000
0100
0000
0010
0001
,
0000
0010
0001
0000
1000
0000
0010
0000
,
1000
0000
0010
0100
0000
0010
0000
0000
,
1000
0000
1000
0000
1000
0000
0000
0100
,
0000
0100
0000
0000
0100
0000
0000
0000
,
0010
0000
0010
0000
0010
0000
0000
0001
,
0000
0001
0000
0000
0001
0000
0000
0000
,
1000
0000
0000
1000
0100
0000
0000
0100
,
0010
0001
0010
0001
,
2000
0000
3020
0000
0230
0000
0301
1000
,
0000
0010
0000
0100
0000
0010
0000
0000
,
2000
0000
0000
0100
0000
0000
3001
0000
,
0000
1000
0001
1000
,
0002
0000
0000
0100
0000
0000
1003
0000
,
0000
1000
0010
0100
,
0002
0000
0000
0010
0000
0000
1003
0000
,
0000
1000
0010
0100
,
0001
0000
0010
0000
0100
1000
0000
1001
,
0000
0000
0000
0000
;
#NOTES:
     dance-single:
     :
     Hard:
     13:
     :
0000
0000
0000
0000
,
0000
0000
0000
0000
,
0000
0000
0000
0000
,
0000
0000
0000
0000
,
0000
0000
0000
0000
,
0000
0000
0000
0000
,
0000
0000
0000
0000
,
0001
0100
0010
0000
1000
0001
1000
0001
,
0000
0001
0010
0000
0100
1000
0100
1000
,
0000
1000
0001
0100
0010
1000
0001
0000
,
1000
0000
0100
0010
0000
1001
0000
0000
,
1000
0100
1000
0000
0010
1000
0010
1000
,
0000
1000
0001
0100
0001
0010
0001
0000
,
1000
0100
0010
0000
0001
0100
0001
0100
,
0000
0100
0010
1000
0010
0100
0000
0001
,
1000
0000
1000
0100
0010
0000
0010
0001
,
1000
1010
0110
0101
,
0001
0100
0010
1000
0001
0100
0010
1000
,
0000
0001
0000
1001
0000
0110
0000
1000
,
0001
0010
0001
0010
,
0001
1000
0001
1000
,
0010
1000
0010
1000
,
0010
0100
0010
0100
,
0002
1003
2000
3010
,
0020
0130
0200
0301
,
0002
0013
0020
0130
,
0200
0000
1300
0000
1000
0001
1000
0000
,
0001
0000
0010
0100
1000
0100
0000
1000
,
0000
0010
0000
0001
0010
1000
0010
0000
,
1000
0000
0100
0010
0001
0010
0000
1000
,
0000
0010
0001
0000
1000
0100
0010
0000
,
0001
0000
1000
0010
0100
0010
0000
0001
,
0000
0010
1000
0000
0001
0100
1000
0000
,
0100
0000
0001
1000
0100
0010
0000
0001
,
0000
0010
1000
0000
0010
0000
0001
0000
,
1000
0000
1100
0000
0011
0000
0001
0010
,
0000
0010
0001
0100
0010
1000
0100
0000
,
1000
0000
1010
0000
0101
0000
0001
0010
,
0000
0010
0001
0100
0001
0010
0001
0000
,
1000
0000
1010
0000
0101
0000
0001
1000
,
0000
1000
0100
0010
0100
1000
0001
0000
,
0200
0000
1000
0000
0010
0000
0301
1000
,
0000
1100
0000
0110
0010
0001
0010
0000
,
0001
0000
0100
0001
0100
0000
0001
0000
,
0010
0100
0010
0000
,
0001
0000
1000
0100
1000
0000
0010
0000
,
0100
0001
1000
0000
0001
0000
0000
0000
,
1000
0100
0010
0000
0001
1000
0001
1000
,
0000
1000
0001
0000
0100
0010
1000
0000
,
0001
0100
0001
0100
0010
1000
0010
1000
,
0000
0001
0000
0001
0000
0000
0000
0000
,
1000
0100
0001
0100
1000
0001
0100
0010
,
1000
0100
0001
0100
0010
0100
1000
0001
,
0100
0010
0001
0010
1000
0010
0001
0010
,
0100
0001
1000
0100
0010
0001
0100
0001
,
0010
0100
0001
0100
1000
0001
0000
0001
,
0100
0010
1000
0001
0010
0100
1000
0001
,
0010
0100
1000
0010
1000
0100
1000
0010
,
0100
0001
1000
0100
0110
0000
1001
0000
,
0011
0000
0011
0000
0010
0001
0100
0010
,
1010
0000
1010
0000
1000
0100
0001
0100
,
1100
0000
1100
0000
1000
0010
0100
0001
,
0101
0000
0101
0000
0001
1000
1001
0000
,
0001
0010
0100
0000
1000
0100
0010
0001
,
0000
0001
1000
0010
0100
0010
1000
0001
,
0020
1000
0100
0031
,
0001
0010
0100
1000
0010
0100
0001
0000
,
1000
0010
1000
0000
0001
0100
0001
0010
,
0000
0010
0100
1000
0001
1000
0100
0000
,
0010
0001
1000
0000
0010
0100
0001
0100
,
0000
0100
0010
0000
1000
0100
0010
0000
,
0001
0100
1000
0000
0100
0010
0100
0010
,
0000
0010
1000
0000
0001
0010
0001
1000
,
0000
1000
0100
0010
0100
0001
0100
0010
,
0100
0000
1000
0010
0000
1001
0000
0000
,
0001
0100
0001
0000
1000
0010
1000
0100
,
0000
0100
0010
0001
1000
0001
0010
0000
,
0100
1000
0001
0000
0100
0010
1000
0010
,
0000
0010
0100
0000
0001
0010
0000
0100
,
1000
0000
0001
0010
0100
0000
1000
0010
,
0100
0101
0011
0110
,
0200
0000
0001
0000
0010
0000
1300
0001
,
0000
0101
0000
0110
0000
1010
0000
0000
,
1000
0000
0100
0010
0000
0010
0001
0010
,
0000
0010
0001
1000
0010
1000
0010
0100
,
0001
0000
0100
0010
0000
0010
1000
0010
,
0000
0010
1000
0001
0010
0001
0010
0100
,
1000
0000
0001
0100
0000
0100
1000
0100
,
0000
0100
0001
1000
0100
0010
0001
1000
,
0100
0000
0100
0010
0001
1000
0001
1000
,
0000
0000
0000
0000
;
#NOTES:
     dance-double:
     :
     Easy:
     6:
     :
00000000
00000000
00000000
00000000
,
00000000
00000000
00000000
00000000
,
00000000
00000000
00000000
00000000
,
00000000
00000000
00000000
00000000
,
00000000
00000000
00000000
00000000
,
00000000
00000000
00000000
00000000
,
00000000
00000000
00000000
00000000
,
00001000
00010000
00001000
00000000
,
00010000
00000100
00010000
00000000
,
00000100
00001000
00000100
00000000
,
00000010
00000100
00000010
00000000
,
00000001
00001000
00000001
00000000
,
00000100
00000000
00000100
00000000
,
00000010
00000100
00000010
00000000
,
00000100
00000000
00001000
00000000
,
00010000
00000000
00001000
00000000
,
00010000
00001000
00010000
00000000
,
00011000
00000000
00000000
00000000
,
00011000
00000000
00000000
00000000
,
00020000
00000000
00000000
00030000
,
00002000
00000000
00000000
00003000
,
00200000
00000000
00000000
00300000
,
00020000
00000000
00000000
00030000
,
10000000
00000000
01000000
00000000
,
00100000
00010000
00100000
00000000
,
00001000
00000000
00100000
00000000
,
00001000
00010000
00001000
00000000
,
00010000
00000000
00000010
00000000
,
00001000
00000010
00001000
00000000
,
00000100
00000000
00000010
00000000
,
00000001
00001000
00000001
00000000
,
00000100
00000000
00000010
00000000
,
00001000
00000010
00010000
00000000
,
00001000
00000000
00010000
00000000
,
00001000
01000000
00010000
00000000
,
00100000
00000000
01000000
00000000
,
01100000
00000000
00000000
00000000
,
10000000
00000000
00010000
00000000
,
10010000
00000000
00000000
00000000
,
10000000
00000000
01000000
00000000
,
00010000
00000000
00001000
00000000
,
00020000
00000000
00000000
00030000
,
00002000
00000000
00000000
00003000
,
00010000
00000000
00010000
00000000
,
00000010
00000000
00000010
00000000
,
00001000
00000000
00001000
00000000
,
00000001
00000000
00000000
00000000
,
00000001
00000010
00000100
00000000
,
00000010
00000100
00001000
00000000
,
00000100
00000000
00010000
00000000
,
00011000
00000000
00000000
00000000
,
00001000
00010000
00001000
00000000
,
00010000
00001000
01000000
00000000
,
00010000
01000000
00010000
01000000
,
00100000
10000000
00100000
00000000
,
10000000
01000000
00100000
00000000
,
01000000
00100000
00010000
00000000
,
00100000
00001000
00010000
00001000
,
00100000
00001000
00010000
00000000
,
00001000
00010000
00000010
00000000
,
00001000
00000010
00001000
00000000
,
00000001
00000010
00000100
00001000
,
00000001
00000010
00000100
00000000
,
00002000
00000000
00000000
00003000
,
00000200
00000000
00000000
00000300
,
00010000
00001000
00010000
00000000
,
00022000
00000000
00000000
00033000
,
00001000
00000000
00010000
00000000
,
00001000
01000000
00001000
00000000
,
01000000
00000000
00010000
00000000
,
00100000
01000000
00100000
00000000
,
00010000
00000000
10000000
00000000
,
01000000
00100000
01000000
00000000
,
00100000
00000000
00001000
00000000
,
00010000
00001000
00010000
00000000
,
00002000
00000000
00000000
00003000
,
00020000
00000000
00000000
00030000
,
00000200
00000000
00000000
00000300
,
00002000
00000000
00000000
00003000
,
00000100
00000000
00000010
00000000
,
00000110
00000000
00000000
00000000
,
00000001
00000000
00001000
00000000
,
00001001
00000000
00000000
00000000
,
00000002
00000000
00000000
00000000
,
00000003
00000000
00000000
00000000
,
00000020
00000000
00000000
00000000
,
00000030
00000000
00000000
00000000
,
00002000
00000000
00000000
00000000
,
00003000
00000000
00000000
00000000
,
00020000
00000000
00000000
00000000
00000000
00000000
00000000
00030000
,
00000000
00000000
00000000
00000000
;
#NOTES:
     dance-double:
     :
     Medium:
     10:
     :
00000000
00000000
00000000
00000000
,
00000000
00000000
00000000
00000000
,
00000000
00000000
00000000
00000000
,
00000000
00000000
00000000
00000000
,
00000000
00000000
00000000
00000000
,
00000000
00000000
00000000
00000000
,
00000000
00000000
00000000
00000000
,
00001000
00000000
00010000
00000000
00000100
00000000
00001000
00000010
,
00000000
00000010
00001000
00000000
00000100
00000000
00000010
00000001
,
00000000
00000001
00001000
00000000
00000010
00000100
00000010
00000000
,
00001000
00000000
00000000
00000001
00000000
00000001
00000000
00000000
,
00000001
00000000
00000100
00000000
00000010
00000000
00000100
00000010
,
00000000
00000010
00000100
00000000
00001000
00000000
00010000
00000000
,
00100000
00000000
01000000
00000000
00010000
00000000
10000000
01000000
,
00000000
01000000
10000000
00000000
00010000
00100000
00010000
00000000
,
20000000
31000000
00200000
00310000
,
00001000
00000100
00000010
00000011
,
00000001
00000000
00000100
00000000
00000010
00000000
00001000
00000100
,
00000000
00010000
00000000
00001000
00000000
00010000
00000000
00000000
,
00002000
00000000
02003000
00000000
,
03010000
00000000
00000000
00100000
00000000
00000000
01000000
00000000
,
10000000
00000000
00010000
00000000
01000000
00000000
00000000
00100000
,
00000000
00100000
00000000
00000000
00000000
00000000
00100000
00000000
,
02000000
00000000
00000000
00000000
03001000
00000000
00010000
00001000
,
00000000
00000000
00001000
00010000
,
00000020
00000000
00000000
00000000
00001030
00000000
00000001
00000100
,
00000000
00000001
00000000
00000000
00001000
00000001
00001000
00000000
,
00000001
00000000
00000100
00000000
00000010
00001000
00000000
00000010
,
00000000
00010000
00001000
00000000
00010000
00000000
01000000
00000000
,
10000000
00000000
00100000
01000000
00000000
00010000
00000000
00100000
,
00000000
00010000
01000000
00000000
00001000
00000000
00010000
00000000
,
00000100
00000000
00000000
00001000
00000000
00000000
00000020
00000000
,
00000000
00001000
00001000
00000130
,
00000001
00000000
00000000
00001000
00000000
00000000
00000100
00000010
,
00000000
00000010
00000001
00000000
00001000
00000000
00001001
00000000
,
00000001
00000000
00000100
00000010
00000100
00000000
00001000
00010000
,
00000000
00010000
00000000
00010000
00001000
00000000
00010000
00000000
,
00100000
00000000
01000000
00000000
10000000
00000000
01000000
00010000
,
00000000
10000000
00010000
00000000
00100000
01000000
00100000
00000000
,
00010000
00000000
00100000
00000000
00001000
00000000
00010000
00000100
,
00000000
00000000
00001000
00000000
00000100
00000000
00000010
00000001
,
00000000
00000000
00000001
00000000
00000100
00000000
00001000
00000100
,
00000000
00000010
00000000
00000100
00000000
00000010
00000000
00000000
,
00000020
00000000
00020030
00000000
,
00032000
00000000
02003000
00000000
,
03020000
00000000
10030000
01000000
,
00200000
00000000
00000000
00300000
,
00100000
00000000
00010000
00000000
00100000
00001000
00010000
00001000
,
00000000
00000000
00001000
00000000
00010000
00000010
00001000
00000000
,
00000010
00000000
00000100
00000000
00000001
00001000
00000001
00001000
,
00000000
00000001
00000000
00000001
00000000
00000000
00000000
00000000
,
00000001
00000100
00000010
00000000
00001000
00000010
00001000
00000100
,
00000000
00010000
00001000
00010000
,
01000000
00000000
10000000
00100000
00000000
00010000
00100000
00000000
,
10000000
00010000
00000000
00000000
10000000
00000000
01000000
00000000
,
00100000
00000000
00010000
00000000
00100000
00001000
00000000
00010000
,
00000000
00010000
00000010
00001000
,
00000200
00000000
00000300
00000020
,
00000000
00000030
00000010
00000001
,
00001001
00000000
00000001
00000000
00000010
00000000
00001000
00010000
,
00000000
00010000
01000000
10000000
,
00010000
00000000
00000000
00100000
00000000
00000000
00001000
00000000
,
00000000
00010000
00000000
00000000
00000100
00000000
00001000
00000000
,
00000001
00000000
00000100
00000000
00001000
00000000
00000100
00000001
,
00000000
00000000
00000001
00000000
00000010
00000000
00000100
00001000
,
00000000
00000000
00000010
00000000
00010000
00000000
00001000
00100000
,
00000000
00100000
00010000
00100000
01000000
00000000
11000000
00000000
,
00110000
00000000
00010000
00000000
10000000
00000000
00100000
01000000
,
00000000
00010000
01000000
00000000
00010000
00000000
00100000
00000000
,
00001000
00000000
00010000
00000000
00000100
00000000
00001000
00000100
,
00000000
00000010
00000001
00000000
00000100
00000000
00000010
00000000
,
00000100
00000000
00000001
00000000
00000010
00000000
00000100
00001000
,
00000000
00000100
00010000
00000000
00001000
00000000
00010000
00001000
,
00000000
00010000
00100000
00000000
01000000
00000000
00010000
00000000
,
10000000
00000000
01000000
00100000
00000000
00010000
00000000
00000000
,
10000000
00000000
10000000
00000000
10000000
00000000
00000000
01000000
,
00000000
01000000
00000000
00000000
01000000
00000000
00000000
00000000
,
00010000
00000000
00010000
00000000
00010000
00000000
00000000
00001000
,
00000000
00001000
00000000
00000000
00001000
00000000
00000000
00000000
,
00000010
00000000
00000000
00000010
00000001
00000000
00000000
00000001
,
00001000
00000001
00000100
00000010
,
00002000
00000000
00003200
00000000
00020300
00000000
00031000
00010000
,
00000000
00001000
00000000
00010000
00000000
00001000
00000000
00000000
,
00010000
00000000
00000000
00100000
00000000
00000000
00010000
00000000
,
00000000
00010000
00001000
00010000
,
00001000
00000000
00000000
00000010
00000000
00000000
00001000
00000000
,
00000000
00001000
00010000
00001000
,
00010000
00000000
00000000
01000000
00000000
00000000
00010000
00000000
,
00000000
00010000
00001000
00010000
,
00001000
00000000
00000100
00000000
00000010
00000100
00000000
00000110
,
00000000
00000000
00000000
00000000
;
#NOTES:
     dance-double:
     :
     Hard:
     13:
     :
00000000
00000000
00000000
00000000
,
00000000
00000000
00000000
00000000
,
00000000
00000000
00000000
00000000
,
00000000
00000000
00000000
00000000
,
00000000
00000000
00000000
00000000
,
00000000
00000000
00000000
00000000
,
00000000
00000000
00000000
00000000
,
00001000
00010000
00001000
00000000
00000010
00000000
00000001
00001000
,
00000000
00001000
00000010
00000000
00000100
00000010
00000100
00000001
,
00000000
00000001
00001000
00000100
00010000
00001000
00100000
00000000
,
00010000
00000000
01000000
00100000
00000000
10010000
00000000
00000000
,
10000000
01000000
10000000
00000000
00100000
01000000
00010000
01000000
,
00000000
00010000
00100000
00001000
00010000
00001000
00010000
00000000
,
00001000
00010000
00000100
00000000
00001000
00000100
00000010
00000001
,
00000000
00001000
00000010
00000100
00000010
00001000
00000000
00000001
,
00000100
00000000
00000010
00000100
00000010
00000000
00000100
00001000
,
00010000
00100000
01000000
00100000
,
00010000
00001000
00010000
00000000
00001000
00010000
01000000
10000000
,
00000000
00010000
00000000
01100000
00000000
10010000
00000000
00000000
,
10000000
01000000
10000000
01000000
,
00010000
00001000
00010000
00001000
,
00000010
00000001
00000010
00000001
,
00001000
00000010
00000100
00000010
,
00001000
00000100
00001000
00000100
,
00010000
00001000
00010000
00001000
,
00100000
00010000
00100000
00010000
,
10000000
00000000
01000000
00000000
10000000
00010000
10000000
00000000
,
00010000
00000000
10000000
00100000
01000000
00010000
00000000
00100000
,
00000000
00001000
00000000
00010000
00000100
00000000
00001000
00000000
,
00000010
00000000
00000100
00000001
00001000
00000010
00000000
00000100
,
00000000
00001000
00010000
00000000
00100000
01000000
00100000
00000000
,
10000000
00000000
01000000
00010000
01000000
10000000
00000000
00010000
,
00000000
00100000
00001000
00000000
00010000
00000010
00001000
00000000
,
00000001
00000000
00000010
00001000
00000010
00000001
00000000
00000100
,
00000000
00000010
00010000
00000000
00001000
00000000
00010000
00000000
,
01000000
00000000
10000000
01000000
10000000
00000000
01000000
00010000
,
00000000
00001000
00000000
00000010
00000001
00000000
00001000
00000000
,
00000010
00000000
00000001
00000000
00000010
00000000
00000100
00000001
,
00000000
00000001
00000100
00000000
00001000
00010000
00001000
00000000
,
00010000
00000000
00100000
00000000
10000000
00000000
01000000
00010000
,
00000000
00010000
00001000
00010000
00000100
00010000
00001000
00000000
,
00020000
00000000
00032000
00000000
00003020
00000000
00000031
00001000
,
00000000
00001010
00000000
00000110
00000100
00000001
00000100
00000000
,
00000001
00000000
00000000
00000001
00000100
00000000
00000010
00000000
,
00001000
00010000
01000000
00100000
,
10000000
00000000
01000000
00100000
00010000
00000000
00001000
00000000
,
00000100
00000010
00000001
00000000
,
00000001
00000010
00001000
00000000
00000010
00000001
00000010
00000001
,
00000000
00000001
00001000
00000000
00000100
00010000
00000100
00000000
,
00010000
00001000
00100000
00001000
00010000
00001000
00000000
00011000
,
00000000
00010000
00000000
00010000
00000000
00000000
00000000
00000000
,
00001000
00010000
00001000
00010000
00100000
01000000
00100000
01000000
,
00010000
10000000
01000000
00000000
00010000
01000000
10000000
00000000
,
01000000
00100000
00001000
00010000
00001000
00100000
01000000
00010000
,
01000000
00100000
00001000
00000000
00010000
00001000
00010000
00000000
,
00001000
00010000
00000100
00001000
00000010
00000100
00000000
00000100
,
00000000
00000100
00001000
00000100
00000001
00001000
00000100
00000000
,
00000001
00000100
00000010
00000001
00001000
00000010
00000100
00000001
,
00000020
00000000
00002030
00000000
00013000
01000000
00100000
00000000
,
01100000
00000000
01000000
00100000
00001000
00010000
00001000
00000000
,
00011000
00000000
00001000
00010000
00000010
00000100
00000010
00000000
,
00000110
00000000
00000100
00001000
00010000
00001000
00010000
00000000
,
00011000
00002000
00023000
02030000
,
13000000
00010000
00100000
00000000
00001000
00100000
00001000
00010000
,
00000000
00010000
00000100
00001000
00000010
00001000
00000100
00000000
,
00000020
00000032
00000203
00002300
,
00013000
00100000
10000000
00000000
01000000
00100000
00010000
00000000
,
10000000
01000000
10000000
00000000
00010000
01000000
00010000
00100000
,
00000000
00100000
00001000
00000000
00010000
00001000
00010000
00000000
,
00001000
00010000
00000100
00000000
00001000
00000100
00001000
00000100
,
00000000
00000100
00000010
00000000
00000001
00001000
00000001
00000000
,
00001000
00000010
00000100
00000000
00000010
00001000
00000010
00010000
,
00000000
00010000
00001000
00000000
00010000
00001000
00010000
00001000
,
00000000
00001000
00100000
00010000
00100000
01000000
00100000
00010000
,
10000000
00000000
00100000
01000000
00000000
10010000
00000000
00000000
,
10000000
00000000
01000000
00100000
00010000
00000000
00100000
00001000
,
00000000
00001000
00010000
00001000
00010000
00000010
00001000
00000000
,
00000001
00000000
00000100
00000010
00001000
00000000
00000010
00010000
,
00000000
00010000
00001000
00000000
00010000
00001000
00000000
00010000
,
00001000
00000000
00001000
00010000
01000000
00000000
10000000
01000000
,
00010000
01000000
01100000
00110000
,
00100000
00001000
00010000
00000000
00001000
00010000
00000100
00001000
,
00000000
00000010
00000000
00000110
00000000
00001001
00000000
00000000
,
00000001
00000000
00000010
00000100
00000000
00000100
00001000
00000100
,
00000000
00000100
00010000
00001000
00010000
00001000
00100000
00000000
,
00010000
00000000
01000000
00100000
00000000
00100000
10000000
00100000
,
00000000
00100000
01000000
00010000
01000000
00010000
00100000
00000000
,
01000000
00000000
00010000
00001000
00000000
00001000
00010000
00001000
,
00000000
00001000
00010000
00000010
00001000
00000010
00000100
00000000
,
00000001
00000010
00000100
00001000
00000100
00000010
00000001
00001000
,
00000000
00000000
00000000
00000000
;
