
//----- song ID: jitu2 -----//
#TITLE:Steps to the Star;
#ARTIST:BEMANI Sound Team "Coyaan & KE!JU 1%";
#BANNER:Steps to the Star.png;
#BACKGROUND:Steps to the Star-bg.png;
#CDTITLE:./CDTitles/DDR WORLD.png;
#MUSIC:Steps to the Star.ogg;
#SAMPLESTART:17.42;
#SAMPLELENGTH:15;
#BPMS:0=124;
#NOTES:
     dance-single:
     :
     Beginner:
     6:
     :
0000
0000
0000
0000
,
0000
0000
0000
0000
,
0000
0000
0000
0000
,
0000
0000
0000
0000
,
0000
0000
0000
0000
,
0000
0000
0000
0000
,
0000
0000
0000
0000
,
0000
0000
0000
0000
,
0000
0000
0000
0000
,
0001
0000
0000
0000
,
0001
0000
0000
0000
,
1000
0000
0000
0000
,
0100
0000
0000
0000
,
1000
0000
1000
0000
,
1000
0000
0000
0000
,
0010
0000
0010
0000
,
0010
0000
0000
0000
,
0001
0000
1000
0000
,
0001
0000
0000
0000
,
0100
0000
0100
0000
,
0100
0000
0000
0000
,
0001
0001
0001
0000
,
0100
0000
0000
0000
,
0010
0010
0010
0000
,
1000
0000
0000
0000
,
0001
0001
0010
0000
,
0100
0000
0000
0000
,
1000
1000
0010
0000
,
0100
0000
0000
0000
,
0001
1000
0001
0000
,
1001
0000
0000
0000
,
0100
0100
0100
0000
,
0010
0000
0000
0000
,
0001
0001
1000
1000
,
0001
1000
0001
0000
,
0010
0010
0100
0100
,
0010
0100
0010
0000
,
0001
0001
1000
1000
,
0010
0100
0010
0000
,
1000
0001
0010
0100
,
0110
0000
0000
0000
,
0001
0100
1000
0100
,
0001
0100
1000
0000
,
0001
0010
1000
0010
,
0001
0010
1000
0000
,
0001
0010
0001
0100
,
0010
1000
0100
1000
,
0001
0010
0100
1000
,
1001
0000
0000
0000
,
0002
0010
1000
0013
,
2000
0010
0001
3010
,
0020
0100
0001
0130
,
0200
1000
0010
0301
,
0001
0100
0010
0001
,
1000
0100
0001
0010
,
0100
0001
1000
0010
,
0001
0100
0110
1001
,
0000
0000
0000
0000
;
