
//----- song ID: stvi -----//
#VERSION:0.83;
#TITLE:Steps for Victory;
#ARTIST:kors k×nagomu tamaki×BEMANI Sound Team "U1" with taru;
#BANNER:Steps for Victory.png;
#BACKGROUND:Steps for Victory-bg.png;
#CDTITLE:./CDTitles/DDR WORLD.png;
#MUSIC:Steps for Victory.ogg;
#SAMPLESTART:68;
#SAMPLELENGTH:15;
#BPMS:0=210;
#BGSTAGE:14;

//---------------dance-single - ----------------
#NOTEDATA:;
#STEPSTYPE:dance-single;
#DIFFICULTY:Beginner;
#METER:4;
#NOTES:
0000
0000
0000
0000
,
0000
0000
0000
0000
,
0000
0000
0000
0000
,
0000
0000
0000
0000
,
0000
0000
0000
0000
,
0000
0000
0000
0000
,
0000
0000
0000
0000
,
0000
0000
0000
0000
,
0000
0000
0000
0000
,
0000
0000
0000
0000
,
0000
0000
0000
0000
,
0000
0000
0000
0000
,
0001
0000
0000
0000
,
0001
0000
0000
0000
,
0010
0000
0000
0000
,
0000
0000
0000
0000
,
0010
0000
0000
0000
,
0010
0000
0000
0000
,
1000
0000
0000
0000
,
0000
0000
0000
0000
,
1000
0000
0000
0000
,
1000
0000
0000
0000
,
0100
0000
0000
0000
,
0000
0000
0000
0000
,
0100
0000
0000
0000
,
0100
0000
0000
0000
,
0001
0000
0000
0000
,
0000
0000
0000
0000
,
1001
0000
0000
0000
,
0000
0000
0000
0000
,
0001
0000
0000
0000
,
0010
0000
0000
0000
,
0001
0000
0000
0000
,
0000
0000
0000
0000
,
0001
0000
0000
0000
,
0010
0000
0000
0000
,
2000
0000
0000
0000
,
3000
0000
0000
0000
,
2000
0000
0000
0000
,
3000
0000
0000
0000
,
1000
0000
0000
0000
,
0010
0000
0000
0000
,
0001
0000
0000
0000
,
0001
0000
0000
0000
,
0001
0000
0000
0000
,
0000
0000
0000
0000
,
0010
0000
0000
0000
,
0100
0000
0000
0000
,
0010
0000
0000
0000
,
0000
0000
0000
0000
,
0010
0000
0000
0000
,
0020
0000
0000
0000
,
0030
0000
0000
0000
,
0000
0000
0000
0000
,
0010
0000
0000
0000
,
0010
0000
0000
0000
,
1000
0000
0000
0000
,
0001
0000
0000
0000
,
1001
0000
0000
0000
,
0000
0000
0000
0000
,
1000
0000
0000
0000
,
0000
0000
0000
0000
,
0100
0000
0000
0000
,
0000
0000
0000
0000
,
0010
0000
0000
0000
,
0000
0000
0000
0000
,
0001
0000
0000
0000
,
0000
0000
0000
0000
,
0001
0000
0000
0000
,
0001
0000
0000
0000
,
0010
0000
0000
0000
,
0000
0000
0000
0000
,
0010
0000
0000
0000
,
0010
0000
0000
0000
,
1000
0000
0000
0000
,
0000
0000
0000
0000
,
1001
0000
0000
0000
,
0000
0000
0000
0000
,
1000
0000
0000
0000
,
0100
0000
0000
0000
,
0010
0000
0000
0000
,
0000
0000
0000
0000
,
0001
0000
0000
0000
,
0100
0000
0000
0000
,
0010
0000
0000
0000
,
0000
0000
0000
0000
,
1000
0000
0000
0000
,
1000
0000
0000
0000
,
1000
0000
1000
0000
,
0010
0000
0000
0000
,
0010
0000
0010
0000
,
0001
0000
0000
0000
,
0001
0000
0010
0000
,
0001
0000
0000
0000
,
0002
0000
0000
0000
,
0003
0000
0000
0000
,
1001
0000
0000
0000
,
0000
0000
0000
0000
,
0001
0000
0001
0000
,
0010
0000
0000
0000
,
0010
0000
1000
0000
,
0010
0000
0000
0000
,
1000
0000
1000
0000
,
0100
0000
0000
0000
,
1001
0000
0000
0000
,
0000
0000
0000
0000
,
1001
0000
0000
0000
,
0000
0000
0000
0000
,
1001
0000
0000
0000
;

//---------------dance-single - ----------------
#NOTEDATA:;
#STEPSTYPE:dance-single;
#DIFFICULTY:Easy;
#METER:8;
#NOTES:
0000
0000
0000
0000
,
0000
0000
0000
0000
,
0000
0000
0000
0000
,
0000
0000
0000
0000
,
0000
0000
0000
0000
,
0000
0000
0000
0000
,
0000
0000
0000
0000
,
0000
0000
0000
0000
,
0000
0000
0000
0000
,
0000
0000
0000
0000
,
0000
0000
0000
0000
,
0000
0000
0000
0000
,
2000
0000
0000
0000
,
0000
0000
3000
0000
,
0002
0000
0000
0000
,
0000
0000
0003
0000
,
0200
0000
0000
0000
,
0000
0000
0300
0000
,
0020
0000
0000
0000
,
0000
0000
0030
0000
,
1000
0010
1000
0000
,
0100
0000
0100
0000
,
0010
0001
0010
0000
,
0100
0000
1000
0000
,
0001
0100
0001
0000
,
0100
0001
0100
0000
,
0001
0000
0000
0000
1000
0000
0000
1001
,
0000
1000
0100
0010
,
0001
0000
0001
0000
,
0100
0010
0100
0000
,
0001
0000
1000
0000
,
0010
0100
0010
0000
,
1000
0000
1001
0000
,
0001
0010
0100
0000
,
1000
0010
1000
0000
,
0001
0010
0001
0000
,
1001
0000
0110
0000
,
1001
0000
0000
0000
,
1001
0000
0110
0000
,
1001
0000
0000
0000
,
0110
0000
1001
0000
,
0110
0000
0000
0000
,
1000
0001
1000
0001
,
1000
0000
0000
0000
,
0001
0000
0010
0000
,
0001
0100
0010
0000
,
1000
0000
0001
0000
,
1000
0000
0000
0000
,
1000
0000
0100
0000
,
0010
0001
1000
0000
,
0010
0100
0010
1000
,
0001
0000
0000
0000
,
1000
0100
0010
0000
,
0010
0001
1000
0000
,
0001
0100
0010
0000
,
0010
1000
0001
0000
,
1001
0000
0110
0000
,
1001
0000
0110
0000
,
0001
0100
0010
1000
,
0010
0000
0000
0000
,
2000
0000
0000
0000
,
3000
0000
0000
0000
,
0002
0000
0000
0000
,
0003
0000
0000
0000
,
0020
0000
0000
0000
,
0030
0000
0000
0000
,
0200
0000
0000
0000
,
0300
0000
0000
0000
,
1000
0100
1000
0100
,
0010
0000
0010
0000
,
0001
0100
0001
0100
,
0010
0000
0010
0000
,
1000
0100
0010
0000
,
0001
0100
0010
0000
,
2002
0000
0000
0000
,
0000
0000
3003
0000
,
0001
0010
0001
0000
,
0100
0000
0100
0000
,
0010
1000
0010
0000
,
0100
0000
0001
0000
,
1000
0100
1000
0000
,
0100
1000
0100
0000
,
1000
0000
0000
0000
0001
0000
0000
1001
,
0000
0001
0100
0010
,
1000
0100
1000
1000
,
0001
0001
0010
0010
,
0001
0100
0010
1000
,
0002
0000
0000
0003
,
1000
0100
0001
0000
,
0100
1000
0100
0000
,
1000
0010
0100
0001
,
1000
0010
0100
0000
,
0001
0100
1000
0000
,
0100
0001
0100
0000
,
0001
1000
0010
0100
,
0001
1000
0010
0000
,
1000
1000
0100
0000
,
0010
0010
0001
0000
,
0001
0001
0100
0000
,
0010
0010
1000
0000
,
0001
1000
0100
0010
,
0001
1000
0010
0100
,
0001
0010
0001
0100
,
0010
1000
0100
0000
,
0110
0000
1001
0000
,
0001
1000
0100
0000
,
0110
0000
1001
0000
,
1000
0001
0100
0000
,
1001
0000
0000
0000
;

//---------------dance-single - ----------------
#NOTEDATA:;
#STEPSTYPE:dance-single;
#DIFFICULTY:Medium;
#METER:15;
#DISPLAYBPM:105:420;
#BPMS:0=105,24=210,56=105,64=210,80=420,112=210,113=420,143=105,159=210,187=105,188=420,189=210,189.5=105,190=210,222=105,236=840,244=420,245=210,245.5=105,246=210,278=105,286=210,302=420,365=210,366=420,422=105,423=420,447=210,449=105,450=420,482=840,486=420,487=210,487.5=105;
#STOPS:332=0.143,394=0.143,395=0.143;
#NOTES:
0000
0000
0000
0000
,
0000
0000
0000
0000
0000
0000
0000
0000
0000
0000
0000
0000
1000
0000
0100
0010
,
0000
0000
0001
0000
1000
0000
0001
0001
0000
0000
0000
0000
0001
0000
0100
0010
,
0000
0000
1000
0000
0001
0000
1000
1000
0000
0000
0000
0000
1000
0000
0100
0010
,
0000
0000
0001
0000
0100
0000
0010
1000
0000
1000
0100
0000
0010
0000
0000
0110
,
0000
0000
0000
0000
0001
1000
0000
0001
0000
0000
0000
0000
0000
0000
0000
0000
,
1000
0010
0100
0001
,
1000
0000
0100
0000
0010
0001
0010
0000
,
0001
0100
0010
1000
,
0001
0000
0010
0000
0100
1000
0100
0000
,
2000
0100
3100
0000
,
0002
0100
0103
0000
,
1000
0100
0010
0001
,
1000
0001
1000
0000
0001
1000
0001
0000
,
2000
0000
0001
0000
3001
0000
0000
0001
0010
0000
0100
1000
0000
0001
0000
0001
,
0000
0000
1000
0100
0010
0000
0000
0001
0100
0000
0010
1000
0000
0001
0000
0001
,
0000
0000
1000
0000
1001
0000
0001
0010
,
0100
1000
0010
1000
0000
0001
0000
0000
,
0001
0000
0000
0000
1000
0000
0000
1001
,
0000
2000
3200
0320
,
0031
0000
0100
0000
,
0101
0000
1100
0000
,
1000
0000
0000
0010
0000
0000
0001
0000
,
0000
0010
0000
0000
1000
0000
0000
0000
,
0001
0000
1000
0001
1000
0000
0001
0000
,
1000
0001
1000
0000
0001
0000
1000
0001
,
1000
0010
0100
0001
,
0020
0000
0130
0000
,
0220
0330
0000
0000
0000
0000
0000
0000
0000
0000
0000
0000
0000
0000
0000
0000
1001
0000
0000
0000
0000
0000
0000
0000
0000
0000
0000
0000
0000
0000
0000
0000
0000
0000
0000
0000
0000
0000
0000
0000
0000
0000
0000
0000
0000
0000
0000
0000
1010
0000
0000
0000
0000
0000
0000
0000
0000
0000
0000
0000
0000
0000
0000
0000
,
0000
0011
0000
0001
,
0000
0010
0000
0000
1000
0000
0000
0010
,
0000
0001
0000
1000
,
0001
1000
0001
0000
1000
0000
0001
1000
,
0001
0000
1000
0000
0001
1000
0001
0000
,
0100
1000
0100
0010
,
0100
0000
0010
0000
0100
0000
0020
0030
,
1000
0010
1000
0010
0100
0001
0100
0001
1000
0001
1000
0000
0001
0010
0001
0010
,
0100
1000
0100
1000
0100
0000
2000
0000
3002
0000
0023
0000
0230
0000
0300
0000
,
1000
0000
0000
0000
0010
0000
0000
0000
0100
0000
0000
0000
0002
0000
0000
0000
0000
0000
0000
0000
0000
0000
0000
0000
2003
0000
0000
0000
0000
0000
0000
0000
0000
0000
0000
0000
3001
0000
0000
0100
0000
0000
0100
0000
0000
0010
0000
0000
,
0100
0100
0001
1000
0002
0000
0000
0000
0003
0000
0000
0000
0001
0000
0100
0000
,
0001
0100
0010
0100
0001
1000
0100
0010
,
0001
0100
0001
0010
0100
0000
1000
0010
,
1000
0010
0100
0001
1000
0100
0010
0001
,
0100
0000
0010
1000
0100
0000
1000
0001
,
0100
1000
0100
0001
0010
0100
1000
0010
,
0001
0010
1000
0100
0010
0001
1000
0010
,
0100
0000
0001
0010
0100
0000
2002
0000
,
0000
0000
0000
3003
1000
0100
1000
0100
,
0010
0100
1000
0001
0100
0010
1000
0100
,
1000
0010
0100
0000
0001
0010
0001
0010
,
0100
1000
0001
0100
0010
1000
0100
0000
,
0010
0001
0100
0000
0001
0000
0101
0000
,
0100
0110
1000
1100
,
0100
0000
0110
0000
0001
0010
0100
1000
,
0001
0010
0100
1000
0002
0000
0000
0000
,
0003
0000
2000
3000
,
0110
0000
0000
0000
0000
0000
0000
0001
0000
0000
0000
0000
0000
0000
0001
0000
,
0010
0000
0000
0100
0000
0000
1000
0000
0001
0000
0000
0000
0000
0000
1000
0010
,
0000
0000
0000
0000
0000
0000
0100
0001
0000
1000
0001
1000
0001
1000
0001
1000
,
0002
0000
0000
0000
,
0000
0000
0000
0000
,
0000
0000
0000
0003
0001
0000
0001
0000
,
0001
0000
0001
0000
0100
0010
0100
0000
,
0100
0000
0100
0010
1000
0000
1000
0000
,
1000
0000
1000
0000
0100
0000
0010
0100
,
0000
0010
0100
0000
0010
0001
0010
0001
,
1000
0010
1000
0000
0100
1000
0100
1000
,
0001
0100
0001
0000
1000
0100
0010
0001
,
0100
0010
1000
0001
2000
0000
0000
0000
,
0000
0000
0000
0000
3000
0000
0000
0000
0002
0000
1000
0000
1003
0000
0000
1000
,
0010
0000
0100
0001
0000
1000
0000
1000
0000
0000
0001
0100
0010
0000
0000
1000
,
0100
0000
0010
0001
0000
1000
0000
1000
0000
0000
0000
0000
0001
0000
0000
0000
,
1001
0000
1000
0010
0100
0001
0010
0001
,
0000
1000
0000
0000
1000
0000
0000
0000
,
0001
0000
0000
1001
0000
0000
0002
0000
,
0203
0320
1030
0000
,
1000
0100
0010
0001
,
0010
0000
0010
1000
,
0010
0000
0010
0001
,
0010
0000
0001
0010
,
0100
1000
0010
0100
,
0001
0000
1000
0000
0001
0010
0100
0000
,
1000
0100
0010
0000
0002
0000
0000
0000
,
2000
3003
0000
0000
0000
0000
0000
0000
0000
0000
0000
0000
0000
0000
0000
0000
1000
0000
0000
0000
0000
0000
0000
0000
0000
0000
0000
0000
0000
0000
0000
0000
0000
0000
0000
0000
0000
0000
0000
0000
0000
0000
0000
0000
0000
0000
0000
0000
1001
0000
0000
0000
0000
0000
0000
0000
0000
0000
0000
0000
0000
0000
0000
0000
,
0000
0001
0010
1000
,
0010
0001
0100
1000
,
0100
0001
0010
1000
,
0010
0001
1000
0001
,
0000
1000
0010
0001
,
0010
1000
0100
0001
,
0100
2000
0000
3002
,
0000
0003
1001
0000
,
1000
0010
0100
1000
,
0100
0010
1000
0100
,
0010
0001
0010
0100
,
0001
0100
0010
0001
,
0100
0010
0001
1000
,
0100
0001
0100
0001
,
1000
0000
0000
0000
0000
0000
0000
0000
0000
0000
0000
0000
0000
0000
0000
0000
0100
0000
0000
0000
0000
0000
0000
0000
0000
0000
0000
0000
0000
0000
0000
0000
0020
0030
0000
0000
0000
0000
0000
0000
0000
0000
0000
0000
0000
0000
0000
0000
0220
0330
0000
0000
0000
0000
0000
0000
0000
0000
0000
0000
0000
0000
0000
0000
,
1001
0000
0000
0000
1000
0100
1000
0000
,
0001
0000
0010
0000
0001
0100
0001
0000
,
1000
0000
0010
0000
0100
0001
0100
0000
,
0010
0000
1000
0000
0100
1000
0100
0000
,
0010
0000
0001
1000
0001
0000
0100
0000
,
0010
0100
0010
0000
1000
0000
0100
0000
,
1000
0000
0000
0000
0001
0000
0000
0000
1000
0000
0000
0000
0002
0000
0000
1000
0000
0000
1003
0000
0000
0000
0000
0000
,
0100
0000
0010
0001
1000
0000
0001
0000
,
0100
0000
0010
1000
0001
0000
1000
0000
,
0100
0000
0010
0001
0010
0000
0100
1000
,
0100
0000
1000
0001
1000
0000
0001
0000
,
0100
0100
1000
0100
,
0100
0000
0000
0000
0000
0000
0001
0000
0000
1000
0000
0000
0001
0000
0000
0000
0000
0000
1000
0000
0100
0000
0010
0000
,
0001
0000
0010
0000
0100
0000
2000
0000
0000
0000
0000
0000
3001
0000
0000
0000
0000
0000
0100
0000
0000
0010
0000
0000
,
1000
0000
0000
0001
0000
0000
1000
0000
0000
0000
0001
0000
,
0000
0000
0000
0000
1000
0000
0000
0000
0000
0000
0000
0000
0001
0000
0000
0010
0000
0000
0100
0000
0000
1000
0000
0000
,
0100
0000
0000
0010
0000
0000
0001
0000
0000
0000
0100
0000
,
0000
0000
0001
0000
0000
0000
1000
0000
0010
0000
0100
0000
,
0001
0000
0000
0000
0001
0000
1000
0000
0100
0000
0010
0000
,
0001
0000
0000
0000
0001
0000
1000
0000
0010
0000
0100
0000
,
0001
0000
0010
0000
0100
0000
1000
0000
0000
0000
0001
0000
,
0000
0000
1000
0000
0000
0000
0200
0000
0000
0000
0000
0000
,
0000
0000
0000
0000
0000
0000
0000
0300
;

//---------------dance-single - ----------------
#NOTEDATA:;
#STEPSTYPE:dance-single;
#DIFFICULTY:Hard;
#METER:17;
#DISPLAYBPM:105:420;
#BPMS:0=105,24=210,56=105,64=210,80=420,112=210,113=420,143=105,159=210,187=105,188=420,189=210,189.5=105,190=210,222=105,236=840,244=420,245=210,245.5=105,246=210,278=105,286=210,302=420,365=210,366=420,422=105,423=420,447=210,449=105,450=420,482=840,486=420,487=210,487.5=105;
#STOPS:332=0.143,394=0.143,395=0.143;
#NOTES:
0000
0000
0000
0000
,
0000
0000
0000
0000
0000
0000
0000
0000
0000
0000
0000
0000
1000
0100
0010
0001
,
0000
0000
0011
0000
0101
0000
0001
1000
0000
0000
0000
0000
0001
0100
0010
1000
,
0000
0000
1000
0001
1000
0000
0100
0010
0000
0000
0000
0000
0001
0100
1000
0100
,
0000
0001
0010
0000
0100
0000
0100
1000
0000
0001
1000
0000
0010
0000
0100
0010
,
0000
0000
0000
0000
1000
0001
0000
1000
0000
0000
1001
0000
0000
0110
0000
0000
,
1000
0100
1000
0100
0010
0001
0010
0000
,
0001
0100
0001
0100
0010
1000
0010
0000
,
1000
0010
0100
0001
0010
0100
1000
0000
,
0001
0100
0010
1000
0100
0010
0001
0000
,
1000
0100
1000
0100
0001
0100
1000
0000
,
0001
0100
0001
0100
1000
0100
0001
0000
,
1000
0010
0100
0001
1000
0100
0010
0001
,
1000
0010
1000
0000
0010
0100
0010
0000
0100
0001
0100
0000
0001
1000
0001
1000
,
0001
0000
0100
0000
0110
0000
0000
0010
1000
0000
0001
1000
0000
0100
0000
0110
,
0000
0000
0010
0001
0010
0000
0000
0001
1000
0000
0001
0100
0000
0010
0000
1000
,
0010
1010
0000
0000
0100
0101
0000
0000
,
0001
0011
0000
0000
1000
1100
0000
0000
,
0001
0000
0000
0000
1000
0000
0000
1001
,
0000
2000
3200
0320
,
0031
0100
0001
0010
,
0100
1000
0010
1000
,
0100
0000
0000
0110
0000
0000
0010
0000
,
0000
0011
0000
0000
0001
0000
1000
0000
,
0010
0000
0100
0010
0100
0000
0010
0000
,
1000
0001
1000
0000
0001
0000
1000
0100
,
0010
0000
0100
0010
0001
0000
0010
0001
,
1000
0000
0010
0000
0100
0010
0100
0010
,
0200
0310
0000
1000
,
0010
0100
0000
0001
,
0000
0011
0000
0000
0010
0000
0000
0110
,
0000
0100
1000
0001
,
0100
0010
1000
0000
0100
0000
0010
0001
,
1000
0000
0010
0000
0100
0001
1000
0000
,
0100
0001
0100
1000
,
0001
0000
0100
0000
0000
0000
2002
3003
,
1000
0100
1000
0100
1000
0100
1000
0100
0010
0001
0010
0001
0010
0001
0010
0001
1000
0001
1000
0001
1000
0000
0000
0000
0001
0100
0001
0100
0001
0100
0001
0100
,
0010
1000
0010
1000
0010
1000
0010
1000
0010
0000
0000
0000
2000
0000
0000
0000
3002
0000
0000
0000
0023
0000
0000
0000
0230
0000
0000
0000
0300
0000
0000
0000
,
1000
0000
0000
0000
0000
0000
0000
0000
0001
0000
0000
0000
0000
0000
0000
0000
0100
0000
0000
0000
0000
0000
0000
0000
0001
0000
0000
0000
1000
0000
0000
0000
0100
0000
0000
0000
0010
0000
0000
0000
0001
0000
0000
0000
1000
0000
0000
0000
0002
0000
0000
0000
0000
0000
0000
0000
0000
0000
0000
0000
0003
0000
0000
0000
0000
0000
0000
0000
0000
0000
0000
0000
1000
0000
0000
0100
0000
0000
0010
0000
0000
0000
0000
0000
0001
0000
0000
0000
0000
0000
1000
0000
0000
0100
0000
0000
,
0010
0000
0001
0000
0010
0100
1000
0000
0002
0000
0000
0000
0000
0000
0000
0000
0003
0000
0000
0000
0000
0000
0000
0000
0001
0000
0000
0000
0100
0000
0000
0000
,
0010
0000
1000
0000
0001
0000
0010
0001
0000
0010
0001
0000
1000
0000
0010
0000
,
0100
0000
0001
0000
0100
0000
0000
0100
0010
0000
1000
0010
1000
0000
0100
0000
,
0010
0000
0001
0000
0100
0000
0010
1000
0000
0010
1000
0000
0100
0000
0010
0000
,
0001
0000
0100
0000
0001
0000
0010
0100
0010
0000
0001
1000
0001
0000
0100
0000
,
0010
0000
1000
0000
0001
0000
1000
0100
0000
1000
0100
0000
0010
0000
0001
0000
,
0100
0000
1000
0000
0100
0000
0001
0100
0001
0000
1000
0010
1000
0000
0100
0000
,
0010
0001
1000
0000
0001
0000
0010
0100
0000
0010
0100
0000
2000
0000
0000
0000
,
0002
0000
0000
3003
1000
0010
0100
0001
,
1000
0000
0100
1000
0000
0100
1000
0000
0001
0000
0100
0000
0010
0000
1000
0000
,
0010
0000
0000
0010
0100
0000
0001
0100
0001
0000
0010
0000
0100
0000
1000
0000
,
0010
0000
0100
0001
0000
0100
0001
0000
0010
0000
0100
0000
1000
0000
0010
0000
,
1000
0000
0100
0010
0100
0000
1000
0001
1000
0000
0010
0000
1010
0000
0000
0000
,
1000
0100
0110
0000
0001
0010
0011
0001
,
0100
0000
0010
0000
0110
0000
0100
0000
0010
1000
0010
1000
0001
0100
0001
0100
,
0001
0010
0001
0010
0100
1000
0100
1000
0002
0000
0000
0000
0000
0000
0000
0000
,
0003
0000
2000
3000
,
0110
0000
0000
0000
0000
0000
0000
0001
0000
0001
0010
0000
0100
0000
1000
0001
,
1000
0000
0000
0010
0000
0000
0100
0000
0110
0000
0000
0000
0000
0000
0001
1001
,
0000
0000
0000
0000
0000
0000
0100
0110
0000
1000
0010
0100
0001
1000
0010
0100
,
0002
0000
0000
0000
,
0000
0000
0000
0000
,
0000
0000
0000
0003
0001
1000
0001
1000
,
0010
0000
0100
0000
0010
0000
0000
0000
0010
0000
1000
0010
1000
0000
0000
0000
,
1000
0010
0100
0001
1000
0001
1000
0001
,
0010
0000
0100
0000
0010
0000
0000
0000
0010
0000
0001
0010
0001
0000
1000
0000
,
0010
1000
0010
0000
0100
0000
0001
0000
1000
0000
0100
0010
0001
0000
0100
0010
,
1000
0000
0100
0010
0001
0000
1000
0000
0001
0000
0010
0100
1000
0000
0010
0100
,
0001
0000
0010
0100
1000
0000
0001
0000
1000
0000
0100
0000
0001
0000
0100
0000
,
1000
0000
0010
0000
0100
0000
0001
0000
1000
0010
1000
0010
0100
0001
0100
0001
,
1000
0001
1000
0001
0010
0100
0010
0100
1000
0000
0100
0000
0110
0000
0000
0010
,
0001
0000
1000
0001
0000
0100
0000
0110
0000
0000
0010
1000
0010
0000
0000
1000
,
0001
0000
1000
0100
0000
0010
0000
0001
0010
0000
0011
0000
0000
0000
0000
0000
,
0100
1100
0000
0000
1000
1010
0000
0000
,
0001
0101
0000
0000
1000
0000
0000
0000
,
0001
0000
0000
1001
0000
0000
0002
0000
,
0203
0320
1030
0100
,
0010
0000
0010
0000
0010
0000
0001
0010
,
0100
0000
0001
0100
0010
0000
0001
1000
,
0010
0000
0100
0010
1000
0000
0100
0010
,
1000
0000
0010
0100
1000
0000
0100
0000
,
0010
0001
1000
0100
,
0010
0000
0001
0000
1000
0010
0100
0001
,
1000
0010
0100
0001
2000
0000
0000
0000
,
0002
3003
0000
0000
0000
0000
0000
0000
0000
0000
0000
0000
0000
0000
0000
0000
1000
0000
0000
0000
0000
0000
0000
0000
0000
0000
0000
0000
0000
0000
0000
0000
0001
0000
0000
0000
0000
0000
0000
0000
0000
0000
0000
0000
0000
0000
0000
0000
1001
0000
0000
0000
0000
0000
0000
0000
0000
0000
0000
0000
0000
0000
0000
0000
,
0000
0000
1000
0000
0100
0010
0100
0000
,
0010
0001
0010
0000
0001
0100
0001
0000
,
1000
0010
1000
0000
0100
1000
0100
0000
,
0010
0100
0010
0000
0001
0000
1001
0000
,
0000
0000
0001
0000
0100
0010
0100
0000
,
0001
1000
0001
0000
0010
0001
0010
0000
,
0100
2000
0000
3002
,
0000
0003
1001
0000
,
1000
0000
0010
0100
0001
0000
0010
0100
,
1000
0000
0001
1000
0100
0000
0010
0001
,
1000
0001
1000
0001
0100
0010
0100
0010
,
0100
0000
0001
0100
0010
0000
1000
0100
,
0010
0000
0001
0010
0100
0000
1000
0010
,
0100
0010
0100
0010
,
1000
0000
0000
0000
0000
0000
0000
0000
0000
0000
0000
0000
0000
0000
0000
0000
0010
0000
0000
0000
0000
0000
0000
0000
0000
0000
0000
0000
0000
0000
0000
0000
0002
0003
0000
0000
0000
0000
0000
0000
0000
0000
0000
0000
0000
0000
0000
0000
0220
0330
0000
0000
0000
0000
0000
0000
0000
0000
0000
0000
0000
0000
0000
0000
,
1001
0000
0000
0000
0001
0010
0001
0000
,
1000
0010
1000
0000
0001
0100
0001
0000
,
1000
0100
1000
0000
0001
0010
0001
0000
,
1000
0010
1000
0000
0001
0100
0001
0100
,
0010
0000
1000
0100
1000
0100
0010
0000
,
0001
0010
0100
1000
0001
0000
1000
0000
,
0001
0000
0000
0000
0100
0000
0000
0000
0010
0000
0000
0000
2000
0000
0000
3002
0000
0000
1003
0000
0000
0000
0000
0000
,
0100
0000
0010
0100
1000
0000
0001
0000
,
0100
0000
0010
0100
0001
0000
1000
0100
,
0010
0000
0001
0100
0010
0100
0001
1000
,
0100
0010
0001
1000
0001
0000
1000
0000
,
0100
0010
0100
0000
0001
0000
0100
0010
,
0100
0000
0000
0000
0000
0000
1000
0000
0000
0001
0000
0000
0010
0000
0000
0100
0000
0000
1000
0000
0100
0000
1000
0000
,
0001
0000
0100
0000
0001
0000
0010
0000
0100
0000
0100
0000
1000
0000
0000
0000
0000
0000
0100
0000
0000
0010
0000
0000
,
0001
0000
0000
1000
0000
0000
0001
0000
0000
0000
0001
0000
,
0000
0000
0000
0000
0001
0000
0000
0000
0000
0000
0000
0000
0001
0000
0000
0100
0000
0000
0010
0000
0000
1000
0000
0000
,
0010
0000
0000
1000
0000
0000
0100
0000
0000
0000
0100
0000
,
0000
0000
0100
0000
0000
0000
1000
0000
0010
0000
1000
0000
,
0100
0000
0010
0000
0100
0000
0010
0000
0001
0000
0010
0000
,
0001
0000
1000
0000
0001
0000
0100
0000
0010
0000
1000
0000
,
0100
0000
0010
0000
0001
0000
0100
0000
0010
0000
1000
0000
,
0100
0000
0010
0000
0001
0000
0200
0000
0000
0000
0000
0000
,
0000
0000
0000
0000
0000
0000
0000
0300
;

//---------------dance-single - ----------------
#NOTEDATA:;
#STEPSTYPE:dance-single;
#DIFFICULTY:Challenge;
#METER:19;
#DISPLAYBPM:52:420;
#BPMS:0=105,24=210,56=105,64=210,80=420,112=210,113=420,143=105,159=210,187=105,188=420,189=210,189.5=105,190=210,222=105,236=840,244=420,245=210,245.5=105,246=210,278=105,286=210,302=420,365=210,366=420,422=105,423=420,447=210,449=105,450=420,458=210,462=105,464=52.5,465=26.25;
#STOPS:332=0.143,394=0.143,395=0.143;
#NOTES:
0000
0000
0000
0000
,
0000
0000
0000
0000
0000
0000
0000
0000
0000
0000
0000
0000
1000
0100
0010
0001
,
0000
0000
0011
0000
0110
0000
0001
1000
0000
0000
0000
0000
0001
0100
0010
1000
,
0000
0000
0001
0010
0100
0000
1000
0001
0000
0000
0000
0000
1000
0100
0001
0100
,
0000
1000
0010
0000
0110
0000
0100
0001
0000
0001
1000
0000
1001
0000
0001
0010
,
0000
0000
0000
0000
0100
0010
0000
0100
0000
0000
0000
0000
1000
0010
0100
0001
,
0000
0000
0101
0000
0001
1000
0001
1000
,
0000
0000
0000
0000
1000
0100
0110
0010
,
0011
0001
1000
0000
0001
0100
0001
0010
,
0000
0000
0011
0000
0001
1001
1000
0010
,
0110
0100
0001
0000
0001
0010
1000
0010
,
0110
0100
0000
0000
1000
1001
0000
0001
,
1000
0100
0010
0001
0100
0010
1000
0100
,
0010
0001
0010
0100
1000
0001
0100
0001
1000
0010
0100
0010
1000
0001
0010
0100
,
1000
0000
0100
0100
1100
0000
0000
1000
0100
0000
0100
0010
0000
0011
0000
1001
,
0000
0000
0001
0100
1000
0000
0000
1000
0001
0001
0010
1000
0000
1010
0000
1000
,
1100
1100
0000
0000
0110
0110
0000
0000
,
0011
0011
0000
0000
1001
1001
0000
0000
,
0001
0000
0000
0000
1000
0000
0000
1001
,
0000
2000
3200
0320
,
0031
0000
0100
0000
,
0010
0000
1000
0000
,
0100
0000
0000
0100
0000
0000
0010
0000
,
0000
0010
0000
0000
0110
0000
0000
0000
,
0001
0000
0100
0010
1000
0000
0010
0000
,
0100
0001
0010
0000
0100
0000
1000
0001
,
0100
0000
0010
1000
0100
0000
0010
0000
,
0001
0010
0100
1000
0010
0100
0001
0010
,
0200
0301
0000
0100
,
0000
1000
0000
0001
,
0000
0001
0000
0000
1000
0000
0000
1000
,
0000
1001
0000
1000
,
0010
1000
0100
0000
0001
0000
0100
1000
,
0010
0000
0100
0000
1000
0100
0001
0000
,
0101
1000
1010
0001
,
0011
0000
0010
0000
0100
0000
1100
1001
,
1000
0100
0010
0001
1000
0100
0010
0001
1000
0010
0100
0001
1000
0010
0100
0001
1000
0100
0010
0001
1000
0100
0010
0001
1000
0010
0100
0001
0010
0100
1000
0100
,
0010
0000
0000
0001
0000
0000
0100
0000
0000
0001
0000
0000
0010
0000
0000
0100
0000
0000
1000
0000
0000
0001
0000
0000
1000
0000
0000
0000
0000
0000
0000
0000
0000
0000
0000
0000
0001
0000
0010
0000
0001
0000
0010
0000
0001
0000
0010
0000
0100
0000
1000
0000
0100
0000
1000
0000
0100
0000
1000
0000
0001
0000
1000
0000
0001
0000
1000
0000
0001
0000
1000
0000
0001
0000
0000
0000
0000
0000
0000
0000
0000
0000
0000
0000
1001
0000
0000
0000
0000
0000
0000
0000
0000
0000
0000
0000
,
1000
0000
0000
0000
0000
0000
0000
0000
0100
0000
0000
0000
0000
0000
0000
0000
0010
0000
0000
0000
0000
0000
0000
0000
0001
0000
0000
0000
0100
0000
0000
0000
0010
0000
0000
0000
0100
0000
0000
0000
0001
0000
0000
0000
0010
0000
0000
0000
0100
0000
0000
0000
0000
0000
1000
0000
0000
0000
0000
0000
0000
0000
0000
0000
0000
0000
0000
0000
0000
0000
0000
0000
0001
0000
0000
0100
0000
0000
0010
0000
0000
0000
0000
0000
0001
0000
0000
0000
0000
0000
0010
0000
0000
0100
0000
0000
,
0001
0000
1000
0000
0100
0010
1000
0000
0020
0000
0000
0000
0000
0000
0000
0000
0030
0000
0000
0000
0000
0000
0000
0000
0001
0000
0000
0000
0100
0000
0000
0000
,
0010
0000
0100
0000
0001
0000
1000
0100
0000
1000
0100
0000
0010
0000
0001
0000
,
0100
0000
0010
0000
1000
0000
0000
1000
0001
0000
0010
0100
0010
0000
0001
0000
,
1000
0000
0100
0000
0010
0000
0001
0100
0000
0001
0100
0000
0010
0000
1000
0000
,
0100
0000
1000
0000
0010
0000
0100
0001
1000
0000
0100
1000
0001
0000
0010
0000
,
0100
0000
1000
0000
0010
0000
0100
0010
0000
0100
0010
0000
1000
0000
0100
0000
,
0010
0000
0001
0000
1000
0000
0010
0100
0001
0000
0010
0100
1000
0000
0100
0000
,
0001
0000
0000
0000
0100
0000
0000
0000
1000
0000
0000
0000
0001
0000
0100
0000
0000
0000
0001
0000
0100
0000
0000
0000
0001
0010
0100
1000
0001
0010
0100
1000
,
0002
0000
0000
0000
0000
0000
0003
0000
1000
0000
0100
0010
0001
0000
1000
0010
,
0100
0000
0001
0010
0000
0001
0100
0001
0100
0000
0010
1000
0010
0000
0100
0001
,
0100
0010
1000
0010
0100
0001
0010
0100
0010
0000
0001
1000
0100
0000
1000
0001
,
0010
0000
0001
0100
0010
0000
0010
0000
1000
0000
0010
0100
0001
0000
0001
0100
,
0010
0000
1000
0100
0010
0001
0100
0010
1000
0000
1010
0000
1100
0000
0000
0000
,
0001
0011
0101
0000
0011
1001
0011
1000
,
1100
0000
1001
0000
1100
0000
0001
0000
0100
0010
1000
0100
0010
0001
0100
0010
,
0100
0001
1000
0001
0010
0100
1000
0001
0200
0000
0000
0000
0000
0000
0000
0000
,
0000
0000
0000
0300
0002
0000
0000
0000
,
2003
0000
0000
0000
0000
0000
0000
3100
0000
0000
0000
0000
0000
0000
0100
0000
,
0010
0000
0000
0010
0000
0000
0001
0000
1000
0000
0000
0000
0000
0000
1000
0001
,
0000
0000
0000
0000
0000
0000
0001
1000
0000
1000
0001
1000
0001
1000
0001
1000
,
0002
0000
0000
0000
,
0000
0000
0000
0000
,
0003
0000
0001
0001
,
0100
0000
0000
0000
0100
0000
0000
0000
0010
0000
0010
1000
0100
0000
0000
0000
,
0100
0000
0010
0001
0010
0000
0010
0000
,
0100
0000
0000
0000
0100
0000
0000
0000
1000
0000
0001
0010
0100
0000
1000
0000
,
1000
0100
0010
0000
0001
0000
0100
0001
1000
0000
0100
0010
0001
0000
0100
0010
,
1000
0000
0010
0100
0001
0000
1000
0000
0100
0010
0100
0010
0001
1000
0001
1000
,
0010
0100
0010
0100
0001
1000
0100
0010
0001
0100
0001
0010
0100
1000
0010
0100
,
0001
0100
0010
1000
0001
0010
0100
1000
0200
0000
0000
0000
0000
0000
0000
0000
,
0000
0000
0000
0000
0300
0000
0000
0000
0001
0000
0100
0100
0101
0000
0000
0001
,
0100
0000
0100
0010
0000
1010
0000
1001
0000
0000
1000
0100
0001
0000
0000
0001
,
1000
1000
0010
0001
0000
0011
0000
0001
0101
0000
0101
0000
0000
0000
0000
0000
,
0110
0110
0000
0000
1010
1010
0000
0000
,
1001
1001
0000
0000
1000
0000
0000
0000
,
0001
0000
0000
1001
0000
0000
0002
0000
,
0203
0320
1030
0000
,
0001
0000
0100
0000
0010
1000
0100
1000
,
0010
1000
0100
1000
0010
0100
0001
0010
,
0001
0100
0001
0010
0001
0100
0010
1000
,
0001
0000
0010
0000
0100
0000
1000
0000
0100
0000
0010
0000
0001
0000
0000
1000
0000
0000
0100
0000
0000
0010
0000
0000
,
0001
0100
0010
1000
0100
0010
0001
0010
,
0100
1000
0001
0100
0010
1000
0100
0010
,
0001
0100
0010
1000
0002
0000
0000
0000
,
1003
0001
1000
1001
,
0000
0000
0000
0000
0000
0000
0001
0000
0000
0000
0000
0000
0100
0000
0000
0010
0000
0000
1000
0000
0010
0000
1000
0000
,
0010
0000
0000
1000
0000
0000
0001
0000
0010
0000
0001
0000
0010
0000
0000
0001
0000
0000
1000
0000
0100
0000
1000
0000
,
0100
0000
0000
1000
0000
0000
0001
0000
0100
0000
0001
0000
0100
0000
0000
0001
0000
0000
1000
0000
0100
0000
1000
0000
,
0100
0000
0000
1000
0000
0000
0001
0000
0010
0000
0100
0000
0010
0000
0000
0100
0000
0000
1000
0000
0100
0000
0010
0000
,
0100
0000
0000
0010
0000
0000
0001
0000
0010
0000
0100
0000
1000
0000
0000
0001
0000
0000
1000
0000
0100
0000
0010
0000
,
0001
0000
0000
1000
0000
0000
0100
0000
0010
0000
0100
0000
0010
0000
0000
0001
0000
0000
1000
0000
0000
0000
0000
0000
,
0000
0200
0000
0320
,
0000
0030
1001
0000
,
0001
0010
0100
1000
0100
0010
0001
0100
,
0010
1000
0010
0100
0001
0100
0010
1000
,
0001
0100
0001
0100
0001
0100
0010
1000
0010
1000
0010
1000
,
0001
0010
0001
0010
0001
0010
0100
1000
0100
1000
0100
1000
,
0001
0100
0001
0100
0010
1000
0001
0100
0001
0100
0010
1000
,
0001
0010
0010
0010
,
1000
0000
0000
0000
0000
0000
0000
0000
0000
0000
0000
0000
0000
0000
0000
0000
0100
0000
0000
0000
0000
0000
0000
0000
0000
0000
0000
0000
0000
0000
0000
0000
2200
3300
0000
0000
0000
0000
0000
0000
0000
0000
0000
0000
0000
0000
0000
0000
0022
0033
0000
0000
0000
0000
0000
0000
0000
0000
0000
0000
0000
0000
0000
0000
,
1001
0000
0000
0000
0001
0100
0010
1000
,
0001
1000
0001
0000
0100
0000
0001
0000
1000
0001
1000
0000
0100
0000
1000
0000
,
0001
1000
0001
0000
0100
0000
0001
0000
1000
0001
1000
0000
0100
0000
1000
0000
,
0001
1000
0001
0000
0100
0000
0001
0000
1000
0000
0100
0000
0010
0000
0001
0000
,
1000
0010
0100
0001
0010
0100
1000
0001
,
0100
0010
1000
0100
0010
0000
0110
0000
,
0001
0000
0000
0000
0100
0000
0000
0000
0010
0000
0000
0000
2000
0000
0000
3002
0000
0000
1003
0000
0000
0000
0000
0000
,
1100
0000
0100
0010
0001
0000
0100
0000
,
0101
0000
0100
0010
1000
0000
0001
0010
,
0100
1000
0100
0010
0001
1000
0010
0100
,
0001
0000
0000
0100
0000
0000
0010
0000
0000
1000
0000
0000
0001
0000
0000
1000
0000
0000
0001
0000
0100
0000
0010
0000
,
0100
0001
1000
0100
0010
0001
1000
0100
1000
0001
0100
0010
,
1000
0001
1000
0100
0010
0001
0100
0010
1000
0001
0010
0010
,
0100
0000
1000
0000
1000
0000
0001
0000
0001
0100
0010
0000
0110
0000
0000
0000
0000
0000
1000
0000
0000
0010
0000
0000
,
0001
0000
0000
0010
0000
0000
1000
0000
0000
0000
1010
0000
,
0000
0000
0000
0000
0000
0000
0000
0000
1001
0000
0000
0000
0000
0000
0000
0000
0000
0000
0000
0000
0000
0000
0000
0000
0001
0000
0000
0010
0000
0000
0001
0000
0000
0100
0000
0000
0010
0000
0000
0000
0000
0000
1000
0000
0000
0000
0000
0000
,
1100
0000
0000
0000
0000
0000
0000
0000
0000
0000
0000
0000
0000
0000
0000
0000
1000
0000
0000
0000
0000
0000
0000
0000
0100
0000
0000
0000
0000
0000
0000
0000
1000
0000
0000
0000
0000
0000
0000
0000
0000
0000
0000
0000
0000
0000
0000
0000
0001
0000
0000
0100
0000
0000
1000
0000
0000
0100
0000
0000
0001
0000
0000
0000
0010
0000
0000
0000
0100
0000
0000
0000
1000
0000
0000
0100
0000
0000
0001
0000
0000
0100
0000
0000
1000
0000
0000
0000
0010
0000
0000
0000
0100
0000
0000
0000
,
0001
0000
0000
0000
0100
0000
0000
0000
0010
0000
0000
0000
1000
0000
0000
0000
0010
0000
0000
0000
0100
0000
0000
0000
0101
0000
0000
0000
0001
0000
0000
0000
1000
0000
0000
0000
1100
0000
0000
0000
0100
0000
0000
0000
0010
0000
0000
0000
2002
0000
0000
0000
0000
0000
0000
0000
0000
0000
0000
0000
0000
0000
0000
3003
0000
0000
0000
0000
0000
0000
0000
0000
0000
0000
0000
0000
0000
0000
0000
0000
0000
0000
0000
0000
0000
0000
0000
0000
0000
0000
0000
0000
0000
0000
0000
0000
0000
0000
0000
0000
0000
0000
0000
0000
0000
0000
0000
0000
0000
0000
0000
0000
0000
0000
0000
0000
0000
0000
0000
0000
0000
0000
0000
0000
0000
0000
0000
0000
0000
0000
0000
0000
0000
0000
0000
0000
0000
0000
0000
0000
0000
0000
0000
0000
0000
0000
0000
0000
0000
0000
0000
0000
0000
0000
0000
0000
0000
0000
0000
0000
0000
0000
0000
0000
0000
0000
0000
0000
0000
0000
0000
0000
0000
0000
0000
0000
0000
0000
0000
0000
0000
0000
0000
0000
0000
0000
0000
0000
0000
0000
0000
0000
;

//---------------dance-double - ----------------
#NOTEDATA:;
#STEPSTYPE:dance-double;
#DIFFICULTY:Easy;
#METER:7;
#NOTES:
00000000
00000000
00000000
00000000
,
00000000
00000000
00000000
00000000
,
00000000
00000000
00000000
00000000
,
00000000
00000000
00000000
00000000
,
00000000
00000000
00000000
00000000
,
00000000
00000000
00000000
00000000
,
00000000
00000000
00000000
00000000
,
00000000
00000000
00000000
00000000
,
00000000
00000000
00000000
00000000
,
00000000
00000000
00000000
00000000
,
00000000
00000000
00000000
00000000
,
00000000
00000000
00000000
00000000
,
00002000
00000000
00000000
00000000
,
00000000
00000000
00003000
00000000
,
00020000
00000000
00000000
00000000
,
00000000
00000000
00030000
00000000
,
00200000
00000000
00000000
00000000
,
00000000
00000000
00300000
00000000
,
20000000
00000000
00000000
00000000
,
00000000
00000000
30000000
00000000
,
10000000
01000000
10000000
00000000
,
00010000
00000000
00100000
00000000
,
00010000
01000000
00010000
00000000
,
01000000
00000000
00001000
00000000
,
00010000
00001000
00010000
00000000
,
00001000
00010000
00001000
00000000
,
00010000
00000000
00000000
00000000
00001000
00000000
00000000
00000010
,
00000000
00000001
00000100
00000010
,
00001000
00000000
00000100
00000000
,
00010000
00000000
00001000
00000000
,
00100000
00000000
00001000
00000000
,
00010000
00001000
00010000
00000000
,
00001000
00000000
01000000
00000000
,
00010000
00000000
01000000
00000000
,
00010000
00000000
00100000
00000000
,
00001000
00010000
00001000
00000000
,
00011000
00000000
00010000
00000000
,
00000100
00000000
00000010
00000000
,
00000110
00000000
00000100
00000000
,
00010000
00000000
00001000
00000000
,
00011000
00000000
00010000
00000000
,
00100000
00000000
01000000
00000000
,
01100000
00000000
00100000
00000000
,
10000000
00000000
00000000
00000000
,
20000000
00000000
00000000
30000000
,
10000000
00000000
01000000
00000000
,
00200000
00000000
00000000
00300000
,
00100000
00000000
00001000
00000000
,
00020000
00000000
00000000
00030000
,
00010000
00000000
00000100
00000000
,
00001000
00000010
00001000
00000000
,
00000001
00000000
00000000
00000000
,
00000002
00000000
00000000
00000003
,
00000001
00000000
00000100
00000000
,
00000020
00000000
00000000
00000030
,
00000010
00000000
00010000
00000000
,
00002000
00000000
00000000
00003000
,
00001000
00000000
01000000
00000000
,
00010000
00100000
00010000
01000000
,
00100000
00000000
00000000
00000000
,
20000000
00000000
00000000
00000000
,
30000000
00000000
00000000
00000000
,
02000000
00000000
00000000
00000000
,
03000000
00000000
00000000
00000000
,
00020000
00000000
00000000
00000000
,
00030000
00000000
00000000
00000000
,
00002000
00000000
00000000
00000000
,
00003000
00000000
00000000
00000000
,
00010000
00001000
00010000
00000000
,
00000100
00001000
00000100
00000000
,
00000010
00000001
00000010
00000000
,
00000001
00001000
00000001
00000000
,
00001000
00000100
00010000
00000000
,
00001000
00010000
00001000
00000000
,
00022000
00000000
00000000
00000000
,
00000000
00000000
00033000
00000000
,
00010000
00001000
00100000
00000000
,
00010000
00000000
00010000
00000000
,
10000000
01000000
00100000
00000000
,
00010000
00000000
00010000
00000000
,
00100000
00001000
00010000
00000000
,
00001000
00010000
00000100
00000000
,
00001000
00000000
00000000
00000000
00000100
00000000
00000000
00000010
,
00000000
00000001
00001000
00000001
,
00001000
00000000
00000110
00000000
,
00000001
00000000
00000110
00000000
,
00000001
00000100
00000010
00010000
,
00002000
00000000
00000000
00003000
,
00001000
00100000
00010000
00000000
,
01000000
00100000
10000000
00000000
,
10000000
01000000
00100000
00001000
,
00010000
00000100
00001000
00000000
,
00000001
00000100
00000010
00000000
,
00001000
00000010
00000100
00000000
,
00000001
00000100
00001000
00010000
,
00100000
01000000
00100000
00000000
,
10000000
00000000
01000000
01000000
,
00100000
00100000
00010000
00000000
,
00100000
00100000
00001000
00001000
,
00020000
00000000
00000000
00030000
,
00010000
00001000
00010000
00000100
,
00001000
00000010
00000100
00000001
,
00000010
00000100
00000010
00001000
,
00010000
00001000
00010000
00000000
,
00011000
00000000
00001000
00000000
,
00010000
00000000
01000000
00000000
,
10000000
00000000
00100000
00000000
,
01000000
00000000
00000000
00000000
,
10010000
00000000
00000000
00000000
;

//---------------dance-double - ----------------
#NOTEDATA:;
#STEPSTYPE:dance-double;
#DIFFICULTY:Medium;
#METER:16;
#DISPLAYBPM:105:420;
#BPMS:0=105,24=210,56=105,64=210,80=420,112=210,113=420,143=105,159=210,187=105,188=420,189=210,189.5=105,190=210,222=105,236=840,244=420,245=210,245.5=105,246=210,278=105,286=210,302=420,365=210,366=420,422=105,423=420,447=210,449=105,450=420,482=840,486=420,487=210,487.5=105;
#STOPS:332=0.143,394=0.143,395=0.143;
#NOTES:
00000000
00000000
00000000
00000000
,
00000000
00000000
00000000
00000000
00000000
00000000
00000000
00000000
00000000
00000000
00000000
00000000
00001000
00000000
00010000
00001000
,
00000000
00000000
00100000
00000000
00010000
00000000
01000000
00100000
00000000
00000000
00000000
00000000
00100000
00000000
10000000
01000000
,
00000000
00000000
00100000
00000000
00010000
00000000
00100000
00001000
00000000
00000000
00000000
00000000
00001000
00000000
00010000
00001000
,
00000000
00000000
00000010
00000000
00000001
00000000
00001000
00000010
00000000
00000010
00000100
00000000
00000001
00000000
00000000
00001001
,
00000000
00000000
00000000
00000000
00000001
00000100
00000000
00001000
00000000
00000000
00000000
00000000
00000000
00000000
00000000
00000000
,
00010000
00001000
00010000
00001000
,
01000000
00000000
00010000
00000000
00100000
01000000
00100000
00000000
,
00010000
10000000
00010000
10000000
,
01000000
00000000
00100000
00000000
00001000
00010000
00001000
00000000
,
00020000
00030100
00000200
00001300
,
00002000
00003010
00000020
00000130
,
00000001
00000010
00001000
00010000
,
01000000
00000000
10000000
00000000
01000000
00100000
01000000
00000000
,
20000000
00000000
00010000
00000000
30010000
00000000
00000000
00010000
00100000
00000000
00001000
00010000
00000000
00000100
00000000
00001000
,
00000000
00000000
00000010
00000100
00000010
00000000
00000000
00000100
00000001
00000000
00000010
00000100
00000000
00010000
00000000
00001000
,
00000000
00001000
00011000
00000000
,
00010000
00001000
00100000
00010000
00000000
01000000
00000000
00000000
,
00100000
00000000
00000000
00000000
10000000
00000000
00000000
10010000
,
00000000
20000000
32000000
03200000
,
00310000
00000000
10000000
00000000
,
01000000
00000000
00010000
00000000
,
00001000
00000000
00000000
00000010
00000000
00000000
00001000
00000000
,
00000000
00010000
00000000
00000000
00001000
00000000
00000000
00000000
,
00000100
00000001
00000010
00000010
,
00000100
00001000
00001000
00000010
,
00000100
00001000
00010000
00100000
,
20000000
00000000
30010000
00000000
,
02200000
03300000
00000000
00000000
00000000
00000000
00000000
00000000
00000000
00000000
00000000
00000000
00000000
00000000
00000000
00000000
10010000
00000000
00000000
00000000
00000000
00000000
00000000
00000000
00000000
00000000
00000000
00000000
00000000
00000000
00000000
00000000
00000000
00000000
00000000
00000000
00000000
00000000
00000000
00000000
00000000
00000000
00000000
00000000
00000000
00000000
00000000
00000000
00010000
00000000
00000000
00000000
00000000
00000000
00000000
00000000
00000000
00000000
00000000
00000000
00000000
00000000
00000000
00000000
,
00000000
00100000
00000000
00001000
,
00000000
00010000
00000000
00000000
01000000
00000000
00000000
00010000
,
00000000
00001000
00000000
00000010
,
00000100
00000100
00010000
00001000
,
00001000
00000100
00000010
00010000
,
00001000
00000010
00001000
00010000
,
01000000
00000000
00010000
00000000
00001000
00000000
00020000
00030000
,
00001000
00100000
00010000
01000000
00001000
00100000
00010000
01000000
00001000
00100000
00001000
00000000
00010000
00000010
00001000
00000100
,
00010000
00000010
00001000
00000100
00010000
00000000
00002000
00000000
00003200
00000000
00002300
00000000
00023000
00000000
00030000
00000000
,
00010000
00000000
00000000
00000000
00000100
00000000
00000000
00000000
00000010
00000000
00000000
00000000
00000002
00000000
00000000
00000000
00000000
00000000
00000000
00000000
00000000
00000000
00000000
00000000
00002003
00000000
00000000
00000000
00000000
00000000
00000000
00000000
00000000
00000000
00000000
00000000
00003001
00000000
00000000
00000010
00000000
00000000
00000100
00000000
00000000
00000001
00000000
00000000
,
00000100
00000010
00000001
00001000
00000200
00000000
00000000
00000000
00000300
00000000
00000000
00000000
00000100
00000000
00010000
00000000
,
00000100
00010000
00001000
00010000
00001000
00100000
00010000
01000000
,
00100000
00000000
10000000
01000000
00100000
00000000
00010000
10000000
,
01000000
00100000
00010000
01000000
00100000
00000000
00010000
00001000
,
00000100
00000000
00000001
00001000
00000010
00000000
00000100
00000010
,
00001000
00000010
00000100
00000001
00000010
00000100
00001000
00000100
,
00010000
00001000
00100000
00010000
01000000
00000000
00010000
10000000
,
00100000
01000000
00100000
00010000
00001000
00000000
00022000
00000000
,
00000000
00000000
00000000
00033000
00001000
00010000
00000010
00001000
,
00000010
00000100
00000001
00000000
00000010
00000100
00000010
00001000
,
00010000
00001000
00010000
00000000
01000000
00100000
00010000
01000000
,
00100000
00010000
00001000
00000000
00010000
00100000
10000000
00010000
,
01000000
00100000
10000000
00000000
01000000
00000000
01100000
00000000
,
00100000
00101000
00001000
00011000
,
00010000
00000000
00011000
00000000
00001000
00010000
00000100
00001000
,
00000010
00000100
00001000
00010000
00002000
00000000
00000000
00000000
,
00003000
00000000
00020000
00030000
,
00011000
00000000
00000000
00000000
00000000
00000000
00000000
00001000
00000000
00000000
00000000
00000000
00000000
00000000
00001000
00000000
,
00010000
00000000
00000000
01000000
00000000
00000000
10000000
00000000
00010000
00000000
00000000
00000000
00000000
00000000
10000000
01000000
,
00000000
00000000
00000000
00000000
00000000
00000000
01000000
00010000
00000000
00001000
00010000
00001000
00010000
00001000
00010000
00001000
,
00020000
00000000
00000000
00000000
,
00000000
00000000
00000000
00000000
,
00000000
00000000
00000000
00030000
00010000
00000000
00001000
00000000
,
00010000
00000000
00001000
00000000
00000010
00000001
00000010
00000000
,
00000001
00000000
00000001
00000100
00000010
00000000
00001000
00000000
,
00000010
00000000
00010000
00000000
00001000
00000000
00000000
00010000
,
00000000
00000000
00011000
00000000
00010000
00001000
00100000
00000000
,
00010000
01000000
00100000
00000000
10000000
01000000
00100000
00000000
,
00010000
00100000
01000000
00000000
00100000
00010000
00100000
00001000
,
00010000
00000010
00001000
00000001
00000200
00000000
00000000
00000000
,
00000000
00000000
00000000
00000000
00000300
00000000
00000000
00000000
00000002
00000000
00001000
00000000
00001003
00000000
00000000
00001000
,
00000010
00000000
00010000
00001000
00000000
01000000
00000000
00010000
00000000
00000000
00100000
01000000
00100000
00000000
00000000
01000000
,
10000000
00000000
00100000
01000000
00000000
00001000
00000000
00010000
00000000
00000000
00000000
00000000
00010000
00000000
00000000
00000000
,
00011000
00000000
00000000
00000000
00001000
00010000
00000010
00001000
,
00000000
00000100
00000000
00000000
00000010
00000000
00000000
00000000
,
00000001
00000000
00000000
00001001
00000000
00000000
00000002
00000000
,
00000203
00000320
00001030
00000000
,
00000001
00000100
00000010
00001000
,
00000010
00001000
00010000
01000000
,
00010000
01000000
00100000
10000000
,
00100000
00000000
10000000
01000000
,
00100000
00010000
00001000
00000100
,
00000010
00000000
00000001
00000000
00000100
00000010
00001000
00000000
,
00000100
00000010
00000001
00000000
00002000
00000000
00000000
00000000
,
00000002
00003003
00000000
00000000
00000000
00000000
00000000
00000000
00000000
00000000
00000000
00000000
00000000
00000000
00000000
00000000
00001000
00000000
00000000
00000000
00000000
00000000
00000000
00000000
00000000
00000000
00000000
00000000
00000000
00000000
00000000
00000000
00000000
00000000
00000000
00000000
00000000
00000000
00000000
00000000
00000000
00000000
00000000
00000000
00000000
00000000
00000000
00000000
00001001
00000000
00000000
00000000
00000000
00000000
00000000
00000000
00000000
00000000
00000000
00000000
00000000
00000000
00000000
00000000
,
00000000
00000001
00000100
00001000
,
00010000
00100000
10000000
01000000
,
00010000
00001000
00000010
00000001
,
00000000
00000100
00000000
00000110
,
00000000
00000001
00000010
00001000
,
00010000
01000000
10000000
00100000
,
00010000
00002000
00000000
00023000
,
00000000
00030000
00011000
00000000
,
00001000
00010000
00100000
01000000
,
00100000
00010000
00001000
00000010
,
00000100
00000010
00001000
00010000
,
00001000
00010000
01000000
00010000
,
00001000
00000100
00001000
00010000
,
00100000
00010000
00001000
00010000
,
00100000
00000000
00000000
00000000
00000000
00000000
00000000
00000000
00000000
00000000
00000000
00000000
00000000
00000000
00000000
00000000
00010000
00000000
00000000
00000000
00000000
00000000
00000000
00000000
00000000
00000000
00000000
00000000
00000000
00000000
00000000
00000000
00002000
00003000
00000000
00000000
00000000
00000000
00000000
00000000
00000000
00000000
00000000
00000000
00000000
00000000
00000000
00000000
00020000
00030000
00000000
00000000
00000000
00000000
00000000
00000000
00000000
00000000
00000000
00000000
00000000
00000000
00000000
00000000
,
00011000
00000000
00000000
00000000
00010000
00001000
00010000
00000000
,
00000010
00000000
00001000
00000000
00000100
00000010
00000100
00000000
,
00000010
00000000
00000001
00000000
00000100
00000010
00000100
00000000
,
00001000
00000000
00010000
00000000
00100000
01000000
00100000
00000000
,
10000000
00000000
01000000
00100000
01000000
00000000
00100000
00000000
,
00010000
01000000
00010000
00000000
01000000
00000000
00001000
00000000
,
00010000
00000000
00000000
00000000
00001000
00000000
00000000
00000000
00000010
00000000
00000000
00000000
00000002
00000000
00000000
00001000
00000000
00000000
00001003
00000000
00000000
00000000
00000000
00000000
,
00000010
00000000
00000100
00001000
00010000
00000000
00100000
00000000
,
01000000
00000000
00010000
10000000
01000000
00000000
00100000
00000000
,
00001000
00000000
00010000
00001000
00010000
00000000
00000100
00001000
,
00000100
00000000
00000010
00000001
00000010
00000000
00000001
00000000
,
00000010
00001000
00010000
01000000
,
10000000
00000000
00000000
00010000
00000000
00000000
00000000
00000000
00000000
10000000
01000000
00100000
,
00001000
00000000
00010000
00000000
00000100
00000000
00002000
00000000
00000000
00000000
00000000
00000000
00003001
00000000
00000000
00000000
00000000
00000000
00000010
00000000
00000000
00000100
00000000
00000000
,
00001000
00000000
00000000
00000100
00000000
00000000
00010000
00000000
00000000
00000000
00001000
00000000
,
00000000
00000000
00000000
00000000
00010000
00000000
00000000
00000000
00000000
00000000
00000000
00000000
00001000
00000000
00000000
01000000
00000000
00000000
00010000
00000000
00000000
01000000
00000000
00000000
,
00100000
00000000
00000000
10000000
00000000
00000000
01000000
00000000
00000000
00000000
00100000
00000000
,
00000000
00000000
01000000
00000000
00000000
00000000
00010000
00000000
00001000
00000000
00010000
00000000
,
00001000
00000000
00000000
00000000
00001000
00000000
00010000
00000000
00000010
00000000
00001000
00000000
,
00000010
00000000
00000000
00000000
00000010
00000000
00000100
00000000
00000001
00000000
00000010
00000000
,
00000100
00000000
00010000
00000000
00001000
00000000
00100000
00000000
00000000
00000000
01000000
00000000
,
00000000
00000000
10000000
00000000
00000000
00000000
00020000
00000000
00000000
00000000
00000000
00000000
,
00000000
00000000
00000000
00000000
00000000
00000000
00000000
00030000
;

//---------------dance-double - ----------------
#NOTEDATA:;
#STEPSTYPE:dance-double;
#DIFFICULTY:Hard;
#METER:17;
#DISPLAYBPM:105:420;
#BPMS:0=105,24=210,56=105,64=210,80=420,112=210,113=420,143=105,159=210,187=105,188=420,189=210,189.5=105,190=210,222=105,236=840,244=420,245=210,245.5=105,246=210,278=105,286=210,302=420,365=210,366=420,422=105,423=420,447=210,449=105,450=420,482=840,486=420,487=210,487.5=105;
#STOPS:332=0.143,394=0.143,395=0.143;
#NOTES:
00000000
00000000
00000000
00000000
,
00000000
00000000
00000000
00000000
00000000
00000000
00000000
00000000
00000000
00000000
00000000
00000000
00001000
00010000
00001000
00010000
,
00000000
00000000
00001000
00000000
01001000
00000000
01000000
00010000
00000000
00000000
00000000
00000000
00010000
00100000
01000000
10000000
,
00000000
00000000
10000000
00010000
10000000
00000000
01000000
00010000
00000000
00000000
00000000
00000000
00001000
00010000
00001000
00010000
,
00000000
00000100
00001000
00000000
00000100
00000000
00000100
00000010
00000000
00000001
00001000
00000000
00000010
00000000
00000100
00000010
,
00000000
00000000
00000000
00000000
00001000
00000001
00000000
00001000
00000000
00000000
00001001
00000000
00000000
00000110
00000000
00000000
,
00000001
00000100
00000001
00000100
00000010
00000100
00000010
00000000
,
00001000
00000010
00001000
00000010
00010000
00001000
00010000
00000000
,
00001000
00100000
00001000
00100000
00010000
00100000
00010000
00000000
,
00100000
01000000
10000000
00010000
10000000
01000000
00100000
00000000
,
00010000
10000000
01000000
00100000
00010000
00000000
00100000
00000000
,
00001000
00010000
00000010
00001000
00000010
00000100
00000000
00000100
,
00000001
00000010
00000001
00000010
00000100
00001000
00000100
00010000
,
00001000
00000000
00100000
00010000
00100000
00000000
00010000
01000000
00010000
00000000
01000000
00100000
01000000
00000000
00100000
10000000
,
00100000
00000000
01000000
00000000
01100000
00000000
00000000
10000000
00010000
00000000
10000000
01000000
00000000
00010000
00000000
00011000
,
00000000
00000000
00001000
00010000
00000010
00000000
00000000
00000010
00001000
00000000
00000100
00000010
00000000
00000010
00000000
00000010
,
00000001
00000101
00000000
00000000
00000100
00000110
00000000
00000000
,
00000010
00010010
00000000
00000000
00010000
00011000
00000000
00000000
,
00001000
00000000
00000000
00000000
00010000
00000000
00000000
00100000
,
00000000
20000000
30200000
02300000
,
03010000
10000000
01000000
00100000
,
00001000
00010000
00000100
00001000
,
00000010
00000000
00000000
00000110
00000000
00000000
00000100
00000000
,
00000000
00000101
00000000
00000000
00000001
00000000
00001000
00000000
,
00000100
00000000
00000010
00000100
00000010
00000000
00001000
00000000
,
00010000
00001000
00010000
00000000
00001000
00000000
00010000
00000000
,
00100000
00000000
01000000
00100000
10000000
00000000
00100000
01000000
,
00010000
00000000
00100000
00000000
01000000
00100000
01000000
00100000
,
02000000
03100000
00000000
00010000
,
10000000
01000000
00000000
00100000
,
00000000
00101000
00000000
00000000
00001000
00000000
00000000
00011000
,
00000000
00010000
00001000
00000010
,
00000100
00000010
00000100
00000000
00001000
00000000
00000001
00001000
,
00000001
00000000
00000100
00000000
00000010
00000100
00000010
00000000
,
00000100
00001000
00010000
00100000
,
10000000
00000000
00010000
00000000
00000000
00000000
20020000
30030000
,
10000000
01000000
10000000
01000000
10000000
01000000
10000000
01000000
00100000
00010000
00100000
00010000
00100000
00010000
00100000
00010000
00100000
00000000
00001000
00000000
00010000
00000000
00000000
00000000
00001000
00010000
00001000
00010000
00001000
00010000
00001000
00010000
,
00000010
00001000
00000010
00001000
00000010
00001000
00000010
00001000
00000010
00000000
00000000
00000000
00002000
00000000
00000000
00000000
00003002
00000000
00000000
00000000
00000023
00000000
00000000
00000000
00000230
00000000
00000000
00000000
00000300
00000000
00000000
00000000
,
00001000
00000000
00000000
00000000
00000000
00000000
00000000
00000000
00000001
00000000
00000000
00000000
00000000
00000000
00000000
00000000
00000100
00000000
00000000
00000000
00000000
00000000
00000000
00000000
00001000
00000000
00000000
00000000
00010000
00000000
00000000
00000000
00001000
00000000
00000000
00000000
01000000
00000000
00000000
00000000
00010000
00000000
00000000
00000000
01000000
00000000
00000000
00000000
00020000
00000000
00000000
00000000
00000000
00000000
00000000
00000000
00000000
00000000
00000000
00000000
00030000
00000000
00000000
00000000
00000000
00000000
00000000
00000000
00000000
00000000
00000000
00000000
10000000
00000000
00000000
01000000
00000000
00000000
00100000
00000000
00000000
00000000
00000000
00000000
00010000
00000000
00000000
00000000
00000000
00000000
00100000
00000000
00000000
00001000
00000000
00000000
,
00010000
00000000
00000010
00000000
00001000
00000001
00000100
00000000
00000002
00000000
00000000
00000000
00000000
00000000
00000000
00000000
00000003
00000000
00000000
00000000
00000000
00000000
00000000
00000000
00000001
00000000
00000000
00000000
00000010
00000000
00000000
00000000
,
00000100
00000000
00001000
00000000
00000100
00000000
00010000
00001000
00000000
00010000
00001000
00000000
00100000
00000000
00010000
00000000
,
01000000
00000000
00000000
00000000
00100000
00000000
00000000
00100000
10000000
00000000
00010000
10000000
00010000
00000000
10000000
00000000
,
01000000
00000000
00100000
00000000
00010000
00000000
00100000
00001000
00000000
00100000
00001000
00000000
00010000
00000000
00000100
00000000
,
00001000
00000000
00000000
00000000
00000010
00000000
00000100
00000010
00000100
00000000
00000001
00001000
00000001
00000000
00000010
00000000
,
00000100
00000000
00010000
00000000
00001000
00000000
00000100
00000010
00000000
00000100
00000010
00000000
00000100
00000000
00001000
00000000
,
00010000
00000000
00000000
00000000
00100000
00000000
10000000
00100000
10000000
00000000
00010000
01000000
00010000
00000000
10000000
00000000
,
01000000
00000000
00010000
00000000
00001000
00000000
00000010
00000100
00000000
00000010
00000001
00000000
00002000
00000000
00000000
00000000
,
00000002
00000000
00000000
00003003
00000001
00000010
00000100
00001000
,
00000100
00000000
00010000
00001000
00000000
00010000
00001000
00000000
01000000
00000000
00010000
00000000
00100000
00000000
00000000
00000000
,
00010000
00000000
00000000
00010000
10000000
00000000
00100000
01000000
00100000
00000000
10000000
00000000
01000000
00000000
00010000
00000000
,
00001000
00000000
00010000
00001000
00000000
00010000
00001000
00000000
00000010
00000000
00000001
00000000
00000100
00000000
00000001
00000000
,
00000010
00000000
00000100
00000010
00000100
00000000
00001000
00000001
00001000
00000000
00000010
00000000
00001010
00000000
00000000
00000000
,
00000010
00010000
00011000
00000000
00001000
01000000
01010000
00010000
,
00100000
00000000
01000000
00000000
01100000
00000000
00000000
00000000
10000000
01000000
00100000
00000000
00010000
01000000
00001000
00000000
,
00010000
00001000
00010000
00000100
00001000
00000100
00000010
00000001
00000020
00000000
00000000
00000000
00000000
00000000
00000000
00000000
,
00000030
00000000
00000002
00000003
,
00001001
00000000
00000000
00000000
00000000
00000000
00000000
00000001
00000000
00000001
00000100
00000000
00001000
00000000
00010000
00001000
,
00010000
00000000
00000000
00010000
00000000
00000000
00001000
00000000
00011000
00000000
00000000
00000000
00000000
00000000
01000000
01100000
,
00000000
00000000
00000000
00000000
00000000
00000000
10000000
10010000
00000000
10000000
01000000
00100000
00010000
00001000
00000100
00000010
,
00000002
00000000
00000000
00000000
,
00000000
00000000
00000000
00000000
,
00000000
00000000
00000000
00000003
00000001
00000010
00000001
00000010
,
00000100
00000000
00001000
00000000
00000100
00000000
00000000
00000000
00000100
00000000
00010000
00001000
00010000
00000000
00000000
00000000
,
00001000
00000000
00011000
00001000
00010000
00001000
00010000
00001000
,
01000000
00000000
00010000
00000000
01000000
00000000
00000000
00000000
00010000
00000000
00100000
01000000
00100000
00000000
01000000
00000000
,
10000000
00010000
10000000
00000000
00010000
00000000
00000000
00000000
10000000
00000000
01000000
00100000
00010000
00000000
00100000
00001000
,
00010000
00000000
00001000
00010000
00000100
00000000
00001000
00000000
00000010
00000000
00000100
00000001
00001000
00000000
00000100
00010000
,
00001000
00000000
00100000
00010000
00100000
00000000
01000000
00000000
10000000
00000000
00100000
00000000
00010000
00000000
00001000
00000000
,
00000100
00000000
00000001
00000000
00000010
00000000
00000100
00000000
00001000
00000100
00001000
00000100
00010000
00001000
00010000
00001000
,
00100000
00010000
00100000
01000000
00100000
00010000
10000000
00000000
01000000
00000000
00100000
00000000
01100000
00000000
00000000
10000000
,
00010000
00000000
10000000
00100000
00000000
00010000
00000000
00011000
00000000
00000000
00001000
00010000
00000100
00000000
00000000
00000100
,
00001000
00000000
00000010
00000100
00000000
00000100
00000000
00000100
00000001
00000000
00000011
00000000
00000000
00000000
00000000
00000000
,
00000010
00000110
00000000
00000000
00000100
00010100
00000000
00000000
,
00010000
00011000
00000000
00000000
00001000
00000000
00000000
00000000
,
00010000
00000000
00000000
01000000
00000000
00000000
20000000
00000000
,
32000000
03200000
00310000
00000000
,
00010000
00000000
00100000
00000000
00001000
00000000
00010000
00001000
,
00010000
00000000
00000100
00000010
00000100
00000000
00010000
00001000
,
00010000
00000000
00100000
01000000
00100000
00000000
00010000
00001000
,
00010000
00000000
00000010
00000100
00000010
00000000
00001000
00000000
,
00000001
00000100
00001000
00010000
,
00100000
00000000
10000000
00000000
01000000
00100000
01000000
00000000
,
00010000
00001000
00010000
00000000
00002000
00000000
00000000
00000000
,
00020000
00033000
00000000
00000000
00000000
00000000
00000000
00000000
00000000
00000000
00000000
00000000
00000000
00000000
00000000
00000000
00010000
00000000
00000000
00000000
00000000
00000000
00000000
00000000
00000000
00000000
00000000
00000000
00000000
00000000
00000000
00000000
00001000
00000000
00000000
00000000
00000000
00000000
00000000
00000000
00000000
00000000
00000000
00000000
00000000
00000000
00000000
00000000
00011000
00000000
00000000
00000000
00000000
00000000
00000000
00000000
00000000
00000000
00000000
00000000
00000000
00000000
00000000
00000000
,
00000000
00000000
00010000
00000000
00000100
00001000
00000100
00000000
,
00000010
00000001
00000010
00000000
00000001
00001000
00000001
00000000
,
00001000
00000010
00001000
00000000
00000010
00010000
00000010
00000000
,
00010000
00001000
00010000
00000000
00001000
00000000
00011000
00000000
,
00000000
00000000
00001000
00000000
00100000
00010000
00100000
00000000
,
00010000
01000000
00010000
00000000
01000000
00100000
01000000
00000000
,
00100000
20000000
00000000
30020000
,
00000000
00030000
10010000
00000000
,
10000000
00000000
01000000
00100000
00010000
00000000
00100000
00001000
,
00010000
00000000
00000100
00001000
00000001
00000000
00000100
00000010
,
00001000
00000000
00000010
00010000
00001000
00000000
00100000
01000000
,
00010000
00000000
01000000
00100000
00001000
00000000
00010000
00000100
,
00000010
00000000
00000100
00010000
00001000
00000000
01000000
00100000
,
00010000
00001000
00010000
01000000
,
00010000
00000000
00000000
00000000
00000000
00000000
00000000
00000000
00000000
00000000
00000000
00000000
00000000
00000000
00000000
00000000
00001000
00000000
00000000
00000000
00000000
00000000
00000000
00000000
00000000
00000000
00000000
00000000
00000000
00000000
00000000
00000000
00000020
00000030
00000000
00000000
00000000
00000000
00000000
00000000
00000000
00000000
00000000
00000000
00000000
00000000
00000000
00000000
00002002
00003003
00000000
00000000
00000000
00000000
00000000
00000000
00000000
00000000
00000000
00000000
00000000
00000000
00000000
00000000
,
00000110
00000000
00000000
00000000
00000001
00000010
00000100
00000000
,
00001000
00000010
00000100
00000000
00000001
00000010
00000100
00000000
,
00010000
00001000
00010000
00000000
00100000
01000000
00010000
00000000
,
00100000
01000000
10000000
00000000
01000000
00100000
00010000
00100000
,
01000000
00000000
00100000
00001000
00010000
00001000
00100000
00000000
,
00001000
00010000
00000100
00001000
00000100
00000000
00000010
00000000
,
00000001
00000000
00000000
00000000
00000100
00000000
00000000
00000000
00000001
00000000
00000000
00000000
00000020
00000000
00000000
00000230
00000000
00000000
00001300
00000000
00000000
00000000
00000000
00000000
,
00000100
00000000
00010000
00001000
00100000
00000000
00010000
00000000
,
01000000
00000000
10000000
01000000
00100000
00000000
10000000
01000000
,
00100000
00000000
00010000
00100000
00001000
00000000
00010000
00000100
,
00001000
00000100
00000010
00000001
00001000
00000000
00000001
00000100
,
00000001
00000100
00000010
00000000
00001000
00000100
00001000
00000100
,
00010000
00000000
00000000
00000000
00000000
00000000
00001000
00000000
00000000
00100000
00000000
00000000
00010000
00000000
00000000
00100000
00000000
00000000
00001000
00000000
00010000
00000000
00001000
00000000
,
01000000
00000000
00010000
00000000
01000000
00000000
00100000
00000000
10000000
00000000
10000000
00000000
00010000
00000000
00000000
00000000
00000000
00000000
10000000
00000000
00000000
01000000
00000000
00000000
,
00100000
00000000
00000000
00000000
00000000
00000000
00001000
00000000
00000000
00000000
00001000
00000000
,
00000000
00000000
00000000
00000000
00001000
00000000
00000000
00000000
00000000
00000000
00000000
00000000
00010000
00000000
00000000
00000010
00000000
00000000
00001000
00000000
00000000
00000010
00000000
00000000
,
00000100
00000000
00000000
00000000
00000000
00000000
00000001
00000000
00000000
00000000
00000001
00000000
,
00000000
00000000
00000001
00000000
00000000
00000000
00000010
00000000
00000100
00000000
00010000
00000000
,
00001000
00000000
00000000
00000000
00001000
00000000
00100000
00000000
00010000
00000000
01000000
00000000
,
00100000
00000000
00000000
00000000
00100000
00000000
01000000
00000000
00010000
00000000
10000000
00000000
,
01000000
00000000
00010000
00000000
00001000
00000000
00000010
00000000
00000001
00000000
00001000
00000000
,
00000100
00000000
00000010
00000000
00000001
00000000
00002000
00000000
00000000
00000000
00000000
00000000
,
00000000
00000000
00000000
00000000
00000000
00000000
00000000
00003000
;

//---------------dance-double - ----------------
#NOTEDATA:;
#STEPSTYPE:dance-double;
#DIFFICULTY:Challenge;
#METER:19;
#DISPLAYBPM:52:420;
#BPMS:0=105,24=210,56=105,64=210,80=420,112=210,113=420,143=105,159=210,187=105,188=420,189=210,189.5=105,190=210,222=105,236=840,244=420,245=210,245.5=105,246=210,278=105,286=210,302=420,365=210,366=420,422=105,423=420,447=210,449=105,450=420,458=210,462=105,464=52.5,465=26.25;
#STOPS:332=0.143,394=0.143,395=0.143;
#NOTES:
00000000
00000000
00000000
00000000
,
00000000
00000000
00000000
00000000
00000000
00000000
00000000
00000000
00000000
00000000
00000000
00000000
00001000
00010000
00001000
01000000
,
00000000
00000000
00010000
00000000
01010000
00000000
01000000
00100000
00000000
00000000
00000000
00000000
00100000
10000000
01000000
00100000
,
00000000
00000000
00100000
00001000
00100000
00000000
00001000
00010000
00000000
00000000
00000000
00000000
00010000
00001000
00000010
00000001
,
00000000
00000001
00001000
00000000
00000010
00000000
00000100
00001000
00000000
00001000
00000100
00000000
00000001
00000000
00000010
00000100
,
00000000
00000000
00000000
00000000
00000100
00010000
00000000
00001000
00000000
00000000
00000000
00000000
00010000
00001000
00010000
00001000
,
00000000
00000000
00011000
00000000
00001000
01000000
00010000
01000000
,
00000000
00000000
00000000
00000000
00010000
00100000
01000000
10000000
,
00000000
00000000
00100000
01000000
00100000
00000000
10000000
00010000
,
00000000
00000000
00110000
00000000
00100000
00001000
00010000
00000100
,
00000000
00001000
00000100
00000000
00000010
00000001
00000100
00000001
,
00000000
00001000
00000000
00000000
00000001
00000100
00000000
00000100
,
00000010
00001000
00000010
00001000
00010000
01000000
00010000
01000000
,
00010000
00100000
01000000
10000000
00010000
01000000
00010000
01000000
00001000
00010000
00001000
00100000
00010000
00100000
01000000
10000000
,
00010000
00000000
10000000
01000000
00010000
00000000
00010000
00001000
00000010
00000000
00000010
00000001
00000000
00000011
00000000
00001001
,
00000000
00000000
00000001
00000100
00001000
00000000
00001000
00010000
00100000
10000000
00010000
01000000
00000000
01100000
00000000
00100000
,
10100000
10100000
00000000
00000000
01010000
01010000
00000000
00000000
,
00001010
00001010
00000000
00000000
00000101
00000101
00000000
00000000
,
00000001
00000000
00000000
00000000
00001000
00000000
00000000
00011000
,
00000000
00020000
20030000
30020000
,
10030000
00000000
01000000
00000000
,
00010000
00000000
00001000
00000000
,
00000100
00000000
00000000
00001000
00000000
00000000
00010000
00000000
,
00000000
00100000
00000000
00000000
00010000
00000000
00001000
00000000
,
00010000
00000000
00001000
00010000
00001000
00000000
00010000
00000000
,
01000000
00010000
01000000
00000000
00010000
00000000
00001000
00000010
,
00001000
00000000
00010000
00001000
00010000
00000000
00100000
00010000
,
00100000
00000000
10000000
00100000
10000000
00010000
10000000
00010000
,
20000000
30010000
00000000
10000000
,
00000000
00100000
00000000
00010000
,
00000000
00001000
00000000
00000000
00000100
00000000
00000000
00000001
,
00000000
00001000
00000100
00001000
,
00000010
00001000
00000010
00000000
00010000
00000000
00001000
00010000
,
00001000
00000000
01000000
00000000
00010000
00100000
00010000
00000000
,
00010000
00100000
00100000
00001000
,
00001000
00000000
00000010
00000000
00000010
00000000
00000001
00000011
,
00000001
00000010
00000001
00000000
00001000
00000100
00001000
00000000
00000100
00010000
00000100
00000000
00010000
00001000
00010000
00000000
00001000
00100000
00001000
00000000
00100000
00010000
00100000
00000000
01000000
00100000
01000000
00000000
00100000
00001000
00010000
00000000
,
00100000
01000000
00100000
00000000
10000000
00010000
01000000
00100000
10000000
00000000
00000000
00000000
02000000
00000000
00000000
00000000
03020000
00000000
00000000
00000000
00032000
00000000
00000000
00000000
00013000
00000000
00000000
00000000
00011000
00000000
00000000
00000000
,
00010000
00000000
00000000
00000000
00000000
00000000
00000000
00000000
00001000
00000000
00000000
00000000
00000000
00000000
00000000
00000000
00000010
00000000
00000000
00000000
00000000
00000000
00000000
00000000
00000001
00000000
00000000
00000000
00000100
00000000
00000000
00000000
00000010
00000000
00000000
00000000
00001000
00000000
00000000
00000000
00000100
00000000
00000000
00000000
00000010
00000000
00000000
00000000
00000001
00000000
00000000
00000000
00000000
00000000
00001000
00000000
00000000
00000000
00000000
00000000
00000000
00000000
00000000
00000000
00000000
00000000
00000000
00000000
00000000
00000000
00000000
00000000
00000001
00000000
00000000
00000100
00000000
00000000
00000010
00000000
00000000
00000000
00000000
00000000
00001000
00000000
00000000
00000000
00000000
00000000
00000010
00000000
00000000
00010000
00000000
00000000
,
00000010
00000000
00010000
00000000
00001000
00100000
00001000
00000000
00200000
00000000
00000000
00000000
00000000
00000000
00000000
00000000
00300000
00000000
00000000
00000000
00000000
00000000
00000000
00000000
00100000
00000000
00000000
00000000
00010000
00000000
00000000
00000000
,
10000000
00000000
00100000
00000000
01000000
00000000
00100000
10000000
00000000
00100000
10000000
00000000
01000000
00000000
00010000
00000000
,
00001000
00000000
00000000
00000000
00001000
00000000
00000000
00000010
00000001
00000000
00001000
00000001
00001000
00000000
00000010
00000000
,
00000100
00000000
00000000
00000000
00000001
00000000
00001000
00000001
00000000
00001000
00000001
00000000
00000010
00000000
00000100
00000000
,
00001000
00000000
00000100
00000000
00010000
00000000
00000100
00010000
00000100
00000000
00010000
00001000
00010000
00000000
00001000
00000000
,
01000000
00000000
00010000
00000000
00100000
00000000
00010000
01000000
00000000
00010000
01000000
00000000
00100000
00000000
00010000
00000000
,
00001000
00000000
00000000
00000000
00001000
00000000
00000000
00010000
01000000
00000000
10000000
01000000
00100000
00000000
00010000
00000000
,
00100000
00000000
00000000
00000000
00001000
00000000
00000000
00000000
00010000
00000000
00000000
00000000
00000100
00000000
00001000
00000000
00000000
00000000
00000100
00000000
00010000
00000000
00000000
00000000
00010000
00001000
00010000
00000000
00000100
00001000
00000100
00000000
,
00002000
00000000
00000000
00000000
00000000
00000000
00003000
00000000
00000001
00000000
00000100
00001000
00010000
00000000
00100000
10000000
,
01000000
00000000
00010000
01000000
00000000
00100000
00010000
01000000
00100000
00000000
01000000
00100000
00010000
00000000
00001000
00010000
,
00001000
00000000
00010000
00000000
00000100
00000000
00001000
00000000
00000010
00000000
00010000
00001000
00010000
00000000
00001000
00100000
,
00010000
00000000
00100000
01000000
10000000
00000000
00010000
00000000
10000000
00000000
01000000
00000000
00010000
00000000
00000000
00000000
,
00001000
00000000
00000010
00000100
00001000
00000001
00001000
00000000
00000001
00000000
00001000
00000000
00001100
00000000
00000000
00000000
,
00000100
00010000
00011000
00000000
00101000
00110000
00101000
00100000
,
00110000
00000000
01100000
00000000
11000000
00000000
01000000
00000000
10000000
01000000
00100000
00001000
00010000
00000100
00001000
00000010
,
00000100
00000001
00000010
00000100
00010000
00001000
01000000
00010000
20000000
00000000
00000000
00000000
00000000
00000000
00000000
00000000
,
00000000
00000000
00000000
30000000
00020000
00000000
00000000
00000000
,
20030000
00000000
00000000
00000000
00000000
00000000
00000000
31000000
00000000
00000000
00000000
00000000
00000000
00000000
01000000
00000000
,
00100000
00000000
00000000
00100000
00000000
00000000
00001000
00000000
00010000
00000000
00000000
00000000
00000000
00000000
00010000
00000100
,
00000000
00000000
00000000
00000000
00000000
00000000
00000100
00001000
00000000
00001000
00000010
00001000
00000010
00000100
00000010
00000100
,
00000020
00000000
00000000
00000000
,
00000000
00000000
00000000
00000000
,
00000030
00000000
00000010
00001000
,
00010000
00000000
00000000
00000000
01000000
00000000
00000000
00000000
00100000
00000000
00100000
10000000
01000000
00000000
00000000
00000000
,
01000000
00000000
00010000
00001000
00000010
00000000
00001000
00000000
,
00010000
00000000
00000000
00000000
00100000
00000000
00000000
00000000
01000000
00000000
10000000
01000000
00010000
00000000
00100000
00000000
,
01000000
00010000
01000000
00000000
00010000
00000000
00001000
00010000
00001000
00000000
00010000
00000100
00000010
00000000
00000001
00001000
,
00000010
00000000
00000100
00001000
00010000
00000000
00100000
01000000
00001000
00000000
00010000
01000000
00100000
00000000
00010000
10000000
,
00100000
00000000
00010000
00001000
00000100
00000000
00000010
00001000
00000100
00010000
00001000
00010000
00001000
00100000
00001000
00010000
,
00000100
00001000
00000100
00010000
00001000
00010000
00001000
00100000
00020000
00000000
00000000
00000000
00000000
00000000
00000000
00000000
,
00000000
00000000
00000000
00000000
00030000
00000000
00000000
00000000
00010000
00000000
10000000
00100000
00010000
00000000
00010000
00001000
,
00000100
00000000
00000100
00000001
00000000
00000101
00000000
00001001
00000000
00000000
00000001
00000010
00001000
00000000
00001000
00010000
,
01000000
10000000
00010000
00100000
00000000
01100000
00000000
01000000
11000000
00000000
11000000
00000000
00000000
00000000
00000000
00000000
,
00110000
00110000
00000000
00000000
00001100
00001100
00000000
00000000
,
00000011
00000011
00000000
00000000
00000001
00000000
00000000
00000000
,
00001000
00000000
00000000
00011000
00000000
00000000
00020000
00000000
,
20030000
30020000
10030000
00000000
,
00010000
00000000
00000000
00000000
00100000
00010000
00100000
01000000
,
00100000
00010000
00100000
00001000
00010000
00000100
00001000
00000100
,
00000010
00000100
00001000
00000100
00010000
00001000
00010000
00000010
,
00001000
00000000
00000010
00000000
00001000
00000000
00000010
00000000
00000000
00000000
00000000
00000000
00001000
00000000
00000000
00000001
00000000
00000000
00000100
00000000
00000000
00001000
00000000
00000000
,
00010000
00100000
01000000
00010000
00100000
01000000
00010000
00001000
,
00100000
00001000
00010000
00000100
00010000
00001000
00100000
00010000
,
00100000
01000000
00100000
00001000
00020000
00000000
00000000
00000000
,
00031000
00010000
00001000
00011000
,
00000000
00000000
00010000
00001000
00000010
00000100
00001000
00000010
,
00000100
00001000
00000100
00000010
00001000
00000100
00000010
00001000
,
00010000
01000000
00100000
00010000
01000000
00100000
00010000
00100000
,
01000000
00010000
00100000
01000000
00010000
00001000
00000100
00000010
,
00001000
00000100
00000010
00001000
00000010
00000100
00001000
00000010
,
00000100
00001000
00010000
00100000
01000000
00010000
00100000
00000000
,
00000000
01000000
00000000
10000000
,
00000000
00000000
10010000
00000000
,
00010000
01000000
00100000
00010000
00001000
00010000
00001000
00010000
,
00000100
00001000
00000010
00000100
00000010
00001000
00000010
00001000
,
00000100
00010000
00001000
00010000
00001000
00100000
00010000
01000000
,
00010000
01000000
00010000
01000000
00000000
00000000
00001000
00100000
00001000
00100000
00000000
00000000
,
00000100
00010000
00000100
00010000
00000000
00000000
00000100
00001000
00000001
00000010
00000000
00000000
,
00000100
00000100
00001000
00001000
,
00000001
00000000
00000000
00000000
00000000
00000000
00000000
00000000
00000000
00000000
00000000
00000000
00000000
00000000
00000000
00000000
00000100
00000000
00000000
00000000
00000000
00000000
00000000
00000000
00000000
00000000
00000000
00000000
00000000
00000000
00000000
00000000
00000202
00000303
00000000
00000000
00000000
00000000
00000000
00000000
00000000
00000000
00000000
00000000
00000000
00000000
00000000
00000000
00002020
00003030
00000000
00000000
00000000
00000000
00000000
00000000
00000000
00000000
00000000
00000000
00000000
00000000
00000000
00000000
,
00001001
00000000
00000000
00000000
00000001
00000100
00001000
00000000
,
00010000
00100000
01000000
00000000
00001000
00010000
01000000
00000000
,
00010000
00001000
00000100
00000000
00000010
00001000
00000100
00000000
,
00010000
00001000
01000000
00000000
00100000
00010000
00001000
00010000
,
00001000
00000000
00000010
00001000
00010000
00001000
00010000
00000000
,
00001000
00010000
00001000
00100000
00010000
00000000
10000000
00000000
,
01000000
00000000
00000000
00000000
00010000
00000000
00000000
00000000
00001000
00000000
00000000
00000000
00000020
00000000
00000000
00000032
00000000
00000000
00001003
00000000
00000000
00000000
00000000
00000000
,
00001100
00000000
00000100
00010000
00001000
00000000
00100000
00000000
,
00110000
00000000
00010000
01000000
00100000
00000000
00010000
00001000
,
00010000
00000000
00000100
00000010
00000100
00000000
00010000
00001000
,
00010000
00000000
00000000
00000000
00000000
00000000
00100000
00000000
00000000
01000000
00000000
00000000
00100000
00000000
00000000
00000000
00000000
00000000
10000000
00000000
00100000
00000000
10000000
00000000
,
00100000
00000000
00000000
01000000
00000000
00000000
00010000
00000000
00000000
00000000
00000000
00000000
01000000
00000000
00001000
00000000
01000000
00000000
00001000
00000000
00000000
00010000
00000000
00000000
,
00001000
00000000
00000000
00000000
00000000
00000000
00010000
00000000
00000000
00000100
00000000
00000000
00001000
00000000
00000000
00000100
00000000
00000000
00000010
00000000
00000001
00000000
00000010
00000000
,
00000100
00000000
00010000
00000000
00001000
00000000
00000100
00000000
00000010
00000100
00000010
00000000
00000110
00000000
00000000
00000000
00000000
00000000
00000001
00000000
00000000
00000100
00000000
00000000
,
00001000
00000000
00000000
00010000
00000000
00000000
00100000
00000000
00000000
00000000
10100000
00000000
,
00000000
00000000
00000000
00000000
00000000
00000000
00000000
00000000
10010000
00000000
00000000
00000000
00000000
00000000
00000000
00000000
00000000
00000000
00000000
00000000
00000000
00000000
00000000
00000000
10000000
00000000
00000000
01000000
00000000
00000000
00100000
00000000
00000000
00001000
00000000
00000000
00010000
00000000
00000000
00000000
00000000
00000000
00001000
00000000
00000000
00000000
00000000
00000000
,
00000100
00000000
00000000
00000000
00000000
00000000
00000000
00000000
00000000
00000000
00000000
00000000
00000000
00000000
00000000
00000000
00000010
00000000
00000000
00000000
00000000
00000000
00000000
00000000
00000100
00000000
00000000
00000000
00000000
00000000
00000000
00000000
00000001
00000000
00000000
00000000
00000000
00000000
00000000
00000000
00000000
00000000
00000000
00000000
00000000
00000000
00000000
00000000
00000001
00000000
00000000
00000010
00000000
00000000
00000100
00000000
00000000
00010000
00000000
00000000
00001000
00000000
00000000
00000000
01000000
00000000
00000000
00000000
00010000
00000000
00000000
00000000
10000000
00000000
00000000
01000000
00000000
00000000
00100000
00000000
00000000
00010000
00000000
00000000
00100000
00000000
00000000
00000000
00001000
00000000
00000000
00000000
00010000
00000000
00000000
00000000
,
00000100
00000000
00000000
00000000
00000010
00000000
00000000
00000000
00000001
00000000
00000000
00000000
00000100
00000000
00000000
00000000
00001000
00000000
00000000
00000000
00010000
00000000
00000000
00000000
00001100
00000000
00000000
00000000
00010000
00000000
00000000
00000000
00001000
00000000
00000000
00000000
01010000
00000000
00000000
00000000
00001000
00000000
00000000
00000000
00010000
00000000
00000000
00000000
00022000
00000000
00000000
00000000
00000000
00000000
00000000
00000000
00000000
00000000
00000000
00000000
00000000
00000000
00000000
00033000
00000000
00000000
00000000
00000000
00000000
00000000
00000000
00000000
00000000
00000000
00000000
00000000
00000000
00000000
00000000
00000000
00000000
00000000
00000000
00000000
00000000
00000000
00000000
00000000
00000000
00000000
00000000
00000000
00000000
00000000
00000000
00000000
00000000
00000000
00000000
00000000
00000000
00000000
00000000
00000000
00000000
00000000
00000000
00000000
00000000
00000000
00000000
00000000
00000000
00000000
00000000
00000000
00000000
00000000
00000000
00000000
00000000
00000000
00000000
00000000
00000000
00000000
00000000
00000000
00000000
00000000
00000000
00000000
00000000
00000000
00000000
00000000
00000000
00000000
00000000
00000000
00000000
00000000
00000000
00000000
00000000
00000000
00000000
00000000
00000000
00000000
00000000
00000000
00000000
00000000
00000000
00000000
00000000
00000000
00000000
00000000
00000000
00000000
00000000
00000000
00000000
00000000
00000000
00000000
00000000
00000000
00000000
00000000
00000000
00000000
00000000
00000000
00000000
00000000
00000000
00000000
00000000
00000000
00000000
00000000
00000000
00000000
00000000
00000000
00000000
00000000
00000000
00000000
;
