
//----- song ID: sits -----//
#TITLE:Stars In The Sky;
#ARTIST:Kid Cudi;
#BANNER:Stars In The Sky.png;
#BACKGROUND:Stars In The Sky-bg.png;
#CDTITLE:./CDTitles/DDR WORLD.png;
#MUSIC:Stars In The Sky.ogg;
#SAMPLESTART:52.728;
#SAMPLELENGTH:15;
#BPMS:0=132;
#NOTES:
     dance-single:
     :
     Beginner:
     1:
     :
0000
0000
0000
0000
,
0000
0000
0000
0000
,
0000
0000
0000
0000
,
0000
0000
0000
0000
,
0000
0000
0000
0000
,
1000
0000
0000
0000
,
1000
0000
0000
0000
,
1000
0000
0000
0000
,
1000
0000
0000
0000
,
0001
0000
0000
0000
,
0001
0000
0000
0000
,
0001
0000
0000
0000
,
0001
0000
0000
0000
,
1000
0000
0000
0000
,
1000
0000
0000
0000
,
0001
0000
0000
0000
,
0001
0000
0000
0000
,
1000
0000
0000
0000
,
0001
0000
0000
0000
,
1000
0000
0000
0000
,
0001
0000
0000
0000
,
2000
0000
3000
0000
,
0000
0000
0000
0000
,
2000
0000
3000
0000
,
0000
0000
0000
0000
,
0002
0000
0003
0000
,
0000
0000
0000
0000
,
0002
0000
0003
0000
,
0000
0000
0000
0000
,
1000
0000
0000
0000
,
1000
0000
0000
0000
,
2000
0000
3000
0000
,
0000
0000
0000
0000
,
0001
0000
0000
0000
,
0001
0000
0000
0000
,
0002
0000
0003
0000
,
0000
0000
0000
0000
,
1000
0000
0000
0000
,
0001
0000
0000
0000
,
1000
0000
0000
0000
,
0000
0000
0000
0000
,
0001
0000
0000
0000
,
1000
0000
0000
0000
,
0001
0000
0000
0000
,
0000
0000
0000
0000
,
1000
0000
0000
0000
,
0010
0000
0000
0000
,
1000
0000
0000
0000
,
0000
0000
0000
0000
,
0001
0000
0000
0000
,
0010
0000
0000
0000
,
0001
0000
0000
0000
,
0000
0000
0000
0000
,
1000
0000
0000
0000
,
0000
0000
0000
0000
,
0001
0000
0000
0000
,
0000
0000
0000
0000
,
1000
0000
0000
0000
,
0000
0000
0000
0000
,
0010
0000
0000
0000
,
0000
0000
0000
0000
;
#NOTES:
     dance-single:
     :
     Easy:
     5:
     :
0000
0000
0000
0000
,
0000
0000
0000
0000
,
0000
0000
0000
0000
,
0000
0000
0000
0000
,
0000
0000
0000
0000
,
1000
0000
0100
0000
,
1000
0000
0000
0000
,
0001
0000
0010
0000
,
0001
0000
0000
0000
,
1000
0001
1000
0000
,
0010
0100
0010
0000
,
0100
0010
0100
0000
,
0001
1000
0001
1000
,
0001
0000
0010
0000
,
0100
0000
1000
0000
,
0001
0100
0010
0000
,
1000
0100
0010
0000
,
0001
1000
0100
0000
,
1000
0001
0100
0000
,
0001
1000
0000
0000
,
1000
0001
0000
0000
,
2000
3001
0002
1003
,
2000
3001
1000
0001
,
2000
0010
0000
3010
,
0020
0100
0000
0130
,
0200
0310
0020
0130
,
0002
1003
2000
3001
,
0020
0030
0200
0300
,
2000
3000
0001
0001
,
1000
0100
0010
0000
,
0001
0100
0010
0000
,
2000
0000
3010
0100
,
0002
0000
0013
0100
,
1000
1000
0100
0010
,
0001
0001
0100
0010
,
2000
0000
3100
0010
,
0002
0000
0103
0010
,
1000
0100
1000
0000
,
0001
0010
0001
0000
,
1000
0001
0100
0010
,
1000
0100
0020
0030
,
0001
0100
0001
0000
,
1000
0010
1000
0000
,
0002
0003
2000
3000
,
0001
0100
0020
0030
,
0200
0000
0301
1000
,
0020
0000
1030
0001
,
1000
0100
0010
0100
,
1000
0001
0200
0300
,
0000
0020
0030
1000
,
0200
0000
2300
0000
,
3002
0000
0000
0000
,
1003
0010
0100
0001
,
1000
0000
0100
0000
,
0010
0000
0001
0000
,
0100
0000
0010
0000
,
1000
0000
0001
0000
,
1000
0000
1000
0000
,
0010
0000
0010
0000
,
0100
0000
0100
0000
,
0001
0000
0001
0000
,
0000
0000
0000
0000
;
#NOTES:
     dance-single:
     :
     Medium:
     10:
     :
0000
0000
0000
0000
,
0000
0000
0000
0000
,
0000
0000
0000
0000
,
0000
0000
0000
0000
,
0000
0000
0000
0000
,
1000
0000
0001
0000
1000
0001
0100
0000
,
0001
0000
1000
0000
0001
1000
0100
0000
,
2000
0000
3000
0001
0010
0001
0010
0100
,
0000
0100
0000
0000
1000
0100
0010
0001
,
1000
0000
1000
0000
0001
0010
0001
0000
,
0010
0000
0010
0000
0100
0010
0100
0010
,
0001
0000
0100
2000
0000
3000
0100
0000
,
0001
0000
0010
2000
0000
3000
0010
0000
,
0001
1000
0100
0000
0010
0001
0100
0010
,
0200
0000
0000
0300
0001
0010
0100
1000
,
0001
0000
2000
0000
0000
3000
0010
0100
,
0020
0000
0000
0030
1000
0100
0010
0100
,
1000
1000
0001
0001
,
0200
0000
0000
0300
0001
0010
0100
1000
,
0001
0000
0001
0000
1000
0100
1000
0000
,
0100
0100
0010
0010
,
0000
0000
0001
0010
0001
0010
0000
0000
,
0000
0100
1000
0100
1000
0000
0010
0000
,
1000
0000
0010
0100
0020
0000
0000
0000
,
2030
3020
0230
0000
,
0300
0000
0001
0100
0001
0100
0000
0000
,
0000
0010
1000
0010
1000
0000
0100
0000
,
1000
0000
0010
0100
0020
0000
0000
0000
,
2030
3200
0320
0000
,
0031
0000
1000
0000
0001
0010
0100
0000
,
1000
0000
0001
0000
1000
0010
0100
0000
,
0001
0000
0001
0000
1000
0100
1000
0100
,
0010
0000
0010
0000
0001
0010
0001
0010
,
0100
0000
1000
0100
0010
0000
0001
0000
,
1000
0000
0001
0100
0010
0000
1000
0000
,
0002
0100
0203
0010
,
0310
1000
0010
0100
0000
0000
1001
0000
,
0001
0010
0001
0010
0100
0000
1000
0100
,
0000
0100
1000
0100
0010
0100
1000
0001
,
0200
0000
0320
0000
1030
0100
1000
0000
,
0002
0000
0023
0000
0230
0000
0000
0300
,
0000
1000
0010
1000
0010
0100
0001
0100
,
0000
0020
0000
0130
0200
0000
0301
0010
,
0002
0010
0023
0100
,
0130
1000
0100
0010
0001
0000
1000
0000
,
0002
0010
0100
1003
,
2000
0100
0010
3001
,
0000
0001
0010
0001
0020
0000
0000
0030
,
0200
0000
2300
0000
3002
0000
0000
0003
,
1000
0000
0001
0000
0100
0010
1000
0000
,
0001
0000
1000
0000
0100
0010
0001
0000
,
1000
0100
1000
0100
0010
0001
0010
0000
,
0002
0000
0023
0000
0130
2000
0000
0000
,
3001
0000
1000
0000
,
0100
0010
0001
0000
,
1000
0000
0001
0000
,
0100
0010
1000
0000
,
0001
0000
0001
0000
,
0010
0000
0010
0000
,
0100
0000
0100
0000
,
1000
0000
1000
0000
,
0000
0000
0000
0000
;
#NOTES:
     dance-single:
     :
     Hard:
     13:
     :
0000
0000
0000
0000
,
0000
0000
0000
0000
,
0000
0000
0000
0000
,
0000
0000
0000
0000
,
0000
0000
0000
0000
,
1000
0000
0000
0001
0100
0010
1000
0010
,
0002
0000
0013
0000
1000
0100
0001
0100
,
2000
0000
3100
0010
0001
0010
0100
2000
,
0000
3002
0000
0003
1000
0010
1000
0100
,
0010
0000
0000
0000
0000
0000
0010
0000
0001
0000
0100
0000
0001
0000
1000
0100
,
1000
0000
0000
0000
0010
0000
0000
0000
1000
0000
0100
0000
1000
0000
0001
0100
,
0001
0000
0001
0010
0000
0010
1000
0010
,
0001
0000
0001
0100
0000
0100
1000
0100
,
0001
0001
0100
0000
0010
0010
1000
0000
,
0002
0000
0000
0000
0010
0000
0000
0000
0103
0000
0001
0000
0010
0000
0100
0010
,
0100
1000
0001
0000
0100
0000
0001
0100
,
0020
0000
0001
0000
0130
0010
1000
0010
,
1000
1000
0100
0000
0010
0010
0001
0000
,
2000
0000
0000
0000
0100
0000
0000
0000
3001
0000
0010
0000
0100
0000
1000
0100
,
1000
0001
0010
0000
0100
1000
0010
0000
,
0110
1010
0101
0110
,
1001
0000
1000
0100
0010
0110
0000
0000
,
1001
0001
0100
1000
0100
0010
0100
0001
,
0101
0000
0000
0000
1000
0000
0100
0000
0001
0000
0100
0010
0000
0000
0000
0000
,
0011
0110
2200
3300
,
1001
0000
0001
0100
0001
1010
0000
0000
,
1001
1000
0100
0001
0100
0010
0100
1000
,
1100
0000
0000
0000
0001
0000
0100
0000
1000
0000
0100
0010
0000
0000
0000
0000
,
2000
3010
0002
0013
0220
0000
0330
0000
,
1001
0000
0001
0100
1000
0100
0001
0100
,
0101
0000
1000
0100
0001
0100
0010
0100
,
0210
0000
0001
0000
0010
0000
1300
0001
,
2001
0010
0100
3001
,
1001
0000
1000
0010
0001
0010
1000
0010
,
1010
0000
0001
0010
1000
0010
0100
0010
,
2100
3010
0102
0013
,
0001
0100
0001
0100
0010
1000
0010
1000
0001
1000
0001
1000
0001
0010
0001
0010
,
0001
0000
1000
0100
0001
0100
0010
0001
,
0000
0001
0100
1000
0100
0010
0100
0001
,
0101
0000
0000
0000
1010
0000
0000
0000
0010
0000
1000
0100
0000
0000
0010
0000
,
0002
1003
0020
0130
0202
0000
0000
0303
,
0000
0001
0010
1000
0010
0100
1000
0001
,
0000
1000
0010
0001
0010
0100
0001
1000
,
0002
0000
2000
3003
,
1000
0100
1000
0100
0010
0001
0010
0001
1000
0001
1000
0001
1000
0010
1000
0010
,
2000
0000
0010
0000
0001
0000
3100
0200
,
1000
0000
0010
0320
0000
0000
0031
0000
,
0000
0001
0010
0100
2000
0100
3100
0000
,
0002
0103
2000
3010
0220
0000
0330
0000
,
1000
0100
0001
0100
1000
0010
0100
0000
,
0001
0100
1000
0100
0001
0010
0100
0000
,
2010
3100
0012
0103
,
0001
0010
0001
0010
0100
1000
0100
1000
0001
1000
0001
1000
0001
0010
0001
0010
,
0001
0000
1000
0000
0010
0001
0010
1000
,
0000
0100
0000
0010
0000
0001
0000
0100
,
0010
0000
1000
0000
0100
0001
0100
1000
,
0000
0010
0000
0100
0000
0001
0100
1000
,
0100
0000
0001
0000
0010
0100
1000
0001
,
0000
0100
0000
0010
0000
1000
0000
0100
,
0010
0000
0001
0000
0100
0010
1000
0001
,
0000
0010
0000
0100
0000
1000
0100
0001
,
0000
0000
0000
0000
;
#NOTES:
     dance-double:
     :
     Easy:
     5:
     :
00000000
00000000
00000000
00000000
,
00000000
00000000
00000000
00000000
,
00000000
00000000
00000000
00000000
,
00000000
00000000
00000000
00000000
,
00000000
00000000
00000000
00000000
,
10000000
00000000
01000000
00000000
,
00100000
00000000
00001000
00000000
,
00010000
00000000
00000100
00000000
,
00000010
00000000
00000000
00000000
,
00000001
00000100
00000010
00000000
,
00001000
00000100
00010000
00000000
,
00001000
01000000
00010000
00000000
,
10000000
00010000
10000000
00010000
,
00100000
00000000
00001000
00000000
,
00010000
00000000
00000100
00000000
,
00010000
00001000
00010000
00000000
,
00001000
00010000
00000100
00000000
,
00010000
00001000
01000000
00000000
,
00010000
01000000
00001000
00000000
,
00010000
00001000
00000000
00000000
,
00010000
00001000
00000000
00000000
,
00020000
00001000
00000000
00030100
,
00000200
00000010
00000000
00001300
,
00002000
00000001
00000000
00003010
,
00000020
00001000
00000000
00001030
,
00002000
00000000
00003200
00000000
,
00020300
00000000
00032000
00000000
,
00203000
00000000
02300000
00000000
,
23000000
00000000
30010000
00010000
,
10000000
01000000
00100000
00000000
,
00100000
00001000
00010000
00000000
,
00020000
00000000
00030100
00010000
,
00002000
00000000
01003000
00010000
,
10000000
10000000
01000000
00100000
,
00001000
00001000
00010000
00000100
,
00000020
00000000
00000031
00000100
,
00000002
00000000
00001003
00000000
,
00000001
00000100
00000010
00000000
,
00000010
00001000
00000100
00000000
,
00000100
00010000
00001000
01000000
,
00010000
10000000
00200000
00000000
,
10300000
00010000
01000000
00000000
,
00001000
00100000
00010000
00000000
,
00020000
00000000
00230000
00000000
,
00301000
00010000
00001000
00000000
,
00020000
00000000
00030100
00000010
,
00000002
00000000
00000103
00000010
,
00001000
00000100
00010000
00001000
,
00100000
00010000
20000000
00000000
,
30000000
00200000
00000000
10300000
,
02000000
00000000
03200000
00000000
,
00302000
00000000
00000000
00000000
,
00013000
00000010
00000100
00000001
,
00001000
00000000
00000100
00000000
,
00010000
00000000
00001000
00000000
,
00100000
00000000
00010000
00000000
,
10000000
00000000
01000000
00000000
,
00100000
00000000
00100000
00000000
,
00001000
00000000
00001000
00000000
,
00010000
00000000
00010000
00000000
,
00000100
00000000
00000100
00000000
,
00000000
00000000
00000000
00000000
;
#NOTES:
     dance-double:
     :
     Medium:
     10:
     :
00000000
00000000
00000000
00000000
,
00000000
00000000
00000000
00000000
,
00000000
00000000
00000000
00000000
,
00000000
00000000
00000000
00000000
,
00000000
00000000
00000000
00000000
,
10000000
00000000
00010000
00000000
10000000
00010000
01000000
00000000
,
00001000
00000000
00010000
00000000
00000010
00001000
00000100
00000000
,
00002000
00000000
00003000
00000001
00000010
00000100
00001000
00000100
,
00000000
00000100
00000000
00000000
00010000
00001000
00100000
00010000
,
01000000
00000000
00010000
00000000
10000000
01000000
10000000
00000000
,
01000000
00000000
01000000
00000000
00100000
00001000
00010000
00001000
,
00010000
00000000
00000100
00002000
00000000
00003000
00000010
00000000
,
00001000
00000000
00000100
00000020
00000000
00000030
00000001
00000000
,
00001000
00000010
00000100
00000000
00000010
00001000
00000100
00010000
,
00002000
00000000
00000000
00003000
00010000
00100000
01000000
00100000
,
10000000
00000000
00200000
00000000
00000000
00300000
10000000
01000000
,
20000000
00000000
00000000
30000000
01000000
00100000
00010000
00100000
,
01000000
00100000
00001000
00001000
,
00020000
00000000
00000000
00030000
00001000
00000010
00000100
00000010
,
00000001
00000000
00000001
00000000
00001000
00000010
00000100
00000000
,
00000010
00001000
00010000
01000000
,
00000000
00000000
00100000
01000000
00100000
01000000
00000000
00000000
,
00000000
01000000
00010000
01000000
00010000
00000000
00100000
00000000
,
00001000
00000000
00010000
00001000
00020000
00000000
00000000
00000000
,
00030200
00000320
00000032
00000000
,
00000003
00000000
00000010
00000100
00000010
00000100
00000000
00000000
,
00000000
00000100
00001000
00000100
00001000
00000000
00000010
00000000
,
00010000
00000000
00001000
00010000
00002000
00000000
00000000
00000000
,
02003000
03200000
20300000
00000000
,
30010000
00000000
10000000
00000000
00010000
00100000
00001000
00000000
,
00010000
00000000
00000100
00000000
00001000
00000001
00000100
00000000
,
00000001
00000000
00000001
00000000
00000100
00000010
00001000
00000100
,
00010000
00000000
00010000
00000000
00001000
00100000
00010000
10000000
,
01000000
00000000
10000000
01000000
00100000
00000000
00001000
00000000
,
00010000
00000000
00000100
00001000
00000010
00000000
00001000
00000000
,
00000002
00000100
00000203
00001000
,
00001300
00010000
00001000
00100000
00000000
00000000
00000000
00000000
,
00001000
00010000
00001000
00010000
00100000
00000000
10000000
01000000
,
00000000
01000000
00100000
00010000
00100000
00001000
00010000
00000100
,
00002000
00000000
00003020
00000000
00001030
00000100
00001000
00000000
,
00000200
00000000
00020300
00000000
00032000
00000000
00000000
00003000
,
00000000
00010000
00001000
00010000
00001000
00000100
00000010
00000100
,
00000000
00000002
00000000
00001003
00002000
00000000
00003100
00010000
,
00020000
00001000
00230000
01000000
,
01300000
00100000
01000000
00010000
10000000
00000000
10000000
00000000
,
00020000
00100000
01000000
10030000
,
20000000
01000000
00100000
30010000
,
00000000
00010000
00100000
00001000
00020000
00000000
00000000
00030000
,
00002000
00000000
00003020
00000000
00000230
00000000
00000000
00000300
,
00001000
00000000
00000001
00000000
00001000
00000010
00000100
00000000
,
00001000
00000000
00010000
00000000
00100000
01000000
00010000
00000000
,
10000000
01000000
10000000
01000000
00100000
00010000
00001000
00000000
,
00000200
00000000
00002300
00000000
00003001
00000200
00000000
00000000
,
00000301
00000000
00000100
00000000
,
00000010
00001000
00000100
00000000
,
00010000
00000000
00001000
00000000
,
00100000
00010000
10000000
00000000
,
01000000
00000000
01000000
00000000
,
00100000
00000000
00100000
00000000
,
00001000
00000000
00001000
00000000
,
00010000
00000000
00010000
00000000
,
00000000
00000000
00000000
00000000
;
#NOTES:
     dance-double:
     :
     Hard:
     13:
     :
00000000
00000000
00000000
00000000
,
00000000
00000000
00000000
00000000
,
00000000
00000000
00000000
00000000
,
00000000
00000000
00000000
00000000
,
00000000
00000000
00000000
00000000
,
10000000
00000000
00000000
00010000
00100000
01000000
00010000
01000000
,
00200000
00000000
00301000
00000000
00100000
00010000
00001000
00000100
,
00002000
00000000
00003010
00000100
00000001
00000010
00000100
00002000
,
00000000
00003002
00000000
00000003
00001000
00000100
00001000
00010000
,
00100000
00000000
00000000
00000000
00000000
00000000
00010000
00000000
00100000
00000000
01000000
00000000
00010000
00000000
01000000
00100000
,
01000000
00000000
00000000
00000000
10000000
00000000
00000000
00000000
00100000
00000000
01000000
00000000
10000000
00000000
01000000
00100000
,
01000000
00000000
00010000
00100000
00000000
00100000
00010000
00001000
,
00000100
00000000
00000100
00000010
00000000
00000010
00000001
00000100
,
00000001
00000001
00000000
00000000
00001000
00001000
00000000
00000000
,
00000020
00000000
00000000
00000000
00000130
00000000
00000000
00000000
00000001
00000000
00000010
00000000
00000100
00000000
00001000
00000100
,
00001000
00000100
00010000
00000000
00001000
00000000
00100000
00010000
,
00200000
00000000
01300000
00000000
10000000
01000000
00100000
00010000
,
10000000
01000000
00100000
00000000
00100000
00001000
00010000
00000000
,
00002000
00000000
00000000
00000000
00013000
00000000
00000000
00000000
00010000
00000000
00001000
00000000
00000100
00000000
00000010
00000100
,
00000010
00001000
00000001
00000000
00001000
00000100
00000010
00000000
,
00000110
00010100
00101000
01100000
,
10010000
00000000
10000000
01000000
00010000
00001000
00000000
00000000
,
00000000
00010000
00001000
00010000
00001000
00000010
00000001
00001000
,
00001100
00000000
00000000
00000000
00000100
00000000
00010000
00000000
00001000
00000000
00100000
00010000
00000000
00000000
00000000
00000000
,
00110000
00011000
00002200
00003300
,
00001001
00000000
00000001
00000100
00001000
00010000
00000000
00000000
,
00000000
00001000
00010000
00001000
00010000
00100000
10000000
00010000
,
01010000
00000000
00000000
00000000
01000000
00000000
00001000
00000000
00010000
00000000
00000010
00001000
00000000
00000000
00000000
00000000
,
00002000
00003010
00000002
00000013
00000220
00000000
00000330
00000000
,
00001001
00000000
00000001
00000100
00001000
00010000
00001000
00100000
,
01100000
00000000
10000000
01000000
00010000
00001000
00010000
00000010
,
00000210
00000001
00000010
00001300
,
00012000
00100000
01000000
00013000
,
00011000
00000000
00010000
01000000
00100000
01000000
00010000
00001000
,
00011000
00000000
00001000
00000100
00000010
00000100
00001000
00010000
,
00021000
00030100
00012000
00103000
,
00010000
00100000
00010000
00100000
01000000
10000000
01000000
10000000
01000000
00100000
01000000
00100000
00010000
00100000
00010000
00100000
,
00010000
00000000
10000000
00010000
00100000
00001000
00010000
00000100
,
00000000
00000010
00000100
00001000
00000100
00000010
00000001
00000100
,
00000101
00000000
00000000
00000000
00001010
00000000
00000000
00000000
00000010
00000000
00010000
00001000
00000000
00000000
01000000
00000000
,
00020000
00130000
20000000
30100000
02200000
00000000
00000000
03300000
,
00000000
10000000
01000000
00010000
01000000
00100000
00001000
00010000
,
00000000
00001000
00000010
00000001
00000010
00000100
00001000
00000100
,
00002000
00000000
00000002
00003003
,
00001000
00000010
00001000
00000010
00000100
00000001
00000100
00000001
00000100
00000010
00000100
00000010
00001000
00000010
00001000
00000010
,
00002000
00000000
00000010
00000000
00000001
00000000
00003100
00000200
,
00001000
00000000
00010000
00020300
00000000
00000000
00031000
00000000
,
00000000
00010000
00100000
10000000
00200000
01000000
01300000
00000000
,
00020000
00130000
20000000
30100000
02200000
00000000
03300000
00000000
,
10000000
01000000
00010000
01000000
00100000
00001000
00010000
00000000
,
00001000
00000100
00000001
00000100
00000010
00001000
00000001
00000000
,
00002010
00003100
00000012
00000103
,
00000001
00000010
00000001
00000010
00000100
00001000
00000100
00001000
00000100
00010000
00000100
00010000
00001000
00010000
00001000
00010000
,
00001000
00000000
00100000
00000000
00010000
00100000
01000000
10000000
,
00000000
01000000
00000000
00100000
00000000
00001000
00000000
00010000
,
00001000
00000000
00000010
00000000
00000001
00000100
00000010
00001000
,
00000000
00000001
00000000
00000100
00000000
00000010
00001000
00000100
,
00010000
00000000
00001000
00000000
00100000
00010000
01000000
00100000
,
00000000
10000000
00000000
01000000
00000000
00010000
00000000
00001000
,
00010000
00000000
00000100
00000000
00001000
00000010
00000100
00000001
,
00000000
00001000
00000000
00000100
00000000
00001000
00010000
00100000
,
00000000
00000000
00000000
00000000
;
