
//----- song ID: sabm -----//
#VERSION:0.83;
#TITLE:Stand Alone Beat Masta;
#ARTIST:GUHROOVY;
#BANNER:Stand Alone Beat Masta.png;
#BACKGROUND:Stand Alone Beat Masta-bg.png;
#CDTITLE:./CDTitles/jubeat saucer.png;
#MUSIC:Stand Alone Beat Masta.ogg;
#SAMPLESTART:89.958;
#SAMPLELENGTH:15;
#BPMS:0=200;

//---------------dance-single - ----------------
#NOTEDATA:;
#STEPSTYPE:dance-single;
#DIFFICULTY:Beginner;
#METER:4;
#NOTES:
0000
0000
0000
0000
,
0000
0000
0000
0000
,
0000
0000
0000
0000
,
0000
0000
0000
0000
,
0000
0000
0000
0000
,
0000
0000
0000
0000
,
0000
0000
0000
0000
,
0000
0000
0000
0000
,
0000
0000
0000
0000
,
0000
0000
0000
0000
,
0001
0000
0000
0000
,
0001
0000
0000
0000
,
1000
0000
0000
0000
,
1000
0000
0000
0000
,
0010
0000
0000
0000
,
0010
0000
0000
0000
,
0010
0000
0010
0000
,
0010
0000
0000
0000
,
1000
0000
1000
0000
,
1000
0000
0000
0000
,
0001
0000
0001
0000
,
0001
0000
0000
0000
,
0100
0000
0100
0000
,
0100
0000
0000
0000
,
0010
0000
0010
0000
,
0010
0000
0000
0000
,
1000
0000
1000
0000
,
0001
0000
0000
0000
,
0100
0000
0010
0000
,
0010
0000
0000
0000
,
1000
0000
1000
0000
,
0100
0000
0000
0000
,
0010
0000
0010
0000
,
0001
0000
0000
0000
,
1000
0000
0001
0000
,
1000
0000
0000
0000
,
0010
0000
0100
0000
,
0010
0000
0000
0000
,
1000
0000
0010
0000
,
1000
0000
0000
0000
,
0001
0000
0100
0000
,
0001
0000
0000
0000
,
1000
0000
0100
0000
,
0010
0000
0000
0000
,
0001
0000
0010
0000
,
0100
0000
0000
0000
,
1000
0000
0010
0000
,
0100
0000
0000
0000
,
0001
0000
0100
0000
,
0010
0000
0000
0000
,
0000
0000
0000
0000
,
2002
0000
0000
0000
,
0000
0000
0000
0000
,
0000
0000
0000
0000
,
0000
0000
0000
0000
,
0000
0000
0000
0000
,
0000
0000
0000
0000
,
0000
0000
0000
0000
,
3003
0000
0000
0000
,
0001
0000
0000
0000
,
0001
0000
0000
0000
,
0100
0000
0000
0000
,
0100
0000
0000
0000
,
0010
0000
0000
0000
,
0010
0000
0000
0000
,
1000
0000
0000
0000
,
1000
0000
0000
0000
,
0001
0000
0000
0000
,
0010
0000
0000
0000
,
0001
0000
0000
0000
,
1000
0000
0000
0000
,
0010
0000
0000
0000
,
0100
0000
0000
0000
,
0001
0000
0000
0000
,
1000
0000
0000
0000
,
0001
0000
1000
0000
,
0010
0000
0000
0000
,
1000
0000
0001
0000
,
0100
0000
0000
0000
,
0001
0000
1000
0000
,
0010
0000
0000
0000
,
1000
0000
0001
0000
,
0100
0000
0000
0000
,
0010
0000
0010
0000
,
1000
0000
1000
0000
,
0001
0000
0001
0000
,
0100
0000
0100
0000
,
0001
0000
0001
0000
,
1000
0000
1000
0000
,
0010
0000
0010
0000
,
0110
0000
0000
0000
,
0002
0000
0000
0000
,
0003
0000
0000
0000
,
2000
0000
0000
0000
,
3000
0000
0000
0000
,
0020
0000
0000
0000
,
0030
0000
0000
0000
,
0200
0000
0000
0000
,
0300
0000
0000
0000
,
0020
0000
0000
0000
,
0000
0000
0030
0000
;

//---------------dance-single - ----------------
#NOTEDATA:;
#STEPSTYPE:dance-single;
#DIFFICULTY:Easy;
#METER:10;
#NOTES:
0000
0000
0000
0000
,
0000
0000
0000
0000
,
0000
0000
0000
0000
,
0000
0000
0000
0000
,
0000
0000
0000
0000
,
0000
0000
0000
0000
,
0000
0000
0000
0000
,
0000
0000
0000
0000
,
0000
0000
0000
0000
,
0000
0000
0000
0000
,
0001
0000
0100
0001
,
0010
0000
0001
0000
,
1000
0000
0010
1000
,
0100
0000
1000
0000
,
1001
0000
0010
0000
,
0010
0000
0010
0000
,
0010
0010
0010
0010
,
0220
0000
0330
0000
,
1000
0001
0100
0010
,
1000
0001
0010
0100
,
1000
0100
0010
0001
,
1000
0010
0100
0000
,
0001
1000
0001
1000
,
0100
0010
0100
1000
,
0001
0100
0010
0100
,
0002
0000
0000
0003
,
1000
0100
0010
0100
,
1000
0001
0100
0000
,
0001
0010
0100
0010
,
0001
1000
0010
0000
,
1000
0100
0010
0100
,
1000
0001
0100
0000
,
0001
0010
0100
1000
,
2002
0000
0000
3003
,
0001
0100
0010
1000
,
0001
0011
0001
0011
,
1000
0010
0100
0001
,
1000
1100
1000
1100
,
0001
0010
0100
1000
,
0001
0101
0001
0101
,
1000
0100
0010
0001
,
2000
3020
0230
0302
,
1003
0010
0010
0100
,
0001
0011
1000
1010
,
0001
0100
0100
0010
,
1000
1100
0001
0101
,
1000
0010
0010
0100
,
0001
0011
1000
1010
,
0001
0010
0100
1000
,
2002
0000
0000
0000
,
3003
0000
0000
0000
,
0001
0000
0000
0000
,
0000
0000
0000
0000
,
0010
0000
0000
0000
,
0000
0000
0000
0000
,
0100
0000
0000
0000
,
0000
0000
0000
0000
,
1000
0000
0000
0000
,
0000
0000
0000
0000
,
0010
0000
0010
0000
,
0100
0000
0100
0000
,
0001
0000
0001
0000
,
1000
0000
1000
0000
,
0001
0000
0001
0000
,
0010
0000
0010
0000
,
0001
0000
0001
0000
,
1000
0000
1000
0000
,
1001
0001
0010
0000
,
0100
1000
0010
0000
,
0100
0001
1000
0000
,
0001
0010
0100
1000
,
0010
0010
0100
0100
,
0001
0001
1000
1000
,
0010
0000
0100
0000
,
0001
0000
0000
0000
,
1000
1000
0100
0010
,
0001
0000
1000
0000
0010
0000
0100
0010
,
0100
0001
1000
0100
,
0010
0000
0001
0000
1000
0000
0010
0100
,
0010
1000
0001
0010
,
0100
0000
1000
0000
0001
0000
0100
0010
,
0100
0001
1000
0100
,
0020
0000
0030
0000
,
0011
0001
1000
0010
,
0100
0001
1000
1100
,
0011
0010
0100
1000
,
0001
0100
0010
1010
,
0101
0001
0010
0100
,
1000
0001
0100
0110
,
1001
0000
0001
0000
1000
0001
1000
0001
,
1000
0000
0000
0000
,
0002
0000
0023
0000
,
0230
0000
2300
0000
,
3020
0000
0230
0000
,
0302
0000
2003
0000
,
3200
0000
0320
0000
,
0032
0000
0203
0000
,
0320
0000
2030
0000
,
3002
0000
0023
0000
,
0230
0000
0000
0000
,
0000
0000
0300
0000
;

//---------------dance-single - ----------------
#NOTEDATA:;
#STEPSTYPE:dance-single;
#DIFFICULTY:Medium;
#METER:13;
#BPMS:0=100,36=400,92=200,96=400,152=200,156=400,212=200,216=400,272=100,292=200,356=400,412=200,416=400,472=200,476=100;
#NOTES:
0000
0000
0000
0000
,
0000
0000
0000
0000
,
0000
0000
0000
0000
,
0000
0000
0000
0000
,
0000
0000
0000
0000
,
1000
0010
0100
0000
0001
1000
0100
0000
,
0010
0001
1000
0000
0001
0100
0010
0000
,
1000
0100
0010
0001
,
1000
0010
0100
0001
2002
0000
3003
0000
,
0001
1000
0001
1000
,
0100
0010
0001
0000
,
1000
0010
1000
0010
,
0100
0001
0010
0000
,
0100
1000
0100
1000
,
0001
0100
0010
0000
,
1000
0001
0010
0000
,
0100
1000
0001
0001
,
1000
0100
1000
0100
,
0010
0001
1000
0000
,
0010
0100
0010
0100
,
0001
1000
0100
0000
,
0010
0001
0010
0001
,
1000
0010
0100
0001
,
2002
0000
0000
3003
,
1000
0001
0100
0010
,
1000
0001
1000
0100
,
0010
0001
0010
0001
,
1000
0010
1000
0010
,
0100
0001
1000
0001
,
0010
0100
1000
0010
,
0100
0001
0100
0001
,
1000
0100
1000
0100
,
0010
0001
1000
0010
,
0100
0001
1000
0001
,
0010
0100
0010
0100
,
1000
0001
1000
0001
,
0010
0001
0100
0010
,
1000
0100
1000
0010
,
0200
0000
0000
0300
,
0001
0010
0100
1000
,
0001
0100
0010
0000
,
1000
0001
0100
0000
,
0001
0010
0100
0000
,
1000
0001
0100
0010
,
1000
0001
0010
0000
,
0100
1000
0001
0000
,
1000
0010
0100
0000
,
0001
0010
0100
0010
,
0001
1000
0010
0000
,
1000
0100
0010
0000
,
0001
0100
0010
0000
,
0100
0001
1000
0100
,
1000
0010
0100
0001
,
2002
0000
0000
3003
,
1000
0100
1000
0010
,
0100
0001
1000
0100
,
0010
0001
0100
0000
,
0010
1000
0100
0000
,
1000
0010
1000
0001
,
0010
0001
1000
0010
,
0100
0001
0010
0000
,
0100
1000
0010
0000
,
1000
0001
0010
0001
,
1000
0010
1000
0100
,
0010
0001
0100
0000
,
0010
1000
0100
0000
,
1000
0010
0100
0001
,
0010
0100
1000
0001
,
2002
0000
3003
0000
,
2000
0000
0000
0000
,
3020
0000
0000
0000
,
0230
0000
0000
0000
,
0302
0000
0000
0000
,
0013
0010
0001
0001
,
0100
0100
0010
0010
,
0100
0100
0001
0001
,
0010
0010
0100
0100
,
1000
1000
0010
0010
,
0100
0100
0001
0001
,
1000
0000
1000
0100
0010
0000
0000
0000
,
0001
0000
0001
0100
0010
0000
0000
0000
,
1010
1000
0001
0100
,
0001
0000
0000
0001
0000
0000
0001
0000
1000
0000
0000
1000
0000
0000
1000
0000
,
0010
0100
0001
1000
,
0100
0000
0000
0100
0000
0000
0100
0000
0010
0000
0000
0010
0000
0000
0010
0000
,
0001
1000
0010
0100
,
0001
0000
0000
0001
0000
0000
0001
0000
0010
0000
0000
0010
0000
0000
0010
0000
,
0100
0000
0000
0100
0000
0000
0100
0000
1000
0000
0000
1000
0000
0000
1000
0000
,
0000
0000
0000
0000
,
0001
1000
0001
0010
,
0100
1000
0001
0100
,
0010
0100
0001
1000
,
0100
0010
0100
0010
,
0100
1000
0001
0100
,
0001
0010
0001
1000
,
0010
0100
0001
1000
,
0001
0010
0001
0010
,
0001
1000
0010
0100
,
0001
0010
0100
1000
,
0001
0100
0001
0010
,
0100
1000
0100
1000
,
0100
0010
0001
1000
,
0010
0100
0001
1000
,
2002
0000
0000
3003
,
0001
0010
0100
0000
,
1000
0001
0100
0000
,
0001
0010
0100
1000
,
0100
0010
0001
0000
,
1000
0001
0100
0000
,
0010
1000
0100
0000
,
1000
0010
0100
0001
,
0010
0100
1000
0000
,
0001
1000
0010
0000
,
0100
0001
0010
0000
,
0100
1000
0010
1000
,
0100
0010
0001
0000
,
1000
0001
0100
0010
,
1000
0100
0010
0001
,
2002
3003
0000
0000
,
0002
0023
0230
0300
2000
3200
0320
0030
,
0002
0203
0320
0030
2000
3020
0230
0300
,
0002
0023
0230
0300
2000
3020
0230
0300
,
0002
2003
3020
0030
0200
0302
0023
0230
,
2300
0000
0000
3000
;

//---------------dance-single - ----------------
#NOTEDATA:;
#STEPSTYPE:dance-single;
#DIFFICULTY:Hard;
#METER:15;
#BPMS:0=100,36=400,92=200,96=400,152=200,156=400,212=200,216=400,272=100,292=200,356=400,412=200,416=400,472=200,476=100;
#NOTES:
0000
0000
0000
0000
,
0000
0000
0000
0000
,
0000
0000
0000
0000
,
0000
0000
0000
0000
,
0000
0000
0000
0000
,
0001
0000
1000
0000
0010
0100
0000
0100
0001
0000
1000
0000
0100
1000
0000
0001
,
0100
0000
0010
0000
0100
0001
0000
1000
0100
0000
0010
0001
0000
1000
0010
0100
,
0001
0010
0100
1000
,
0001
0100
0010
1000
0001
0100
0010
1000
2002
0000
0000
0000
3003
0000
0000
0000
,
0001
0100
0001
0010
,
0100
1000
0010
1000
,
0001
0100
0010
0100
,
0001
0000
1000
0000
0100
0000
0010
0001
,
0010
0100
1000
0010
,
0100
0001
1000
0100
,
1000
0010
1000
0001
,
0010
0000
0100
0000
1000
0000
0001
0100
,
0001
0010
0100
0010
,
0001
1000
0010
0100
,
0001
0010
0001
1000
,
0010
0000
0100
0000
0001
0000
0010
0100
,
0010
0001
1000
0010
,
0100
0000
0001
0010
0001
0000
1000
0010
,
0200
0000
0000
0300
,
0001
0010
0100
0010
,
0001
0100
0001
0010
,
0001
0100
0010
0100
,
0001
0000
0010
0000
0100
0000
1000
0001
,
1000
0010
0100
0010
,
1000
0100
0010
0100
,
1000
0010
1000
0100
,
1000
0000
0010
0000
1000
0001
1000
0001
,
1000
0100
0010
0001
,
1000
0010
0100
0010
,
1000
0001
0010
0100
,
1000
0000
0010
0000
0100
0000
0001
0010
,
0001
0000
1000
0100
1000
0000
0001
0000
,
1000
0001
1000
0001
2000
0000
0000
0000
,
3000
0000
0000
0000
,
0001
0000
1000
0000
0010
0100
0010
0000
,
1000
0001
0010
0100
,
1000
1000
0010
0100
,
0001
0001
0010
0100
,
1000
0000
0001
0000
0100
0010
0100
0000
,
0001
1000
0100
0010
,
0001
0001
0100
0010
,
1000
1000
0100
0010
,
0001
0000
1000
0010
1000
0000
0100
0000
,
0010
0001
1000
0010
,
0100
0100
0010
1000
,
0100
0100
0010
0001
,
1000
0000
0001
0100
0001
0000
0010
0000
,
0100
0000
1000
0100
1000
0000
0001
0100
,
0002
0023
0230
2300
,
3001
0000
0100
0000
0001
0010
0001
0000
,
1000
0010
0100
0001
,
0010
0010
0100
1000
,
0010
0010
1000
0001
,
0010
0000
0100
0000
1000
0100
1000
0000
,
0010
0100
0001
1000
,
0100
0100
0010
0001
,
1000
1000
0100
0010
,
0001
0000
1000
0010
1000
0000
0100
0000
,
0010
0001
1000
0010
,
0100
0100
0010
1000
,
0001
0001
0010
0100
,
1000
0001
0100
0010
,
1000
0000
0001
0100
0001
0100
0001
0000
,
2000
0000
3000
0000
,
0002
0000
0000
0000
,
0203
0000
0000
0000
,
0320
0000
0000
0000
,
2030
0000
0000
3000
,
1001
0000
0001
0000
0100
0000
0000
0010
,
0000
1000
0000
0001
0000
0100
0000
0000
,
0000
0000
0001
0000
0010
0000
0000
0100
,
0000
1000
0000
0020
0000
0000
0030
0000
,
0000
0000
0000
0000
1000
0000
0000
0000
0001
0000
0000
0100
0000
0000
0010
0000
,
0000
0100
0000
0001
0000
0010
0100
0000
,
1000
0000
0001
0100
0010
0000
0100
0000
,
0001
0000
1000
0100
0010
0000
0001
0000
,
1001
0000
0000
1000
0000
0000
1000
0000
0010
0000
0000
0010
0000
0000
0010
0000
,
0100
0000
0000
0100
0000
0000
0100
0000
0001
0000
0000
0001
0000
0000
0001
0000
,
1000
0000
0000
0100
0000
0000
1000
0000
0001
0000
0000
0100
0000
0000
0001
0000
,
1000
0000
0000
0010
0000
0000
1000
0000
0001
0000
0000
0010
0000
0000
0001
0000
,
0100
0000
0000
0010
0000
0000
0100
0000
0001
0000
0000
1000
0000
0000
0001
0000
,
0010
0000
0000
0100
0000
0000
1000
0000
1000
0000
0000
0010
0000
0000
0100
0000
,
0100
0000
0000
0001
0000
0000
1000
0000
1000
0000
0000
0010
0000
0000
0100
0000
,
0000
0000
0000
0000
,
0001
0010
0001
1000
,
0010
0100
0001
1000
,
0100
1000
0010
0100
,
0001
0000
1000
0000
0100
0000
0010
0001
,
0010
0001
0100
0010
,
0100
0001
0010
0100
,
1000
0001
0100
0010
,
1000
0000
0001
1000
0001
0000
1000
0001
,
1000
0100
0010
0100
,
1000
0001
0100
0010
,
1000
0100
1000
0010
,
0100
0000
0001
0000
1000
0100
1000
0100
,
1000
0010
0100
0001
,
1000
0001
1000
0001
2000
0000
0000
0000
,
3000
0000
0000
0000
,
0001
0010
0001
0000
0010
0000
0100
0000
,
1000
0000
0001
0000
0100
0000
0001
0100
,
0001
0100
0001
0000
0010
0000
0100
0000
,
1000
0000
0100
1000
0100
0000
1000
0100
,
1000
0100
1000
0000
0010
0000
0100
0000
,
0001
0000
0010
0000
0100
0000
1000
0001
,
1000
0001
1000
0000
0010
0000
0100
0000
,
0001
0010
0001
0000
0010
0100
0010
0000
,
0100
1000
0100
0000
1000
0000
0001
0000
,
0100
0000
0010
0000
1000
0000
0001
1000
,
0001
0100
0010
1000
,
0001
0010
0001
0000
1000
0100
1000
0000
,
0010
0000
0100
0000
0001
1000
0001
0000
,
0010
0000
0100
0000
1000
0001
1000
0001
,
2000
3000
0000
0000
,
2000
3020
2030
3200
0320
0032
0203
0302
,
2003
3200
2300
3020
0230
0302
0023
0032
,
2003
3020
2030
3200
0320
0032
0203
0302
,
2003
3200
2300
3020
0230
0302
0023
0032
,
2003
0000
0000
3000
;

//---------------dance-single - ----------------
#NOTEDATA:;
#STEPSTYPE:dance-single;
#DIFFICULTY:Challenge;
#METER:17;
#BPMS:0=100,36=400,92=200,96=400,152=200,156=400,212=200,216=400,272=100,292=200,356=400,412=200,416=400,472=200,476=100;
#NOTES:
0000
0000
0000
0000
,
0000
0000
0000
0000
,
0000
0000
0000
0000
,
0000
0000
0000
0000
,
0000
0000
0000
0000
,
1000
0000
0001
0000
1000
0000
0000
0000
0001
1000
0001
0000
1000
0000
0100
0000
0010
0000
0001
0000
1000
0000
0000
0000
0001
1000
0001
0000
1000
0000
0010
0000
,
0100
0000
0001
0000
1000
0000
0000
0000
0100
0010
0100
0000
1000
0000
0010
0000
0100
0000
0001
0000
1000
0000
0001
0000
0010
0000
0100
0000
1000
0001
1000
0001
,
1000
0000
0001
0000
1000
0000
0100
0000
0010
0001
0010
0000
0100
0000
1000
0000
0001
0000
0010
0000
0001
0000
0100
0000
0010
1000
0010
0000
0100
0000
0001
0000
,
1000
0000
0100
0000
0010
0000
0001
0000
1000
0001
1000
0001
1000
0001
1000
0001
1000
0000
0001
0000
0001
0000
0001
0000
0001
0000
0000
0000
0000
0000
0000
0000
,
1000
1000
0100
0100
,
0010
0001
0010
0000
0100
0000
1000
0000
,
0001
0001
0100
0100
,
0010
1000
0010
0000
0100
0000
0001
1000
,
0100
0100
0010
0010
,
0001
1000
0001
0000
0100
0000
0010
0000
,
1000
0000
0100
0000
0010
0000
0001
1000
,
0001
1000
0010
0100
0001
1000
0001
1000
,
0100
0100
1000
1000
,
0001
0010
0001
0000
1000
0000
0010
0000
,
0100
0100
0001
0001
,
1000
0010
1000
0000
0001
0000
1000
0001
,
0010
0010
0100
0100
,
1000
0001
1000
0001
0010
0100
1000
0002
,
2000
0000
0000
0000
0000
0000
0003
3000
,
0001
1000
0010
1000
,
0100
0010
0001
1000
,
1010
0001
0101
1000
,
1001
0000
0001
0000
1000
0001
1000
0001
,
1000
0001
0010
0001
,
0100
0010
1000
0001
,
0011
0000
1000
0000
0001
0000
1000
0100
,
1000
0100
1000
0100
0010
0001
1000
0100
,
0010
0001
0100
0010
,
1000
0001
0011
1000
,
1100
0001
0101
1000
,
1010
0000
0001
0000
1000
0001
1000
0001
,
1000
0000
0001
0000
1000
0000
0001
0100
,
0001
0100
0001
0100
0010
1000
0001
0100
,
0020
0000
0000
0030
,
1000
0010
1000
0001
,
0010
0100
1000
0001
,
0101
1000
2002
3003
,
1010
0001
2002
3003
,
0001
0010
0001
1000
,
0010
0100
0001
1000
,
1100
0001
2002
3003
,
0011
1000
2002
3003
,
0001
0010
0001
1000
,
0010
0100
0001
1000
,
1100
0010
2002
3003
,
0101
0010
2002
3003
,
0001
0010
0100
1000
,
0001
0000
1000
0001
1000
0000
0001
1000
,
0002
0203
0320
2030
,
3001
0000
0010
0000
0100
0000
1000
0001
,
0100
0010
1000
0001
,
0011
0011
2002
3003
,
1100
1100
2002
3003
,
1000
0000
0010
0000
0100
0000
0001
1000
,
0100
0010
0001
1000
,
1010
1010
2002
3003
,
0101
0101
2002
3003
,
0001
0000
1000
0000
0001
0000
0100
0010
,
0100
0001
1000
0001
,
0101
0101
2002
3003
,
1100
1100
2002
3003
,
0001
0000
1000
0000
0100
0000
0010
0001
,
1000
0000
0010
1000
0001
0100
0010
1000
,
0200
0000
0300
0000
,
2001
0000
0000
0000
,
3020
0000
0000
0000
,
0230
0000
0000
0000
,
0302
0000
0000
0000
,
1003
0000
0000
0001
0000
0000
0100
0000
0001
0000
0000
0010
0000
0000
0100
0000
,
1000
0000
0000
1000
0000
0000
1000
0000
0100
0000
0000
0100
0000
0000
0100
0000
,
0010
0000
0000
0001
0000
0000
1000
0000
0010
0000
0000
1000
0000
0000
0001
0000
,
0010
0000
0000
0010
0000
0000
0010
0000
0100
0000
0000
0100
0000
0000
0100
0000
,
1000
0000
0000
0001
0000
0000
0100
0000
0001
0000
0000
1000
0000
0000
0010
0000
,
0100
0000
0000
0100
0000
0000
0100
0000
0001
0000
0000
0001
0000
0000
0001
0000
,
1000
0000
0000
0010
0100
0000
0001
0000
1000
0000
0000
0100
0010
0000
0001
0000
,
1000
0000
0000
0001
0010
0000
0100
0000
1000
0000
0000
0001
0100
0000
0010
0000
,
1000
0000
0001
0010
0000
0001
1000
0000
0010
0000
1000
0001
0000
1000
0100
0000
,
0010
0000
0001
1000
0000
0001
1000
0000
0100
0000
1000
0001
0000
1000
0001
0000
,
0010
0000
0001
1000
0000
0100
1000
0000
0010
0000
1000
0001
0000
0100
0001
0000
,
1000
0000
0001
0100
0000
0001
0100
0000
0001
0000
1000
0100
0000
1000
0100
0000
,
1000
0000
0001
0100
0000
0001
0010
0000
0100
0000
1000
0010
0000
1000
0100
0000
,
0010
0000
0001
1000
0000
0001
0100
0000
0010
0000
1000
0001
0000
1000
0100
0000
,
0010
0000
0001
0100
0000
0010
1000
0000
0001
0000
0010
0100
0000
1000
0001
0000
,
0200
0000
0300
0000
,
0001
0000
1000
0100
1000
0000
0001
0000
,
0100
0000
0010
1000
0010
0000
0100
0000
,
0001
0000
0010
0100
0010
0000
0001
0000
,
1000
0000
0010
0100
0001
0000
0010
0100
,
1000
0000
0001
0100
0001
0000
1000
0000
,
0100
0000
0010
0001
0010
0000
0100
0000
,
1000
0000
0010
0100
0010
0000
1000
0000
,
0001
0000
0010
0100
1000
0000
0010
0100
,
0001
0000
1000
0100
0010
0000
0001
0000
,
0100
0000
0010
1000
0001
0000
0010
0000
,
0100
0000
1000
0001
1000
0000
0010
0000
,
0100
0000
0001
1000
0001
0010
0100
1000
,
0001
0000
0100
0010
0100
0000
0001
0000
,
0010
0100
0010
0001
1000
0010
0100
0001
,
2000
0000
0002
3003
,
1000
0001
0010
0000
0100
0000
0010
0001
,
0000
0001
1000
0000
0010
0000
0100
0001
,
0000
1000
0100
0000
0010
0000
0001
1000
,
0001
1000
0010
0000
0100
0001
0010
0000
,
0001
1000
0010
0000
0100
0000
0010
1000
,
0000
1000
0001
0000
0010
0000
0100
1000
,
0000
0001
0100
0000
0010
0000
1000
0001
,
1000
0001
0010
0000
0100
1000
0001
0010
,
0001
1000
0010
0000
0100
0000
0001
1000
,
0000
1000
0100
0000
0010
0000
0100
1000
,
0000
0001
0100
0000
0010
0000
1000
0001
,
0100
0001
1000
0010
1000
0001
0010
0100
,
1000
0001
0000
0001
0100
0000
0001
1000
,
0000
1000
0100
0010
0001
1000
0010
0100
,
0002
0003
0000
0000
,
2000
3001
0010
0100
1000
0001
1000
0100
,
0020
0031
0100
0010
1000
0001
1000
0010
,
0200
0301
0010
0100
1000
0100
0010
0001
,
2000
3010
0100
0001
0010
0100
0010
0001
,
0200
0000
0000
0300
;

//---------------dance-double - ----------------
#NOTEDATA:;
#STEPSTYPE:dance-double;
#DIFFICULTY:Easy;
#METER:10;
#NOTES:
00000000
00000000
00000000
00000000
,
00000000
00000000
00000000
00000000
,
00000000
00000000
00000000
00000000
,
00000000
00000000
00000000
00000000
,
00000000
00000000
00000000
00000000
,
00000000
00000000
00000000
00000000
,
00000000
00000000
00000000
00000000
,
00000000
00000000
00000000
00000000
,
00000000
00000000
00000000
00000000
,
00000000
00000000
00000000
00000000
,
00001000
00000000
01000000
00010000
,
00100000
00000000
00001000
00000000
,
00010000
00000000
00000010
00001000
,
00000100
00000000
00010000
00000000
,
00011000
00000000
00001000
00000000
,
00001000
00000000
00001000
00000000
,
00001000
00001000
00001000
00001000
,
00022000
00000000
00033000
00000000
,
00010000
00000100
00001000
00000010
,
00000100
00000001
00000010
00000100
,
00001000
00000001
00000100
00000010
,
00001000
00000100
00010000
00000000
,
00001000
00100000
00010000
01000000
,
00100000
10000000
00010000
00100000
,
01000000
00100000
00001000
00010000
,
00022000
00000000
00000000
00033000
,
00010000
00000100
00000010
00000100
,
00001000
00000010
00010000
00000000
,
00001000
01000000
00100000
01000000
,
00010000
00100000
00001000
00000000
,
00010000
00000100
00000010
00000001
,
00000010
00000100
00010000
00000000
,
00001000
01000000
00100000
10000000
,
02000000
00000000
00000000
03000000
,
00100000
00001000
00010000
00001000
,
00100000
00110000
00100000
00110000
,
00100000
00001000
00010000
00000100
,
00001000
00001010
00001000
00001010
,
00001000
00000100
00010000
00001000
,
01000000
01010000
01000000
01010000
,
01000000
00001000
00010000
00000010
,
00002000
00003200
00000320
00000032
,
00001003
00000010
00001000
00000100
,
00000010
00000011
00000010
00000011
,
00000010
00000100
00010000
00001000
,
00100000
00110000
00100000
00110000
,
00100000
00001000
01000000
00100000
,
10000000
11000000
10000000
11000000
,
10000000
00100000
01000000
00010000
,
20020000
00000000
00000000
00000000
,
30030000
00000000
00000000
00000000
,
10000000
00000000
00000000
00000000
,
00000000
00000000
00000000
00000000
,
01000000
00000000
00000000
00000000
,
00000000
00000000
00000000
00000000
,
00100000
00000000
00000000
00000000
,
00000000
00000000
00000000
00000000
,
00001000
00000000
00000000
00000000
,
00000000
00000000
00000000
00000000
,
00010000
00000000
00010000
00000000
,
00000100
00000000
00000100
00000000
,
00001000
00000000
00001000
00000000
,
00000010
00000000
00000010
00000000
,
00000100
00000000
00000100
00000000
,
00000001
00000000
00000001
00000000
,
00000010
00000000
00000010
00000000
,
00000100
00000000
00000100
00000000
,
00010000
00001000
00100000
00000000
,
00010000
00100000
01000000
00000000
,
10000000
00010000
01000000
00000000
,
00100000
10000000
01000000
00000000
,
00100000
00001000
00010000
00000000
,
00000100
00001000
00000010
00000000
,
00000100
00000000
00000001
00000000
,
00001000
00000000
00000000
00000000
,
00000001
00000001
00000010
00000100
,
00001000
00000010
00010000
00001000
,
01000000
01000000
00010000
00100000
,
01000000
10000000
01000000
00100000
,
00010000
01000000
00001000
00010000
,
00000100
00000010
00000001
00001000
,
00000010
00000100
00000001
00000010
,
00000200
00000000
00000300
00000000
,
00010000
00001000
00010000
00000000
00001000
00000000
01000000
00000000
,
00010000
00100000
01000000
10000000
,
00100000
01000000
00100000
00000000
10000000
00000000
00010000
00000000
,
00100000
00001000
00010000
00001000
,
00010000
00001000
00010000
00000000
00000100
00000000
00001000
00000000
,
00000010
00000100
00000001
00000010
,
00000100
00000000
00001000
00000000
00000001
00001000
00000001
00001000
,
00000001
00000000
00000000
00000000
,
00000200
00000000
00000320
00000000
,
00002030
00000000
00003200
00000000
,
00020300
00000000
00032000
00000000
,
00203000
00000000
00320000
00000000
,
02030000
00000000
03200000
00000000
,
00320000
00000000
00032000
00000000
,
00003200
00000000
00000320
00000000
,
00020030
00000000
00032000
00000000
,
00023000
00000000
00000000
00000000
,
00000000
00000000
00030000
00000000
;

//---------------dance-double - ----------------
#NOTEDATA:;
#STEPSTYPE:dance-double;
#DIFFICULTY:Medium;
#METER:13;
#BPMS:0=100,36=400,92=200,96=400,152=200,156=400,212=200,216=400,272=100,292=200,356=400,412=200,416=400,472=200,476=100;
#NOTES:
00000000
00000000
00000000
00000000
,
00000000
00000000
00000000
00000000
,
00000000
00000000
00000000
00000000
,
00000000
00000000
00000000
00000000
,
00000000
00000000
00000000
00000000
,
00010000
00001000
00000100
00000000
00001000
00010000
00000100
00000000
,
00010000
00001000
00000010
00000000
00001000
00010000
00000010
00000000
,
00010000
00001000
00010000
00001000
,
00010000
00001000
00010000
00001000
00022000
00000000
00033000
00000000
,
00010000
00001000
00010000
00001000
,
00100000
00010000
01000000
00000000
,
00010000
00100000
01000000
00000000
,
10000000
01000000
00100000
00000000
,
00010000
01000000
00010000
01000000
,
00001000
00010000
00001000
00000000
,
00010000
00000100
00001000
00000000
,
00000010
00000100
00000001
00000000
,
00001000
00000001
00001000
00000001
,
00000010
00000100
00001000
00000000
,
00000010
00010000
00001000
00000000
,
00010000
00001000
00100000
00000000
,
00010000
01000000
00010000
01000000
,
00100000
10000000
00010000
00100000
,
02000000
00000000
00000000
03000000
,
10000000
00100000
10000000
00100000
,
01000000
00010000
10000000
00000000
,
01000000
00100000
00001000
00000000
,
00010000
00000100
00000010
00000000
,
00000001
00001000
00000001
00000100
,
00000010
00001000
00000001
00000000
,
00000100
00000010
00010000
00000000
,
00001000
01000000
00100000
00000000
,
10000000
00010000
10000000
00010000
,
00100000
01000000
10000000
00000000
,
00100000
01000000
00001000
00000000
,
00010000
00000100
00000010
00000000
,
00000001
00001000
00000010
00001000
,
00000010
00000100
00000001
00000010
,
00000200
00000000
00000000
00000300
,
00001000
00000001
00001000
00000001
,
00000100
00000010
00010000
00000000
,
00001000
00010000
00000100
00000000
,
00010000
00001000
00100000
00000000
,
00010000
10000000
00010000
10000000
,
01000000
00100000
00001000
00000000
,
00010000
00001000
00100000
00000000
,
00001000
00010000
00000100
00000000
,
00001000
00000001
00001000
00000001
,
00000010
00000100
00010000
00000000
,
00001000
00010000
00000010
00000000
,
00010000
00001000
01000000
00000000
,
00010000
10000000
00010000
10000000
,
01000000
00100000
00010000
01000000
,
00200000
00000000
00000000
00300000
,
01000000
00010000
00100000
00010000
,
01000000
00100000
01000000
00000000
,
00001000
00010000
00000100
00000000
,
00010000
00001000
01000000
00000000
,
00001000
00010000
00000100
00001000
,
00000010
00000100
00000010
00000000
,
00010000
00001000
00100000
00000000
,
00001000
00010000
00000010
00000000
,
00010000
00001000
00100000
00010000
,
01000000
00100000
01000000
00000000
,
00001000
00010000
00000100
00000000
,
00010000
00001000
01000000
00000000
,
00001000
00010000
00000100
00001000
,
00000010
00000100
00000001
00000010
,
00000200
00000000
00000300
00000000
,
00020000
00000000
00000000
00000000
,
00032000
00000000
00000000
00000000
,
00023000
00000000
00000000
00000000
,
00032000
00000000
00000000
00000000
,
00013000
00010000
00001000
00001000
,
00100000
00100000
00010000
00010000
,
10000000
10000000
00100000
00100000
,
01000000
01000000
00010000
00010000
,
00100000
00100000
00001000
00001000
,
00010000
00010000
00000100
00000100
,
00001000
00000000
00000100
00000010
00000000
00000000
00000000
00000000
,
00000001
00000000
00000100
00000010
00000000
00000000
00000000
00000000
,
00010000
00001000
01000000
00010000
,
00100000
00000000
00000000
00100000
00000000
00000000
00100000
00000000
00010000
00000000
00000000
00010000
00000000
00000000
00010000
00000000
,
01000000
00001000
00010000
00000100
,
00001000
00000000
00000000
00001000
00000000
00000000
00001000
00000000
00000010
00000000
00000000
00000010
00000000
00000000
00000010
00000000
,
00010000
00001000
01000000
00010000
,
10000000
00000000
00000000
10000000
00000000
00000000
10000000
00000000
01000000
00000000
00000000
01000000
00000000
00000000
01000000
00000000
,
00100000
00000000
00000000
00100000
00000000
00000000
00100000
00000000
00010000
00000000
00000000
00010000
00000000
00000000
00010000
00000000
,
00000000
00000000
00000000
00000000
,
10000000
00100000
10000000
00100000
,
01000000
00010000
01000000
00010000
,
00100000
00001000
00100000
00001000
,
00010000
00000100
00010000
00000100
,
00001000
00000010
00001000
00000010
,
00000100
00000001
00000100
00000001
,
00001000
00000100
00001000
00000100
,
00000010
00000001
00001000
00000010
,
00000100
00000001
00000100
00000001
,
00001000
00000100
00001000
00000100
,
00010000
00001000
00010000
00001000
,
00100000
00010000
00100000
00010000
,
10000000
00100000
10000000
00100000
,
01000000
00010000
00100000
01000000
,
20000000
00000000
00000000
30000000
,
00010000
01000000
00100000
00000000
,
01000000
00001000
00010000
00000000
,
00000100
00001000
00000100
00000010
,
00000001
00001000
00000010
00000000
,
00000100
00000010
00001000
00000000
,
00000100
00010000
00001000
00000000
,
00010000
00001000
00100000
00010000
,
01000000
00100000
10000000
00000000
,
00010000
00100000
01000000
00000000
,
10000000
01000000
00100000
00000000
,
00001000
00010000
00000100
00000010
,
00000001
00001000
00000010
00000000
,
00000100
00000001
00000010
00000100
,
00010000
00001000
01000000
00100000
,
20000000
30000000
00000000
00000000
,
20000000
32000000
03200000
00300000
00020000
00230000
02300000
03000000
,
00020000
00032000
00003200
00000300
00002000
00023000
00230000
00300000
,
00020000
00032000
00203000
00300000
00002000
00023000
00030200
00000300
,
00020000
00032000
00003200
00000300
00000002
00000023
00000230
00002300
,
00003002
00000000
00000000
00000003
;

//---------------dance-double - ----------------
#NOTEDATA:;
#STEPSTYPE:dance-double;
#DIFFICULTY:Hard;
#METER:15;
#BPMS:0=100,36=400,92=200,96=400,152=200,156=400,212=200,216=400,272=100,292=200,356=400,412=200,416=400,472=200,476=100;
#NOTES:
00000000
00000000
00000000
00000000
,
00000000
00000000
00000000
00000000
,
00000000
00000000
00000000
00000000
,
00000000
00000000
00000000
00000000
,
00000000
00000000
00000000
00000000
,
00001000
00000000
00010000
00000000
00000100
00001000
00000000
00000001
00000100
00000000
00000010
00000000
00001000
00000100
00000000
00000100
,
00010000
00000000
00001000
00000000
01000000
00010000
00000000
10000000
01000000
00000000
00100000
00010000
00000000
01000000
00001000
00010000
,
00001000
00001000
00010000
00010000
,
00000100
00001000
00000010
00000100
00000001
00001000
00000100
00000010
00000002
00000000
00000000
00000000
00001003
00000000
00000000
00000000
,
00000001
00000100
00000001
00000010
,
00000100
00001000
00000010
00010000
,
00001000
01000000
00010000
00100000
,
01000000
00000000
10000000
00000000
00010000
00000000
01000000
00100000
,
01000000
00010000
10000000
01000000
,
00100000
00010000
01000000
00001000
,
00010000
00001000
00010000
00000010
,
00001000
00000000
00000100
00000000
00000010
00000000
00000001
00000010
,
00000001
00001000
00000010
00000100
,
00000001
00000010
00000100
00001000
,
00000010
00010000
00001000
00010000
,
00000100
00000000
00001000
00000000
00000010
00000000
00010000
00001000
,
00010000
00001000
00100000
00010000
,
10000000
00000000
00100000
01000000
00100000
00000000
10000000
00010000
,
02000000
00000000
00000000
03000000
,
00010000
10000000
00100000
01000000
,
00100000
10000000
00010000
00100000
,
01000000
10000000
01000000
00100000
,
00010000
00000000
01000000
00000000
00001000
00000000
00010000
00001000
,
00010000
00000010
00001000
00000001
,
00000100
00000001
00000010
00000100
,
00001000
00000100
00000010
00000001
,
00001000
00000000
00000010
00000000
00010000
00001000
00010000
00001000
,
00010000
00001000
01000000
00010000
,
10000000
01000000
10000000
00010000
,
01000000
00100000
10000000
00010000
,
01000000
00000000
00001000
00000000
00010000
00000000
00001000
00010000
,
00001000
00000000
00100000
00010000
00100000
00000000
00001000
00000000
,
00010000
00001000
00010000
00001000
00020000
00000000
00000000
00000000
,
00030000
00000000
00000000
00000000
,
00001000
00000000
00010000
00001000
00010000
00000000
00001000
00000000
,
00010000
00000100
00001000
00000010
,
00000100
00000100
00000001
00000010
,
00000100
00000100
00001000
00000010
,
00010000
00000000
00001000
00010000
00001000
00000000
00010000
00000000
,
00001000
01000000
00010000
00100000
,
01000000
01000000
10000000
00100000
,
01000000
01000000
00010000
00100000
,
00001000
00000000
00010000
00001000
00010000
00000000
00001000
00000000
,
00010000
00000010
00001000
00000100
,
00000010
00000010
00000100
00001000
,
00000010
00000010
00001000
00000100
,
00010000
00000000
00001000
00010000
00001000
00000000
00010000
00000000
,
00001000
00000000
00100000
00010000
00100000
00000000
01000000
10000000
,
02000000
03020000
00032000
00003020
,
00000031
00000010
00000100
00001000
,
00000100
00010000
00001000
00010000
,
00000100
00001000
00000100
00000000
00010000
00000000
00001000
00000000
,
00100000
00010000
00100000
00000000
00001000
00000000
00010000
00000000
,
00001000
01000000
00010000
10000000
,
01000000
00100000
00001000
00010000
,
00000010
00001000
00000010
00000000
00010000
00000000
00001000
00000000
,
01000000
00010000
01000000
00000000
00001000
00000000
00010000
00000000
,
00000010
00001000
00000001
00000010
,
00000100
00010000
00001000
00010000
,
00000010
00001000
00000010
00000000
00010000
00000000
00001000
00000000
,
00100000
00010000
00100000
00000000
00001000
00000000
00010000
00000000
,
00001000
01000000
00010000
10000000
,
01000000
00100000
00010000
10000000
,
20020000
00000000
30030000
00000000
,
20000000
00000000
00000000
00000000
,
32000000
00000000
00000000
00000000
,
03200000
00000000
00000000
00000000
,
00302000
00000000
00000000
00000000
,
00013000
00000000
00000100
00000000
00001000
00000000
00000000
00000010
,
00000000
00000100
00000000
00001000
00000000
00010000
00000000
00000000
,
00000000
00000000
00001000
00000000
00100000
00000000
00000000
01000000
,
00000000
10000000
00000000
00200000
00000000
00000000
00300000
00000000
,
00000000
00000000
00000000
00000000
10000000
00000000
00000000
00000000
00010000
00000000
00000000
01000000
00000000
00000000
00100000
00000000
,
00000000
00010000
00000000
00001000
00000000
00010000
00000100
00000000
,
00000010
00000000
00001000
00000010
00000001
00000000
00001000
00000000
,
00000001
00000000
00000001
00000100
00001000
00000000
00010000
00000000
,
00011000
00000000
00000000
00001000
00000000
00000000
00001000
00000000
00010000
00000000
00000000
00010000
00000000
00000000
00010000
00000000
,
00001000
00000000
00000000
00100000
00000000
00000000
00010000
00000000
01000000
00000000
00000000
00100000
00000000
00000000
10000000
00000000
,
00010000
00000000
00000000
00010000
00000000
00000000
00010000
00000000
00100000
00000000
00000000
00100000
00000000
00000000
00100000
00000000
,
01000000
00000000
00000000
00010000
00000000
00000000
00001000
00000000
00100000
00000000
00000000
00010000
00000000
00000000
01000000
00000000
,
00001000
00000000
00000000
00001000
00000000
00000000
00001000
00000000
00010000
00000000
00000000
00010000
00000000
00000000
00010000
00000000
,
00000100
00000000
00000000
00001000
00000000
00000000
00000010
00000000
00010000
00000000
00000000
00001000
00000000
00000000
00000100
00000000
,
00000001
00000000
00000000
00000001
00000000
00000000
00000001
00000000
00001000
00000000
00000000
00001000
00000000
00000000
00001000
00000000
,
00000000
00000000
00000000
00000000
,
00000001
00000010
00000001
00001000
,
00000010
00000100
00000001
00001000
,
00000100
00010000
00001000
01000000
,
00010000
00000000
01000000
00000000
00100000
00000000
10000000
00010000
,
10000000
00100000
01000000
00010000
,
00100000
00001000
00010000
00000010
,
00001000
00000001
00000010
00000100
,
00001000
00000000
00000100
00001000
00000100
00000000
00000010
00000001
,
00000010
00000100
00010000
00001000
,
00100000
00001000
00010000
00001000
,
01000000
00010000
00100000
01000000
,
10000000
00000000
00010000
00000000
01000000
00010000
01000000
00010000
,
01000000
00001000
00010000
00001000
,
00010000
00001000
00010000
00001000
00020000
00000000
00000000
00000000
,
00030000
00000000
00000000
00000000
,
00001000
00010000
00001000
00000000
00010000
00000000
00000010
00000000
,
00001000
00000000
00000100
00000000
00000010
00000000
00000001
00000010
,
00000001
00001000
00000010
00010000
,
00001000
00000000
01000000
00010000
01000000
00000000
00010000
00000000
,
10000000
01000000
10000000
00000000
01000000
00000000
00100000
00000000
,
00010000
00000000
01000000
00000000
00001000
00000000
00010000
00001000
,
00010000
00000010
00001000
00000001
,
00001000
00000000
00000100
00000000
00010000
00000000
00001000
00010000
,
00001000
00010000
00001000
00000000
01000000
00000000
00010000
00000000
,
10000000
00000000
00010000
00000000
00100000
00000000
01000000
10000000
,
01000000
00100000
00010000
00100000
,
00001000
00010000
00001000
00000000
00010000
00001000
00010000
00000000
,
00000100
00000000
00001000
00000000
00000001
00000100
00000001
00000000
,
00000010
00000000
00000100
00000000
00001000
00000100
00001000
00000100
,
00002000
00003000
00000000
00000000
,
00000002
00000203
00000302
00000203
00002300
00023000
00032000
00023000
,
00230000
20300000
30200000
20300000
32000000
03020000
02030000
03020000
,
00032000
00023000
00032000
00023000
00032000
00003200
00002300
00003200
,
00000302
00000023
00000032
00000023
00002030
00023000
00032000
00023000
,
00032000
00000000
00000000
00003000
;

//---------------dance-double - ----------------
#NOTEDATA:;
#STEPSTYPE:dance-double;
#DIFFICULTY:Challenge;
#METER:17;
#BPMS:0=100,36=400,92=200,96=400,152=200,156=400,212=200,216=400,272=100,292=200,356=400,412=200,416=400,472=200,476=100;
#NOTES:
00000000
00000000
00000000
00000000
,
00000000
00000000
00000000
00000000
,
00000000
00000000
00000000
00000000
,
00000000
00000000
00000000
00000000
,
00000000
00000000
00000000
00000000
,
00001000
00000000
00001000
00000000
00010000
00000000
00000000
00000000
00000100
00001000
00000100
00000000
00001000
00000000
00000010
00000000
00010000
00000000
00010000
00000000
00001000
00000000
00000000
00000000
01000000
00010000
01000000
00000000
00010000
00000000
00100000
00000000
,
00001000
00000000
00001000
00000000
00010000
00000000
00000000
00000000
00000010
00001000
00000010
00000000
00001000
00000000
00000100
00000000
00010000
00000000
00010000
00000000
00001000
00000000
00100000
00000000
00010000
00000000
10000000
00000000
01000000
10000000
01000000
10000000
,
01000000
00000000
00100000
00000000
00010000
00000000
00100000
00000000
00001000
00010000
00001000
00000000
00010000
00000000
00000100
00000000
00001000
00000000
00000010
00000000
00000100
00000000
00000001
00000000
00001000
00000100
00001000
00000000
00000100
00000000
00010000
00000000
,
00001000
00000000
01000000
00000000
00010000
00000000
00100000
00000000
00001000
00010000
00001000
00010000
00001000
00010000
00001000
00010000
00002000
00000000
00000000
00000000
00000000
00000000
00000000
00000000
00013000
00000000
00000000
00000000
00000000
00000000
00000000
00000000
,
00001000
00100000
00010000
01000000
,
00100000
00000000
10000000
00000000
01000000
00000000
10000000
00010000
,
10000000
00100000
01000000
00001000
,
00010000
00001000
00010000
00000000
00000010
00000000
00010000
00001000
,
00010000
00000100
00000010
00000001
,
00001000
00000010
00001000
00000000
00000100
00000000
00010000
00000000
,
00001000
01000000
00010000
00100000
,
00001000
00010000
00001000
00010000
00001000
00010000
00001000
00010000
,
00001000
00100000
01000000
10000000
,
00010000
00100000
00010000
00000000
10000000
00000000
00100000
00000000
,
01000000
00010000
00100000
00001000
,
00010000
00001000
00010000
00000000
00000100
00000000
00000010
00000001
,
00000010
00000100
00001000
00000010
,
00010000
00001000
00010000
00001000
00010000
00000000
00000100
00000000
,
00001000
00000100
00001000
00000100
00001000
00000100
00001000
00000100
00001000
00000100
00001000
00000100
00001000
00000000
00000000
00000000
,
00000010
00000100
00000001
00000100
,
00000010
00010000
00001000
00100000
,
00010000
00100000
01000000
00000000
10000000
01000000
00100000
00000000
,
00010000
00100000
00001000
00000000
00010000
00000000
00000100
00000010
,
00000001
00001000
00000010
00000100
,
00000001
00001000
00000100
00000010
,
00000001
00000100
00000010
00000000
00001000
00000010
00010000
00000000
,
00001000
00100000
00010000
00000000
00100000
01000000
10000000
00010000
,
01000000
00100000
10000000
00010000
,
00100000
00001000
00010000
00001000
,
01000000
00010000
10000000
00000000
00010000
00100000
01000000
00000000
,
10000000
01000000
00100000
00000000
00001000
00000000
00010000
00000100
,
00001000
00000010
00000100
00000010
,
00001000
00000001
00001000
00000001
00000010
00000100
00001000
00000001
,
00000200
00000000
00000000
00000300
,
00000001
00000000
00000010
00000000
00000100
00001000
00000100
00000000
,
00010000
00001000
00100000
00010000
,
10000000
00100000
01000000
00000000
01010000
00000000
00000000
00000000
,
00010000
01000000
00001000
00000000
00011000
00000000
00000000
00000000
,
00010000
00000000
00000100
00000000
00000010
00000100
00001000
00000000
,
00000010
00010000
00001000
00010000
,
00000100
00000010
00000001
00000000
00001001
00000000
00000000
00000000
,
00001000
00000010
00000100
00000000
00000101
00000000
00000000
00000000
,
00000001
00000000
00001000
00000000
00000010
00010000
00001000
00000000
,
01000000
00010000
10000000
00100000
,
10000000
01000000
00100000
00000000
00110000
00000000
00000000
00000000
,
00100000
00001000
00010000
00000000
00011000
00000000
00001000
00010000
,
00001000
00000000
00010000
00000000
00000100
00000010
00000001
00000000
,
00001000
00000000
00000010
00000100
00000001
00000000
00000010
00000100
,
00002000
00003020
00020030
00032000
,
01003000
00000000
00010000
00000000
00100000
01000000
00100000
00000000
,
00010000
01000000
00100000
01000000
,
00001000
00010000
00001000
00010000
00001000
00000000
00000000
00000000
,
00100000
00010000
00100000
00010000
00100000
00000000
00000000
00000000
,
00001000
00000000
00010000
00000000
00000100
00001000
00000010
00000000
,
00000100
00000010
00001000
00000100
,
00010000
00001000
00010000
00001000
00010000
00000000
00000000
00000000
,
00000010
00001000
00000010
00001000
00000010
00000000
00000000
00000000
,
00010000
00000000
00001000
00000000
00100000
00010000
10000000
00000000
,
00100000
01000000
00010000
00100000
,
01000000
10000000
01000000
10000000
01000000
00000000
00000000
00000000
,
00100000
00010000
00100000
00010000
00100000
00000000
00001000
00010000
,
00001000
00000000
00010000
00000000
00000010
00000000
00001000
00000100
,
00000010
00000000
00000001
00000000
00001000
00000001
00000100
00000010
,
00000200
00000000
00000300
00000000
,
00020010
00000000
00000000
00000000
,
00032000
00000000
00000000
00000000
,
00203000
00000000
00000000
00000000
,
00320000
00000000
00000000
00000000
,
10030000
00000000
01000000
00100000
00000000
00010000
01000000
00000000
,
00001000
00000000
00010000
01000000
00000000
00100000
00001000
00000000
,
00010000
00000000
00100000
00010000
00000000
00001000
00100000
00000000
,
00010000
00000000
01000000
00100000
00000000
00010000
00001000
00000000
,
00010000
00000000
00000100
00001000
00000000
00000010
00000100
00000000
,
00001000
00000000
00010000
00000100
00000000
00000010
00001000
00000000
,
00010000
00000000
00000000
00010000
00000000
00000000
00010000
00000000
00001000
00000000
00000000
00001000
00000000
00000000
00001000
00000000
,
00010000
00000000
00000000
00000100
00001000
00000000
00000010
00000000
00000100
00000000
00000000
00000001
00000010
00000000
00000100
00000000
,
00001000
00000000
00000010
00001000
00000000
00000010
00001000
00000000
00000001
00000000
00000100
00000010
00000000
00000100
00000010
00000000
,
00001000
00000000
00000100
00010000
00000000
00000100
00010000
00000000
00001000
00000000
00100000
00010000
00000000
00100000
00010000
00000000
,
10000000
00000000
01000000
10000000
00000000
00100000
10000000
00000000
00010000
00000000
01000000
00010000
00000000
00100000
00001000
00000000
,
00010000
00000000
00000100
00010000
00000000
00000010
00001000
00000000
00000001
00000000
00000100
00000001
00000000
00000010
00000001
00000000
,
00001000
00000000
00000100
00001000
00000000
00000010
00010000
00000000
00001000
00000000
01000000
00010000
00000000
00100000
00001000
00000000
,
00010000
00000000
00000100
00001000
00000000
00000010
00010000
00000000
00001000
00000000
01000000
00010000
00000000
00100000
00001000
00000000
,
00010000
00000000
00000000
00010000
00000000
00000000
00010000
00000000
00001000
00000000
00000000
00001000
00000000
00000000
00001000
00000000
,
00020000
00000000
00030000
00000000
,
00001000
00000000
00010000
00001000
00010000
00000000
00000100
00000000
,
00001000
00000000
00000010
00000100
00000010
00000000
00000100
00000000
,
00000001
00000000
00000010
00000100
00000010
00000000
00000100
00000000
,
00001000
00000000
00000010
00010000
00001000
00000000
00010000
00001000
,
01000000
00000000
00010000
00100000
00010000
00000000
10000000
00000000
,
00100000
00000000
01000000
00010000
01000000
00000000
00100000
00000000
,
10000000
00000000
01000000
00100000
01000000
00000000
00100000
00000000
,
00001000
00000000
00010000
00000100
00001000
00000000
00000100
00000010
,
00000001
00000000
00000100
00000010
00000100
00000000
00000001
00000000
,
00001000
00000000
00000100
00000010
00000100
00000000
00001000
00000000
,
00000010
00000000
00010000
00001000
00010000
00000000
00001000
00000000
,
01000000
00000000
00010000
10000000
01000000
00000000
00100000
00010000
,
10000000
00100000
01000000
00001000
,
00010000
00001000
00010000
00000100
00001000
00000100
00000010
00000001
,
00002000
00000000
00000002
00003003
,
00001000
00000001
00000010
00000000
00000100
00000000
00001000
00000000
,
00000010
00000000
00010000
00000000
00001000
00000000
01000000
00010000
,
01000000
00100000
10000000
00000000
00010000
00000000
01000000
00000000
,
00010000
00000000
10000000
01000000
00100000
00000000
00010000
00100000
,
00001000
00010000
00001000
00000000
00010000
00000000
00000100
00000000
,
00000010
00000000
00000001
00000000
00001000
00000000
00000001
00000100
,
00000010
00000100
00000001
00000000
00000010
00000000
00000100
00000000
,
00001000
00000010
00001000
00000000
00000010
00010000
00001000
00010000
,
00000010
00010000
00001000
00000000
01000000
00000000
00010000
00000000
,
00100000
00000000
01000000
00000000
10000000
00000000
00100000
01000000
,
00100000
10000000
00010000
00000000
00100000
00000000
00001000
00000000
,
00010000
00001000
00010000
00000100
00001000
00000001
00000100
00000010
,
00001000
00000001
00000010
00000000
00000100
00001000
00000100
00000000
,
00000010
00000001
00001000
00000010
00000100
00000001
00000010
00000100
,
00002000
00003000
00000000
00000000
,
00000002
00000013
00000100
00001000
00000010
00001000
00000001
00000010
,
00000200
00001300
00000010
00010000
00001000
00010000
00001000
00100000
,
00020000
00130000
01000000
10000000
00100000
10000000
00010000
00100000
,
02000000
13000000
00100000
10000000
00100000
00010000
00001000
00000100
,
00000020
00000000
00000000
00000030
;
