
//----- song ID: somd -----//
#TITLE:Somedays;
#ARTIST:Sonny Fodera ft. Jazzy & D.O.D;
#BANNER:Somedays.png;
#BACKGROUND:Somedays-bg.png;
#CDTITLE:./CDTitles/DDR WORLD.png;
#MUSIC:Somedays.ogg;
#SAMPLESTART:69.137;
#SAMPLELENGTH:15;
#BPMS:0=128;
#NOTES:
     dance-single:
     :
     Beginner:
     3:
     :
0000
0000
0000
0000
,
0000
0000
0000
0000
,
0000
0000
0000
0000
,
0000
0000
0000
0000
,
0000
0000
0000
0000
,
1000
0000
0000
0000
,
0001
0000
1000
0000
,
0001
0000
0000
0000
,
1000
0000
0000
0000
,
0001
0000
0000
0000
,
1000
0000
0001
0000
,
1000
0000
0000
0000
,
0001
0000
0000
0000
,
0010
0000
0100
0000
,
0010
0000
0100
0000
,
1000
0000
0001
0000
,
1000
0000
0000
0000
,
0010
0000
0100
0000
,
0010
0000
0100
0000
,
0001
0000
1000
0000
,
0001
0000
0000
0000
,
1000
0000
0010
0000
,
1000
0000
0010
0000
,
0100
0000
0001
0000
,
0100
0000
0001
0000
,
0000
0000
1000
0000
,
0100
0000
0010
0000
,
0001
0000
1000
0000
,
1001
0000
0000
0000
,
0002
0000
0000
0000
,
0003
0000
0000
0000
,
2000
0000
0000
0000
,
3000
0000
0000
0000
,
0002
0000
0000
0000
,
0003
0000
0000
0000
,
2000
0000
0000
0000
,
3000
0000
0000
0000
,
0001
0000
0010
0000
,
0001
0000
0010
0000
,
0100
0000
1000
0000
,
0100
0000
1000
0000
,
0010
0000
1000
0000
,
0010
0000
1000
0000
,
0001
0000
0100
0000
,
0001
0000
0100
0000
,
1001
0000
1000
0000
,
1001
0000
0000
0000
,
0110
0000
0000
0000
,
0110
0000
0000
0000
,
1001
0000
0000
0000
,
1001
0000
0000
0000
,
0110
0000
0000
0000
,
0110
0000
0000
0000
,
2000
0000
3000
0000
,
0002
0000
0003
0000
,
0200
0000
0300
0000
,
0020
0000
0030
0000
,
2000
0000
3000
0000
,
0002
0000
0003
0000
,
0020
0000
0030
0000
,
0200
0000
0300
0000
,
0010
0000
0000
0000
,
0000
0000
0000
0000
;
#NOTES:
     dance-single:
     :
     Easy:
     5:
     :
0000
0000
0000
0000
,
0000
0000
0000
0000
,
0000
0000
0000
0000
,
0000
0000
0000
0000
,
0000
0000
0000
0000
,
1000
0000
0001
0000
,
0010
0100
0010
0000
,
0001
0001
0001
0000
,
1000
1000
1000
0000
,
0001
0000
1000
0000
,
0010
0100
0010
0000
,
1000
1000
1000
0000
,
1001
0000
0110
0000
,
2000
0000
3001
0001
,
0002
0000
1003
1000
,
0001
0001
1000
1000
,
1001
0000
0001
0001
,
0002
0000
1003
1000
,
2000
0000
3001
0001
,
0100
0100
0010
0010
,
0110
0000
1001
0000
,
0001
0100
0010
0010
,
1000
0100
0010
0010
,
0001
1000
0010
0010
,
0100
0100
0001
0001
,
1000
0010
0100
0100
,
0001
0010
0100
0100
,
1000
0001
0100
0100
,
0110
0000
1001
0000
,
1000
0100
1000
0000
,
0001
0010
0001
0000
,
1000
0010
1000
0000
,
0001
0100
0001
0000
,
1000
1000
0100
0100
,
0010
0010
0001
0001
,
1001
0000
1001
0000
,
0001
1000
0001
1000
,
0001
0100
0010
0000
,
1000
0010
1000
0000
,
0001
0010
0002
0000
,
0013
0001
0010
0000
,
0001
0010
0001
0000
,
1000
0100
1000
0000
,
0001
0100
0002
0000
,
1003
0100
1000
0100
,
0110
0000
0010
0100
,
0110
0000
1000
1000
,
0001
0001
1000
1000
,
1001
1001
0001
0100
,
0002
0000
1003
0010
,
2000
0000
3001
0001
,
1000
1000
0001
0001
,
1001
1001
0110
0000
,
0002
0000
0000
0003
,
2000
0000
3200
0000
,
0320
0000
0000
0030
,
0002
0000
0203
0000
,
0320
0000
0000
0030
,
2000
0000
3002
0000
,
0203
0000
0000
0300
,
0020
0000
2030
0000
,
3100
0000
0000
0000
,
0000
0000
0000
0000
;
#NOTES:
     dance-single:
     :
     Medium:
     9:
     :
0000
0000
0000
0000
,
0000
0000
0000
0000
,
0000
0000
0000
0000
,
0000
0000
0000
0000
,
0000
0000
0000
0000
,
1000
0000
0001
0000
1000
0000
0000
0001
,
0000
0010
0000
0100
0000
1000
0000
0000
,
0001
0100
0001
0100
0001
0000
0000
0000
,
1000
0100
1000
0100
1000
0000
0000
0000
,
0001
0000
1000
0000
0001
0000
0000
1000
,
0000
0100
0000
0010
0000
0001
0000
0000
,
1000
0100
1000
0100
1000
0000
0000
0000
,
0001
0010
0001
0000
1000
0010
1000
0000
,
0001
0000
0011
0000
0010
0100
1000
0000
,
0010
0000
1010
0000
1000
0001
0010
0000
,
0100
0010
0100
0000
1000
0001
1000
0000
,
0001
0000
0101
0000
0100
0010
1000
0000
,
0100
0000
0110
0000
0010
0001
0100
0000
,
0010
0000
0110
0000
0100
0001
0010
0000
,
0001
0100
0001
0000
1000
0010
1000
0000
,
0010
1010
0101
0000
,
0001
0000
0001
0000
1000
0010
1000
0000
,
0100
0000
0100
0000
0010
0001
0010
0000
,
0001
0000
0001
0000
1000
0010
1000
0000
,
0001
0010
0100
0000
1000
0001
0100
0000
,
0010
0000
0010
0000
1000
0001
1000
0000
,
0100
0000
0100
0000
0010
0100
0010
0000
,
0001
0000
0001
0000
0100
0010
0100
0000
,
0010
1000
0001
0000
0010
0100
1000
0000
,
0001
0000
0000
0001
0000
0000
0001
0000
0000
0001
0000
0000
0010
0000
0000
0100
,
0000
0000
0010
0000
0000
0100
0000
0000
1000
0000
0000
0001
0000
0000
1000
0000
,
0010
0000
0000
0010
0000
0000
0010
0000
0100
0000
0000
0001
0000
0000
1000
0000
,
0100
0000
0000
0010
0000
0000
0100
0000
0000
0010
0000
0000
0001
0000
1000
0000
,
0001
0010
0001
0000
1000
0010
1000
0000
,
0001
0100
0001
0000
1000
0100
1000
0000
,
1100
0001
0011
1000
,
0010
0100
0010
0100
0010
0100
0010
0000
,
1000
0000
0001
0010
0001
0000
0100
0000
,
0010
1000
0010
0000
1000
0100
1000
0000
,
0001
0010
0001
0010
0100
0000
1000
0000
,
0010
1000
0010
1000
0001
0000
0100
0000
,
0001
0000
1000
0100
1000
0000
0010
0000
,
0100
0001
0100
0000
0001
0010
0001
0000
,
1000
0100
1000
0100
0010
0000
0001
0000
,
0100
0001
0100
0000
0010
1000
0100
0000
,
0010
0000
0011
0000
0001
1000
0001
1000
,
0100
0000
1100
0000
1000
0001
1000
0001
,
0100
0010
0100
0000
0010
0100
0010
0000
,
1000
0000
1010
0000
0010
0100
0010
0100
,
0001
0000
0011
0000
0010
0100
0010
0100
,
1000
0000
1010
0000
0010
0100
0010
0100
,
0001
1000
0001
0000
0010
0100
0010
0000
,
0001
0011
1100
0000
,
2000
0000
0000
3002
,
0023
0230
2300
3020
,
0230
0000
0000
0302
,
2003
3200
0320
0032
,
0203
0000
0000
0320
,
2030
3002
0023
0230
,
2300
0000
0000
3020
,
0230
0302
0023
0230
,
1300
0000
0000
0000
,
0000
0000
0000
0000
;
#NOTES:
     dance-single:
     :
     Hard:
     13:
     :
0000
0000
0000
0000
,
0000
0000
0000
0000
,
0000
0000
0000
0000
,
0000
0000
0000
0000
,
0000
0000
0000
0000
,
1000
0000
0000
0100
0000
0000
0010
0000
0000
0100
0000
0000
1000
0000
0000
0100
,
0000
0000
0010
0000
0000
0001
0000
0000
0100
0000
0000
0010
0000
0000
0100
0000
,
0001
0000
1000
0010
0000
1000
0010
0000
0100
0000
0000
0001
0000
0000
0100
0000
,
0001
0000
0010
0001
0000
0010
0001
0000
0010
0100
0000
0000
1000
0000
0001
0000
,
0010
0000
0000
0100
0000
0000
0010
0000
0000
0001
0000
0000
0010
0000
0000
0100
,
0000
0000
0010
0000
0000
0001
0000
0000
0100
0000
0000
0010
0000
0000
0100
0000
,
0010
1000
0000
0001
0000
0010
0100
0000
0010
0000
0000
0001
0000
0000
1000
0000
,
0010
0100
0110
0000
0001
0010
0100
1000
,
0001
0000
0000
0100
0001
0000
0000
0000
1000
0000
0100
0000
0010
0000
0001
0000
,
1000
0000
0000
0010
1000
0000
0000
0000
0001
0000
0010
0000
0100
0000
1000
0000
,
0001
0100
0010
1000
0001
0100
0010
1000
,
0001
0000
0000
0100
0001
0000
0000
0000
1000
0000
0100
0000
0010
0000
0001
0000
,
1000
0000
0000
0010
0100
0000
0000
0000
0001
0000
0010
0000
0100
0000
1000
0000
,
0001
0000
0000
0010
0100
0000
0000
0000
1000
0000
0010
0000
0100
0000
0001
0000
,
1000
0100
0010
0001
1000
0100
0010
0001
,
1000
0000
0000
0010
0100
0000
0001
0010
0000
0100
1000
0000
0010
0000
0100
0000
,
0001
0000
0100
0001
0100
0000
0001
0000
1000
0000
0100
0000
0010
0000
0001
0010
,
0001
0000
0010
0000
0100
0010
0100
0000
1000
0000
0001
0000
0100
0000
0010
0000
,
1000
0000
0001
0100
0001
0000
1000
0000
0001
0000
0010
0000
0100
0000
1000
0001
,
1000
0000
0010
0000
0100
0000
0001
1000
0001
0000
0010
0000
0100
0000
1000
0000
,
0010
0000
0100
0010
0100
0000
0010
0000
1000
0000
0001
0000
0010
0000
0100
1000
,
0100
0000
1000
0000
0001
0100
0001
0000
1000
0000
0010
0000
0100
0000
0001
0000
,
1000
0000
0100
0010
0100
0000
0010
0000
0001
0000
0010
0000
0100
0000
1000
0001
,
1000
0010
0100
0000
0001
0010
0100
0000
,
1000
0001
0000
0100
0000
0000
0100
0000
0000
0100
0000
0000
0010
0000
0000
1000
,
0000
0000
0100
0000
0000
0010
0000
0000
0001
0000
0000
1000
0000
0000
0001
0000
,
0100
0010
0000
1000
0000
0000
1000
0000
0100
0000
0000
0010
0000
0000
0001
0000
,
1000
0000
0000
0001
0000
0000
0100
0000
0000
0010
0000
0100
0010
0000
1000
0000
,
0001
0100
0001
0100
0010
1000
0010
1000
,
0001
0010
0001
0010
0100
1000
0100
1000
,
1001
0001
0010
0100
1001
1000
0010
0100
,
0001
0010
0001
0000
1000
0010
1000
0000
0001
0100
0001
0100
0001
0100
0001
0100
,
0001
0000
1000
0010
0100
0000
0010
0000
1000
0000
0001
0000
0010
0000
0001
0000
,
0100
0010
0100
1000
0100
0001
1000
0010
,
0100
0000
0001
1000
0000
0100
0010
0000
0100
0000
1000
0000
0001
0000
0100
0000
,
0010
0000
1000
0001
0000
0010
0100
0000
0010
0000
0001
0000
1000
0000
0010
0000
,
1000
0000
0001
0100
0010
0000
0100
0000
0001
0000
1000
0000
0100
0000
1000
0000
,
0010
0100
0010
0001
0010
1000
0001
0100
,
0010
1000
0000
0001
0000
0010
0100
0000
0010
0000
0001
0000
1000
0000
0100
0000
,
1000
0001
0110
0000
1000
0100
0010
0001
,
1000
0100
0000
0010
0100
0000
0010
0000
0001
1000
0010
0000
0100
0000
0001
0100
,
0001
0000
1000
0000
0100
0010
0100
0000
1000
0000
0001
1000
0001
0000
1000
0000
,
0010
0100
0000
0100
0010
0000
1000
0000
0100
0010
0000
0010
0100
0000
1000
0000
,
0001
0000
0100
0010
0100
0000
0010
0000
1000
0001
0000
0010
0100
0000
1000
0000
,
0001
0010
0000
0100
0010
0000
0100
0000
1000
0001
0100
0000
0010
0000
1000
0010
,
1000
0000
0001
0000
0010
0100
0010
0000
0001
0000
1000
0001
1000
0000
0001
0000
,
0100
0010
0000
0010
0100
0000
0001
0000
0010
0100
0000
0100
0010
0000
0001
0000
,
1001
0000
1000
0010
1000
0000
0001
0000
1001
0000
0001
0100
0001
0000
1000
0000
,
0020
0000
0000
0000
0000
0000
0130
0001
,
2000
3200
0320
0032
,
0203
0000
0000
0000
0000
0000
0301
1000
,
0020
0230
0302
0023
,
0230
0000
0000
0000
0000
0000
1300
0001
,
0020
0230
2300
3020
,
0230
0000
0000
0000
0000
0000
0301
0010
,
0200
2300
3002
0023
,
0130
0000
0000
0000
,
0000
0000
0000
0000
;
#NOTES:
     dance-double:
     :
     Easy:
     6:
     :
00000000
00000000
00000000
00000000
,
00000000
00000000
00000000
00000000
,
00000000
00000000
00000000
00000000
,
00000000
00000000
00000000
00000000
,
00000000
00000000
00000000
00000000
,
10000000
00000000
00010000
00000000
,
00100000
00001000
00010000
00000000
,
00000100
00000100
00000100
00000000
,
00000010
00000010
00000010
00000000
,
00000001
00000000
00001000
00000000
,
00000100
00010000
00001000
00000000
,
01000000
01000000
01000000
00000000
,
01100000
00000000
10010000
00000000
,
00020000
00000000
01030000
00001000
,
00002000
00000000
00013000
00000010
,
00001000
00001000
00000001
00000001
,
00001001
00000000
00001000
00000100
,
00000200
00000000
00010300
00001000
,
00002000
00000000
01003000
01000000
,
00010000
00010000
10000000
10000000
,
10010000
00000000
01100000
00000000
,
10000000
01000000
00010000
00001000
,
00010000
00001000
00000010
00000001
,
00000100
00000010
00001000
00000100
,
00010000
00010000
00001000
00001000
,
01000000
00100000
00010000
00001000
,
00010000
00001000
00000100
00000001
,
00000010
00000100
00001000
00000010
,
00011000
00000000
01100000
00000000
,
10000000
01000000
10000000
01000000
,
00010000
00001000
00010000
00000000
,
00000010
00001000
00000010
00001000
,
00000001
00000100
00000001
00000000
,
00000100
00000100
00001000
00001000
,
00010000
00010000
00100000
00100000
,
10010000
00000000
10010000
00000000
,
00010000
01000000
00001000
00010000
,
00000010
00001000
00000100
00000010
,
00000001
00001000
00000001
00000100
,
00001000
00010000
00011000
00000000
,
00010000
01000000
01100000
00000000
,
00100000
00010000
01000000
00100000
,
10000000
00010000
10000000
01000000
,
00010000
00001000
00011000
00000000
,
00010000
00000010
00001010
00001001
,
00000001
00001000
00000100
00001100
,
00000100
00010000
00001000
00011000
,
00101000
00110000
10010000
11000000
,
10000000
00010000
10000000
10010000
,
10000000
01000000
00010000
00011000
,
00001000
00000010
00000001
00001001
,
00001100
00010100
00011000
01001000
,
01010000
00000000
10010000
00000000
,
20000000
00000000
00000000
30000000
,
00200000
00000000
00320000
00000000
,
00032000
00000000
00000000
00003000
,
00020000
00000000
00032000
00000000
,
00003200
00000000
00000000
00000300
,
00000002
00000000
00002003
00000000
,
00003200
00000000
00000000
00000300
,
00020000
00000000
00032000
00000000
,
00103000
00000000
00000000
00000000
,
00000000
00000000
00000000
00000000
;
#NOTES:
     dance-double:
     :
     Medium:
     9:
     :
00000000
00000000
00000000
00000000
,
00000000
00000000
00000000
00000000
,
00000000
00000000
00000000
00000000
,
00000000
00000000
00000000
00000000
,
00000000
00000000
00000000
00000000
,
00000001
00000000
00000100
00000000
00000001
00000000
00000000
00000100
,
00000000
00001000
00000000
00010000
00000000
00100000
00000000
00000000
,
10000000
01000000
10000000
01000000
10000000
00000000
00000000
00000000
,
00010000
01000000
00010000
01000000
00010000
00000000
00000000
00000000
,
10000000
00000000
00100000
00000000
10000000
00000000
00000000
00100000
,
00000000
00010000
00000000
00001000
00000000
00000100
00000000
00000000
,
00000001
00000010
00000001
00000010
00000001
00000000
00000000
00000000
,
00001000
00000100
00010000
00000000
00001000
00100000
00010000
00000000
,
10000000
00000000
10100000
00000000
00100000
01000000
00010000
00000000
,
00100000
00000000
00101000
00000000
00001000
00010000
00000100
00000000
,
00001000
00000001
00001000
00000000
00000010
00000100
00000010
00000000
,
00001000
00000000
00001100
00000000
00000100
00010000
00001000
00000000
,
00010000
00000000
00011000
00000000
00001000
00100000
00010000
00000000
,
10000000
00000000
11000000
00000000
01000000
00100000
00010000
00000000
,
01000000
00001000
00010000
00000000
00000100
00001000
00000001
00000000
,
00000010
00000110
00001001
00000000
,
00000001
00000000
00000100
00000000
00001000
00010000
00001000
00000000
,
00010000
00000000
01000000
00000000
10000000
00010000
10000000
00000000
,
00100000
00000000
00010000
00000000
00001000
00010000
00000100
00000000
,
00001000
00000010
00010000
00000000
00001000
00100000
00010000
00000000
,
10000000
00000000
00100000
00000000
00010000
00001000
00010000
00000000
,
00001000
00000000
00000010
00000000
00000001
00001000
00000001
00000000
,
00000100
00000000
00001000
00000000
00010000
00001000
00100000
00000000
,
00010000
01000000
00001000
00000000
00010000
00000100
00001000
00000000
,
00000001
00000000
00000000
00000001
00000000
00000000
00000001
00000000
00000000
00000001
00000000
00000000
00001000
00000000
00000000
00000100
,
00000000
00000000
00010000
00000000
00000000
00001000
00000000
00000000
01000000
00000000
00000000
00010000
00000000
00000000
01000000
00000000
,
00100000
00000000
00000000
00100000
00000000
00000000
00100000
00000000
10000000
00000000
00000000
01000000
00000000
00000000
10000000
00000000
,
00010000
00000000
00000000
00100000
00000000
00000000
00001000
00000000
00000000
00010000
00000000
00000000
00000010
00000000
00001000
00000000
,
00000001
00000100
00000001
00000000
00001000
00000100
00001000
00000000
,
00000100
00010000
00001000
00000000
01000000
00010000
00100000
00000000
,
00110000
10000000
11000000
00010000
,
10000000
00010000
10000000
00010000
10000000
00010000
10000000
00000000
,
01000000
00000000
00100000
00010000
00100000
00000000
00001000
00000000
,
00010000
00000010
00001000
00000000
00000001
00000010
00000100
00000000
,
00001000
00000100
00001000
00000100
00010000
00000000
00001000
00000000
,
01000000
00010000
01000000
00010000
10000000
00000000
00100000
00000000
,
10000000
00000000
00010000
01000000
00010000
00000000
00100000
00000000
,
00001000
00010000
00000100
00000000
00001000
00000010
00000100
00000000
,
00000001
00000010
00000001
00000010
00000100
00000000
00001000
00000000
,
00000010
00010000
00001000
00000000
01000000
00010000
00100000
00000000
,
01000000
00000000
11000000
00000000
10000000
00010000
10000000
00010000
,
00100000
00000000
00101000
00000000
00001000
00010000
00001000
00010000
,
00000010
00001000
00000010
00000000
00000100
00000001
00000100
00000000
,
00000001
00000000
00000011
00000000
00000010
00000100
00000010
00000100
,
00001000
00000000
00001100
00000000
00000100
00010000
00001000
01000000
,
00010000
00000000
01010000
00000000
01000000
00100000
10000000
00010000
,
00100000
00001000
00010000
00000000
00000010
00001000
00000001
00000000
,
00001000
00001001
00000110
00000000
,
00000002
00000000
00000000
00002003
,
00003002
00000203
00002300
00023000
,
00032000
00000000
00000000
00023000
,
00230000
20300000
32000000
03200000
,
00320000
00000000
00000000
20030000
,
30200000
00320000
00032000
00003200
,
00000302
00000000
00000000
00000023
,
00002030
00023000
02030000
23000000
,
30010000
00000000
00000000
00000000
,
00000000
00000000
00000000
00000000
;
#NOTES:
     dance-double:
     :
     Hard:
     13:
     :
00000000
00000000
00000000
00000000
,
00000000
00000000
00000000
00000000
,
00000000
00000000
00000000
00000000
,
00000000
00000000
00000000
00000000
,
00000000
00000000
00000000
00000000
,
10000000
00000000
00000000
01000000
00000000
00000000
00100000
00000000
00000000
00010000
00000000
00000000
10000000
00000000
00000000
01000000
,
00000000
00000000
00010000
00000000
00000000
00001000
00000000
00000000
00000100
00000000
00000000
00000010
00000000
00000000
00000100
00000000
,
00000001
00000000
00001000
00000010
00000000
00001000
00000010
00000000
00000100
00000000
00000000
00000001
00000000
00000000
00001000
00000000
,
00000100
00000000
00010000
00001000
00000000
00010000
00001000
00000000
00100000
00010000
00000000
00000000
10000000
00000000
00010000
00000000
,
10000000
00000000
00000000
00100000
00000000
00000000
01000000
00000000
00000000
00010000
00000000
00000000
10000000
00000000
00000000
00100000
,
00000000
00000000
00010000
00000000
00000000
00001000
00000000
00000000
00000010
00000000
00000000
00000100
00000000
00000000
00000010
00000000
,
00000001
00001000
00000000
00000100
00000000
00010000
00001000
00000000
00010000
00000000
00000000
00001000
00000000
00000000
01000000
00000000
,
00010000
10000000
10010000
00000000
10000000
01000000
00100000
00010000
,
01000000
00000000
00000000
00001000
00010000
00000000
00000000
00000000
00000010
00000000
00001000
00000000
00000100
00000000
00000010
00000000
,
00000001
00000000
00000000
00001000
00000010
00000000
00000000
00000000
00001000
00000000
00000100
00000000
00010000
00000000
00001000
00000000
,
01000000
00010000
00100000
01000000
10000000
00100000
01000000
00010000
,
00100000
00000000
00000000
00001000
00010000
00000000
00000000
00000000
00000100
00000000
00001000
00000000
00000010
00000000
00000100
00000000
,
00000010
00000000
00000000
00010000
00001000
00000000
00000000
00000000
01000000
00000000
00010000
00000000
00100000
00000000
01000000
00000000
,
10000000
00000000
00000000
00010000
01000000
00000000
00000000
00000000
00010000
00000000
00100000
00000000
00001000
00000000
00010000
00000000
,
00000010
00001000
00000100
00000010
00000001
00000100
00000010
00001000
,
00000100
00000000
00000000
00010000
00001000
00000000
01000000
00010000
00000000
10000000
00100000
00000000
01000000
00000000
00100000
00000000
,
10000000
00000000
01000000
00000000
00010000
00000000
00001000
00000000
00000010
00000000
00000100
00000000
00000010
00000000
00000001
00001000
,
00000001
00000100
00001000
00010000
00100000
01000000
00100000
10000000
,
00100000
00000000
00010000
00000000
00001000
00000000
00000100
00000000
00000001
00000000
00001000
00000000
00000001
00000000
00001000
00000100
,
00001000
00000000
00000100
00000000
00010000
00000000
00001000
00010000
00001000
00000000
00100000
00000000
00010000
00000000
01000000
00000000
,
00100000
00000000
10000000
00000000
01000000
00000000
00010000
00000000
00001000
00000000
00000010
00000000
00000001
00000000
00000100
00000001
,
00000100
00000001
00000100
00001000
00010000
00100000
10000000
00010000
,
10000000
00000000
00100000
00000000
00010000
00000000
00001000
00000000
00000100
00000000
00000001
00000000
00000010
00000000
00000100
00001000
,
00000100
00010000
00001000
00000000
00010000
01000000
10000000
00000000
,
00010000
00100000
00000000
00001000
00000000
00000000
00001000
00000000
00000000
00001000
00000000
00000000
00010000
00000000
00000000
00000100
,
00000000
00000000
00001000
00000000
00000000
00000010
00000000
00000000
00000100
00000000
00000000
00000001
00000000
00000000
00001000
00000000
,
00000100
00010000
00000000
00001000
00000000
00000000
00001000
00000000
01000000
00000000
00000000
00010000
00000000
00000000
10000000
00000000
,
00100000
00000000
00000000
01000000
00000000
00000000
00010000
00000000
00000000
00100000
00000000
00001000
00010000
00000000
00001000
00000000
,
00000100
00000010
00000100
00000010
00001000
00000001
00001000
00000001
,
00000100
00001000
00010000
00100000
10000000
01000000
00100000
00010000
,
00110000
00100000
00001000
00010000
00011000
00001000
00010000
00000100
,
00001000
00000100
00001000
00000000
00000001
00000010
00000001
00000000
00001000
00000001
00001000
00000001
00001000
00000001
00001000
00000000
,
00000001
00000000
00000100
00000010
00000100
00000000
00000010
00000000
00001000
00000000
00000010
00000000
00010000
00000000
00001000
00000000
,
00010000
00100000
01000000
00010000
00100000
01000000
00010000
00001000
,
00000010
00000000
00000001
00000100
00000000
00000010
00001000
00000000
00000001
00000000
00000010
00000000
00001000
00000000
00010000
00000000
,
01000000
00000000
10000000
00100000
00000000
01000000
00010000
00000000
01000000
00000000
00100000
00000000
10000000
00000000
00010000
00000000
,
10000000
00000000
01000000
00100000
01000000
00000000
00100000
00000000
00010000
00000000
00100000
00000000
00001000
00000000
00010000
00000000
,
00001000
00000010
00000100
00001000
00000010
00000100
00001000
00010000
,
00100000
01000000
00000000
00010000
00000000
10000000
00100000
00000000
10000000
00000000
00100000
00000000
00010000
00000000
00001000
00000000
,
00000100
00000001
00001001
00000000
00001000
00000100
00010000
00001000
,
01000000
00010000
00000000
01000000
00100000
00000000
10000000
00000000
01000000
00000000
00010000
00000000
00001000
00000000
00000100
00000000
,
00000001
00000000
00001000
00000000
00000001
00000010
00000001
00000000
00000010
00000000
00001000
00000000
00010000
00000000
00100000
00000000
,
10000000
01000000
00000000
01000000
00100000
00000000
00010000
00000000
10000000
00100000
00000000
00100000
01000000
00000000
00010000
00000000
,
00100000
00000000
00001000
00000000
00010000
00000000
00000100
00000000
00001000
00000010
00000000
00000100
00000001
00000000
00000010
00000000
,
00000100
00001000
00000000
00000100
00000010
00000000
00000001
00000000
00000100
00000000
00001000
00000000
00010000
00000000
01000000
00000000
,
10000000
00000000
00010000
00000000
10000000
00100000
10000000
00000000
00100000
00000000
00010000
00000000
00001000
00000000
00000010
00000000
,
00000001
00000100
00000000
00000100
00000010
00000000
00001000
00000000
00000001
00000010
00000000
00000010
00000100
00000000
00001000
00000000
,
00001100
00000000
00000100
00010000
00000100
00000000
00010000
00000000
00011000
00000000
00001000
01000000
00001000
00000000
01000000
00000000
,
00020000
00000000
00000000
00000000
00000000
00000000
10030000
00010000
,
20000000
32000000
03020000
00032000
,
00003020
00000000
00000000
00000000
00000000
00000000
00000031
00001000
,
00000002
00000203
00002300
00023000
,
00230000
00000000
00000000
00000000
00000000
00000000
10300000
01000000
,
00200000
00320000
00032000
00003200
,
00000320
00000000
00000000
00000000
00000000
00000000
00000031
00000100
,
00000020
00002030
00023000
02030000
,
03100000
00000000
00000000
00000000
,
00000000
00000000
00000000
00000000
;
