
//----- song ID: smin -----//
#VERSION:0.83;
#TITLE:Smintheus;
#ARTIST:TAN1CHU;
#BANNER:Smintheus.png;
#BACKGROUND:Smintheus-bg.png;
#CDTITLE:./CDTitles/DDR WORLD.png;
#MUSIC:Smintheus.ogg;
#SAMPLESTART:71.844;
#SAMPLELENGTH:15;
#BPMS:0=228,432=250;
#NOTEDATA:;
#STEPSTYPE:dance-single;
#DIFFICULTY:Beginner;
#METER:5;
#NOTES:
0000
0000
0000
0000
,
0000
0000
0000
0000
,
0000
0000
0000
0000
,
0000
0000
0000
0000
,
0000
0000
0000
0000
,
0000
0000
0000
0000
,
0000
0000
0000
0000
,
0000
0001
0000
0000
,
0000
0001
0000
0000
,
0010
0000
0000
0000
,
0010
0000
0000
1000
,
0000
0000
0000
1000
,
0000
0000
0000
0010
,
0000
0000
0000
1000
,
0000
0000
1000
0000
,
0000
0000
0100
0000
,
0000
0000
1000
0000
,
0000
0000
1000
0000
,
0000
0020
0000
0030
,
0000
0010
0000
0000
,
0000
0010
0000
0000
,
0000
0000
0000
0000
,
0000
0002
0000
0003
,
0000
0001
0000
0000
,
0000
0001
0000
0000
,
0000
0000
0000
0000
,
0000
2000
0000
3000
,
0000
1000
0000
0000
,
0000
1000
0000
0000
,
0000
0000
0000
0000
,
0000
0200
0000
0300
,
0000
0100
0000
0000
,
0000
0100
0000
0000
,
0000
0000
0000
0000
,
0000
1001
0000
0000
,
0000
0000
0000
0000
,
0000
1001
0000
0000
,
0000
0000
0000
0000
,
0000
1001
0000
0000
,
0000
0000
0000
0000
,
0000
1001
0000
0000
,
0000
0000
0000
0000
,
0000
1001
0000
0000
,
0000
0001
0000
0001
,
0000
0010
0000
0000
,
0000
0010
0000
0010
,
0000
1000
0000
0000
,
0000
1000
0000
1000
,
0000
0010
0000
0000
,
0000
0010
0000
0010
,
0000
0001
0000
0000
,
0000
0000
0000
0000
,
0000
1001
0000
0000
,
0000
0001
0000
0010
,
0000
0001
0000
0000
,
0000
0010
0000
0000
,
0000
1001
0000
0000
,
0000
1000
0000
0010
,
0000
1000
0000
0000
,
0000
0010
0000
0000
,
0000
0002
0000
0003
,
0000
0001
0000
0001
,
0000
0020
0000
0030
,
0000
0010
0000
0010
,
0000
2000
0000
3000
,
0000
1000
0000
1000
,
0000
0020
0000
0030
,
0000
0010
0000
0000
,
0000
1001
0000
0000
,
0000
1001
0000
0000
,
0000
0001
0000
0010
,
0000
0001
0000
0000
,
0000
0020
0000
0000
,
0000
0030
0000
0000
,
0000
0020
0000
0000
,
0000
0030
0000
0000
,
0000
1001
0000
0000
,
0000
1001
0000
0000
,
0000
1000
0000
0010
,
0000
1000
0000
0000
,
0000
0020
0000
0000
,
0000
0030
0000
0000
,
0000
0020
0000
0000
,
0000
0030
0000
0000
,
0000
1000
0000
1000
,
0000
0100
0000
0000
,
0000
0010
0000
0010
,
0000
0010
0000
0000
,
0000
0001
0000
0001
,
0000
0100
0000
0000
,
0000
0010
0000
0010
,
0000
0010
0000
0000
,
0000
1000
0000
1000
,
0000
1000
0000
0000
,
0000
0010
0000
0010
,
0000
0010
0000
0000
,
0000
0001
0000
0001
,
0000
0001
0000
0000
,
0000
1001
0000
0000
,
0000
0000
0000
0000
,
0000
0000
0000
0000
,
0000
1001
0000
0000
,
0000
0000
0000
0000
,
0000
0000
0000
0000
,
0000
0000
0000
0001
,
0000
0000
0000
0001
,
0000
0000
0010
0000
,
0000
0000
0010
0000
,
0000
1000
0000
0000
,
0000
1000
0000
0000
,
0000
1000
0000
0000
,
0000
0000
0000
0000
,
0010
0000
0000
0000
,
0010
0000
0000
0000
,
0010
0000
0000
0000
,
0001
0000
0000
0000
,
0001
0000
0000
0000
,
0000
0000
1001
0000
;
#NOTEDATA:;
#STEPSTYPE:dance-single;
#DIFFICULTY:Easy;
#METER:10;
#NOTES:
0000
0000
0000
0000
,
0000
0000
0000
0000
,
0000
0000
0000
0000
,
0000
0000
0000
0000
,
0000
0000
0000
0000
,
0000
0000
0000
0000
,
0000
0000
0000
0000
,
0000
0001
0010
0001
,
1000
0001
0001
1000
,
1000
0010
1000
0001
,
1000
1000
0001
0001
,
0010
0100
0010
0100
,
1000
0001
0001
1000
,
0010
0100
0010
0100
,
0001
1000
1000
0100
,
0010
0100
0010
0001
,
1000
1000
0001
0100
,
0010
0100
0010
1000
,
0001
2000
0000
3000
,
0000
1000
0100
0010
,
0000
0002
0000
0003
,
0000
0001
0100
0010
,
0000
2000
0000
3000
,
0000
1000
0010
0100
,
0000
0002
0000
0003
,
0000
0001
0010
0100
,
0000
1000
0001
0100
,
0001
1000
0001
0100
,
0000
0001
1000
0100
,
1000
0001
1000
0100
,
0000
1000
0001
0010
,
0001
1000
0001
0010
,
0000
0001
1000
0010
,
1000
0001
1000
0010
,
0000
1000
0000
0010
,
0000
1010
0000
0000
,
0000
0001
0000
0010
,
0000
0011
0000
0000
,
0000
1000
0000
0100
,
0000
1100
0000
0000
,
0000
0001
0000
0100
,
0000
0101
0000
0000
,
0000
1001
0000
0000
,
0000
1000
1000
0100
,
0100
1000
0010
0100
,
0010
1000
1000
0010
,
1000
0001
0010
0100
,
1000
0001
0001
0010
,
0010
0001
1000
0010
,
0100
0001
0001
0100
,
0100
0002
0000
0000
,
0000
0003
0000
0000
,
0000
1001
0000
0000
,
0000
1000
0010
0100
,
0000
1001
0000
0000
,
0000
0001
0010
0100
,
0000
1001
0000
0000
,
0000
1000
0100
0010
,
0000
1001
0000
0000
,
0000
0001
0100
0010
,
0000
1000
0100
0010
,
0001
1000
0100
0010
,
0000
0001
0100
0010
,
1000
0001
0100
0010
,
0000
1000
0001
0010
,
0010
0001
1000
0010
,
0010
1000
0100
0010
,
0001
1000
0000
0000
,
0000
0001
0001
0100
,
0001
0100
0100
0001
,
0001
1000
1000
0010
,
0010
1000
0010
1010
,
0000
1000
0100
0010
,
0001
1000
0100
0010
,
0001
0100
0010
1000
,
0001
0100
0010
1000
,
0000
1000
1000
0100
,
1000
0100
0100
1000
,
1000
0001
0001
0010
,
0010
0001
0010
0011
,
0000
0001
0100
0010
,
1000
0001
0100
0010
,
1000
0100
0010
0001
,
1000
0100
0010
0001
,
0000
1000
0001
1000
,
0001
0100
0010
0100
,
0000
0010
0100
0010
,
0100
0001
1000
0001
,
0000
1000
0100
0001
,
0000
0001
0100
1000
,
0000
0001
0100
1000
,
0000
1000
0100
0001
,
0000
1000
1000
1000
,
1000
1000
1000
1000
,
0000
0001
0001
0001
,
0001
0001
0001
0001
,
0000
0100
0100
0100
,
0000
0010
0010
0010
,
0000
0100
0010
0100
,
0010
0110
0000
0000
,
0000
0000
0000
0000
,
0000
1001
0000
0000
,
0000
0000
0000
0000
,
0000
0000
0000
0000
,
0000
0000
0000
1000
,
0010
0100
0001
0100
,
0010
1000
0001
0010
,
0100
1000
0100
0010
,
0000
0001
0100
0010
,
0000
1000
0100
0010
,
0000
0001
1000
0100
,
0010
0100
1000
0001
,
0100
0010
1000
0000
,
0001
0100
0010
0000
,
1000
0001
0010
0100
,
1000
0000
1100
0000
,
0011
0000
0110
0000
,
0110
0000
1001
0000
;
#NOTEDATA:;
#STEPSTYPE:dance-single;
#DIFFICULTY:Medium;
#METER:13;
#BPMS:0=228,15=114,29=228,125=114,126.5=228,131.5=114,133=228,138=114,139.5=228,144.5=114,146=228,149=114,151=228,179=342,180.5=266,181.66666=190,182.5=114,183=76,183.33333=57,183.583=47.5,184=114,200=228,228=114,230=228,359.375=190,360=114,367=228,379.5=250;
#STOPS:357.5=0.099,357.875=0.099,358.25=0.099,358.625=0.099,359=0.099,379=0.132,379.5=0.12;
#TIMESIGNATURES:0=4=4,8=7=4,29=4=4,41=3=4,44=4=4,56=3=4,59=4=4,123=3=4,126=5=4,129.5=3=4,132.5=5=4,136=3=4,139=5=4,142.5=3=4,145.5=5=4,149=2=4,151=4=4,179=3=4,182=2=4,184=4=4,228=2=4,230=4=4,354=5=4,357.5=3=4,360=7=4,379=1=4,380=4=4,392=3=4,395=4=4;
#NOTES:
0000
0000
0000
0000
,
0000
0000
0000
0000
,
0000
0000
0000
0000
,
0000
0000
0000
2002
,
0000
0000
0000
0000
,
0000
0000
0000
0000
3003
0000
0000
0000
1000
0000
0001
0000
0100
0010
0100
0000
,
0001
0000
1000
0000
0100
0000
0010
0000
0001
1000
0001
0000
0100
0000
0010
0000
,
2000
3000
1000
0000
1010
0000
1000
0000
,
1001
0000
1000
0000
1100
0000
1000
0100
,
0010
0001
0011
0001
,
0101
0000
0001
0100
0010
0000
0110
0000
,
1000
1100
1000
1001
,
1000
0000
1010
0000
1000
0010
0100
0000
,
0001
0101
0001
0011
,
0001
0010
0100
0000
0110
0000
1000
0000
,
0001
0100
0010
1000
,
0001
0000
0100
0010
1000
0000
0001
0000
,
1000
0100
0010
0001
,
1000
0110
1001
0001
,
0100
1000
0100
0001
,
0010
0000
1000
0010
0001
0000
1000
0000
,
0100
0110
0000
0011
,
0000
1001
0000
1000
,
0001
0100
0100
0001
,
1000
0000
0100
0010
0100
0000
1000
0000
,
0001
0010
0010
0001
,
1000
0000
0010
0100
0010
0000
1000
0000
,
1000
1010
1010
0001
,
0001
0000
0011
0000
0011
0000
0001
0010
,
0100
0000
1000
0010
0100
0000
0001
0000
,
1000
0001
1000
0001
1000
0000
0010
0100
,
0000
0001
2000
0000
0000
3000
0000
1001
,
0000
0000
0000
1000
0100
0000
0010
0002
,
0000
0003
0011
0000
,
0001
0000
0000
0000
0100
0000
0000
0000
0010
0000
0000
0000
2000
0000
0000
0000
0000
0000
0000
0000
0000
3000
0000
0000
,
0000
1010
0000
0000
0000
1000
0010
0000
,
0100
0020
0000
0000
0030
0000
0110
0000
,
0000
0000
2002
0000
0000
3003
1000
0000
,
0100
0010
0000
0001
0010
0000
0001
0000
,
0100
0000
0001
1000
0001
0000
0010
0000
,
0100
1000
0000
0001
1000
0000
0010
0000
,
0100
0000
0001
1000
0001
0000
0010
0000
,
0001
0100
0000
0010
1000
0000
0001
0100
,
0001
0000
1000
0010
1000
0000
0010
0000
,
0100
0001
0000
1000
0100
0000
2002
0000
,
0000
0000
0000
3003
,
1000
0000
0000
1000
0000
0000
0010
0000
0000
0010
0000
0000
0100
0001
0100
0000
,
0001
0000
0000
0001
0000
0000
0010
0000
0000
0010
0000
0000
0100
1000
0100
0000
,
1000
0000
0001
0000
0100
0000
0010
0000
1000
0000
0100
0000
0010
0001
0010
0000
,
0001
0000
1000
0000
0010
0000
0100
0000
0001
1000
0001
0000
2000
0000
0000
0000
,
3002
1000
1000
1000
,
2003
0010
0010
0010
,
3020
0100
0100
0100
,
0230
0001
0001
0301
,
1000
0010
0100
0010
1000
0010
0100
0000
,
0001
0010
0100
0010
0001
0010
0100
0000
,
1000
0001
1000
0001
1000
0001
1000
0000
,
2002
0000
0000
3003
1000
0100
0001
0000
,
0100
0000
1000
0000
0001
0100
1000
0000
,
0100
0001
1000
1010
,
0010
0000
0110
0000
0100
0001
0100
0001
,
2000
0000
3000
0000
0001
0010
0100
1000
,
0001
0010
0100
0000
1000
0100
0010
0001
,
1000
0100
0010
0000
0001
0010
0100
1000
,
0001
0010
0100
1000
0002
0000
0000
0000
,
0000
0000
0003
0000
0001
0100
1000
0000
,
0100
0000
0001
0000
1000
0100
0001
0000
,
0100
1000
0001
0011
,
0010
0000
0110
0000
0100
1000
0100
1000
,
0002
0000
0003
0000
1000
0010
0100
0001
,
1000
0010
0100
0000
0001
0100
0010
1000
,
0001
0100
0010
0000
1000
0010
0100
0001
,
1000
0010
0100
0001
2000
0000
0000
0000
,
0000
0000
3000
0000
0001
0100
0010
0000
,
0100
0010
1000
0000
0001
0010
0100
0010
,
0002
0000
0003
0000
1000
0100
1000
0100
,
0010
0001
0010
0000
0001
0100
0001
0100
,
0010
1000
0010
0000
1000
0001
0100
0010
,
1000
0000
0010
0100
0010
0100
0010
0100
,
0010
0100
0010
0000
1000
0010
1000
0010
,
0000
0001
0010
0000
1000
0000
0100
0000
,
1000
0001
0000
0000
1000
0010
1000
0010
,
1000
0010
1000
0000
0001
0010
0001
0010
,
0001
0010
0001
0000
1000
0100
1000
0100
,
1000
0100
1000
0000
0001
0100
0001
0100
,
0001
0100
0001
0000
1000
0100
0010
0001
,
0100
0010
1000
0000
0001
0010
0100
1000
,
0010
0100
0001
0000
1000
0100
1000
0100
,
0001
0100
0001
0100
2000
0000
0000
0000
,
0000
0000
0000
0000
,
3002
0000
0000
0000
,
0000
0000
0000
1003
,
0010
0000
0100
0001
0010
0000
0001
0000
,
0100
0000
0010
1000
0100
0000
0010
0001
,
0100
0000
0010
1000
0100
0000
0220
0330
,
0001
0000
1000
0000
0010
0100
0010
0000
,
1000
0001
0010
0100
,
1000
0001
1000
0000
0010
0000
0100
0000
,
0001
1000
0001
1000
0001
0000
1000
0000
,
0010
0000
0100
0001
1000
0000
0100
0000
,
0001
0000
0100
0000
1000
0000
0001
0100
,
1000
0100
0001
0011
,
0000
1100
0000
1010
,
0000
0101
0000
0110
,
0000
2002
0000
0000
,
3003
0000
0000
0000
;
#NOTEDATA:;
#STEPSTYPE:dance-single;
#DIFFICULTY:Hard;
#METER:17;
#BPMS:0=228,15=114,29=228,125=114,126.5=228,131.5=114,133=228,138=114,139.5=228,144.5=114,146=228,149=114,151=228,179=342,180.5=266,181.66666=190,182.5=114,183=76,183.33333=57,183.583=47.5,184=114,200=228,228=114,230=228,359.375=190,360=114,367=228,379.5=250;
#STOPS:357.5=0.099,357.875=0.099,358.25=0.099,358.625=0.099,359=0.099,379=0.132,379.5=0.12;
#TIMESIGNATURES:0=4=4,8=7=4,29=4=4,41=3=4,44=4=4,56=3=4,59=4=4,123=3=4,126=5=4,129.5=3=4,132.5=5=4,136=3=4,139=5=4,142.5=3=4,145.5=5=4,149=2=4,151=4=4,179=3=4,182=2=4,184=4=4,228=2=4,230=4=4,354=5=4,357.5=3=4,360=7=4,379=1=4,380=4=4,392=3=4,395=4=4;
#NOTES:
0000
0000
0000
0000
,
0000
0000
0000
0000
,
0000
0000
0000
0000
,
0000
0000
0000
2002
,
0000
0000
0000
0000
,
0000
0000
0000
0000
3003
0000
0000
0000
1000
0100
1000
0100
0010
0001
1000
0000
,
0001
0100
0001
0100
0010
1000
0001
0000
1000
0100
0001
0100
1000
0001
0100
0000
,
2002
3003
0001
0010
0001
0010
1000
0010
,
0001
1000
0100
0010
0001
0100
1000
0001
,
0010
1000
0100
0010
0100
0010
0001
1000
,
0010
0100
0001
0100
1000
0100
0001
0000
,
1000
0010
1000
0010
0001
0010
1000
0001
,
0100
0010
1000
0100
0001
1000
0010
0001
,
0100
0010
0100
0010
1000
0001
0010
0100
,
1000
0100
0001
0100
1000
0000
0001
0100
,
0010
0000
1000
0100
0010
0000
0001
0100
,
0010
1000
0100
0010
0001
0000
1000
0010
,
0100
0000
0001
0010
0100
0000
1000
0010
,
0100
0001
0010
0000
1001
0000
1000
0001
,
0100
0000
0001
1000
0100
0000
1000
0001
,
0010
1000
0010
0001
1000
0000
0001
1000
,
0010
0000
0000
0000
1000
0000
0000
0010
0000
0000
0010
0000
0100
0000
0000
0001
,
0000
0001
2000
0000
0000
0000
3100
0000
,
1001
0001
0010
0001
0100
0001
0010
0100
,
1000
0010
1000
0100
0010
0001
0100
0001
,
0010
0000
0001
0100
1000
0001
0010
1000
,
0001
0100
0010
1000
0100
1000
0010
0000
,
1001
0000
0100
0000
1001
0000
1000
0010
,
0110
0000
0101
0000
1010
1000
0100
0010
,
0100
0000
0010
0000
0001
1000
0001
0000
1000
0001
1000
0000
0020
0000
0000
0000
,
0100
0100
0100
0100
0130
0000
0001
0100
,
0010
0000
0000
0000
1000
0000
0000
0000
2020
3030
0000
0000
0000
0000
2200
3300
0000
0000
0000
0000
2002
3003
0000
0000
0000
0000
0000
0000
1001
0000
0000
0000
,
0000
0000
0000
0000
1000
0000
0000
0000
0100
0000
0000
0000
0001
0000
0000
0000
0100
0000
0000
0000
0000
0000
0000
0000
0100
0000
0000
0000
2200
3300
0000
0000
,
0000
0000
0022
0033
0000
0000
0000
0000
2002
3003
0000
0000
0000
0000
0000
0000
1001
0000
0000
0000
0000
0000
0000
0000
0001
0000
0000
0000
1000
0000
0000
0000
,
0010
0000
0000
0000
0000
0000
0000
0000
0000
0000
0000
0000
0000
0000
0000
0000
0100
0000
0000
0000
0000
0000
0000
0000
0000
0000
0000
0000
0000
0000
0000
0000
0001
0000
0000
0000
0000
0000
0000
0000
0000
0000
0000
0000
0000
0000
0000
0000
0202
0000
0000
0303
0000
0000
0000
0000
0000
0000
0000
0000
0000
0000
0000
0000
0000
0000
2020
0000
0000
3030
0000
0000
0000
0000
0000
0000
0000
0000
0000
0000
0000
0000
0000
0000
0220
0000
0000
0330
0000
0000
0000
0000
0000
0000
0000
0000
,
0000
0000
0110
0000
0000
0000
0001
0000
0100
0000
0010
1000
0010
0000
0000
0000
,
1000
0000
0000
0000
2002
3003
0000
0000
0000
0000
0220
0330
0000
0000
0000
0000
2002
3003
0000
0000
0000
0000
0000
0000
1001
0000
0000
0000
0000
0000
0000
0000
,
0002
0000
0203
0000
0000
0000
0310
1000
,
0010
1000
0000
1000
0100
0000
0010
0001
,
0100
0000
0100
0001
0010
0000
0100
1000
,
0010
1000
0100
1000
0010
0000
1000
0001
,
0011
0000
0010
0001
0101
0000
0100
0010
,
0001
0010
1000
0010
0100
0000
0001
1000
,
1010
0000
0010
1000
1100
0000
0100
0010
,
1000
0010
0001
0010
0100
0000
2002
0000
,
0000
0000
0000
3003
,
1000
0000
0100
0010
0000
0001
0100
0000
0001
0010
0000
0100
0010
0000
0001
1000
,
0001
0000
0100
0010
0000
1000
0100
0000
1000
0010
0000
0100
0010
0000
1000
0001
,
1000
0100
0010
0001
0100
0010
0001
0010
1000
0100
0010
0001
0100
0010
0002
0000
,
0013
0000
0000
0000
0000
0000
1000
0000
0000
0000
0000
0000
0001
0000
0000
0000
0000
0000
0100
0000
0000
0000
0000
0000
0010
0000
0000
0000
0000
0000
1000
0000
0000
0000
0000
0000
0100
0000
0000
0000
0000
0000
0010
0000
0000
0100
0000
0000
0010
0000
0000
0000
0000
0000
0100
0000
0000
0000
0000
0000
0020
0000
0000
0000
0000
0000
0000
0000
0000
0000
0000
0000
0031
0000
0000
0000
0000
0000
0000
0000
1000
0000
0000
0000
0000
0000
0000
0000
0001
0000
0000
0000
0000
0000
0000
0000
,
1000
0001
0100
0001
1000
0100
1000
0001
,
0010
0001
1000
0010
1010
0000
1001
0000
,
0001
1000
0100
1000
0001
0100
0001
1000
,
0010
1000
0001
0010
0011
0000
1001
0000
,
1000
1000
0010
0100
0100
0001
0010
0010
,
0100
1000
1000
0001
0100
0000
1001
0000
,
0001
0010
0100
1000
0001
0010
0100
1000
,
0002
0003
0020
0030
0200
0300
0002
0003
0200
0000
0000
0000
0000
0000
0000
0000
1300
0000
0000
0000
0100
0000
0000
0000
0010
0000
0000
0000
0001
0000
0000
0000
,
0101
0000
0000
0000
0100
0000
0001
0000
0010
0001
0010
0000
0100
0000
1000
0000
,
1100
0000
1000
0001
0100
1000
0001
0010
,
0100
0001
0010
0100
0001
0100
1000
0100
,
0010
0001
0010
0000
0001
0000
1000
0000
0010
0000
0100
0000
0001
1000
0100
0000
,
0010
0100
1000
0000
0010
0000
0100
0000
0001
0000
1000
0000
0010
0100
0001
0000
,
0010
0001
1000
0000
0100
0000
0010
0000
0001
0000
1000
0000
0100
0010
0001
0000
,
1000
0100
0010
0000
0001
0000
1000
0000
0010
0000
0100
0010
0000
0100
0010
0000
,
1000
0001
1001
0000
0001
0100
0010
1000
,
1100
0000
0000
0000
0100
0000
1000
0000
0010
1000
0010
0000
0100
0000
0001
0000
,
0101
0000
0001
1000
0100
0001
1000
0010
,
0100
1000
0010
0100
1000
0100
0001
0100
,
0010
1000
0010
0000
1000
0000
0001
0000
0010
0000
0100
0000
1000
0001
0100
0000
,
0010
0100
0001
0000
0010
0000
0100
0000
1000
0000
0001
0000
0010
0100
1000
0000
,
0010
1000
0001
0000
0100
0000
0010
0000
1000
0000
0001
0000
0100
0010
1000
0000
,
0001
0100
0010
0000
1000
0000
0001
0000
0010
0000
0010
0000
0100
0000
0100
0000
,
1000
0001
1001
0000
0001
0100
0100
0010
,
0010
0000
1000
0000
1000
0000
0001
0000
1000
0000
0001
0010
0100
0000
1000
0000
,
0001
0100
0001
0000
2000
0000
0000
0000
3010
0000
0010
0000
0200
0000
0000
0000
,
0301
0001
1000
1000
0100
0001
1000
0010
,
0001
0000
1000
0000
0100
0000
0010
0000
0001
0000
0100
0000
0001
0010
0100
0000
,
1000
0000
0001
0001
0010
0010
1000
1000
,
0010
0010
0001
0001
1000
0001
1001
1000
,
0010
0110
0100
0001
0011
0000
1100
0000
,
0100
0000
1001
0000
0000
0000
0000
0000
0001
0100
0001
0100
0001
0100
0001
0100
,
0001
0100
0001
0100
0001
0000
0000
0000
1000
0100
1000
0100
1000
0100
1000
0100
,
1000
0100
1000
0100
1000
0000
0000
0000
0001
0010
0001
0010
0001
0010
0001
0010
,
0001
0010
0001
0010
0001
0000
0000
0000
1000
0010
1000
0010
1000
0010
1000
0010
,
1000
0010
1000
0010
1000
0000
0000
0000
0001
0000
0100
0010
0000
0100
0010
0000
,
1000
0010
0000
1000
0010
0000
1000
0000
0001
0010
0000
0001
0010
0000
0100
0010
,
0000
0100
0010
0000
0100
0000
0000
0000
1000
0000
0100
0010
0000
0001
1000
0000
,
0001
0000
0100
0010
0000
1000
0001
0000
2000
0000
0000
0000
0000
0000
0000
0000
,
0000
0000
0000
0000
,
3002
0000
0000
0000
,
0000
0000
0000
0000
0000
0000
1003
0010
,
1000
0010
0100
0001
0100
0000
0001
0010
,
0001
0010
0100
1000
0100
0000
1000
0010
,
0001
0010
1000
0100
0001
0100
2000
3000
,
0001
0010
0001
0010
0100
1000
0001
0000
,
1000
0010
1000
0010
0100
0001
1000
0000
,
0001
0010
1000
0010
0001
1000
0010
0000
,
0100
0001
0010
0100
1000
0000
0001
0010
,
0100
0001
1000
0010
0100
0000
1000
0010
,
0100
1000
0001
0010
0100
0000
0001
0010
,
1000
0000
0000
0010
0000
0000
0001
0000
0000
0100
0000
0000
1000
0000
0000
0100
0000
0000
0001
0000
0000
0000
0100
0000
,
0000
0100
0000
0010
0000
1000
0000
1000
0000
0001
0000
0010
,
0000
1000
0000
0001
0000
0100
0000
1000
0000
0001
0000
1000
,
0000
0001
0000
2002
0000
0000
0000
0000
0000
0000
0000
0000
,
3003
0000
0000
0000
;
#NOTEDATA:;
#STEPSTYPE:dance-double;
#DIFFICULTY:Easy;
#METER:10;
#NOTES:
00000000
00000000
00000000
00000000
,
00000000
00000000
00000000
00000000
,
00000000
00000000
00000000
00000000
,
00000000
00000000
00000000
00000000
,
00000000
00000000
00000000
00000000
,
00000000
00000000
00000000
00000000
,
00000000
00000000
00000000
00000000
,
00000000
00001000
00000000
00010000
,
00001000
00000000
00010000
00000100
,
00001000
00000000
00000100
00000010
,
00000000
00000100
00000010
00000001
,
00001000
00000001
00001000
00000010
,
00000100
00000010
00000000
00001000
,
00000010
00001000
00000010
00010000
,
00001000
00000000
00010000
00001000
,
00010000
00001000
01000000
00010000
,
01000000
00000000
00010000
00100000
,
00010000
00100000
01000000
10000000
,
00000000
00020000
00000000
00030000
,
00000000
10000000
01000000
00100000
,
00000000
00020000
00000000
00030000
,
00000000
00010000
00100000
00001000
,
00000000
00020000
00000000
00030000
,
00000000
00010000
00000010
00001000
,
00000000
00000020
00000000
00000030
,
00000000
00000010
00000100
00000001
,
00000000
00001000
00000001
00001000
,
00000001
00001000
00000100
00001000
,
00000000
00000100
00010000
00000100
,
00010000
00001000
00010000
00001000
,
00000000
00010000
00001000
00010000
,
00001000
00100000
00001000
00100000
,
00000000
00010000
00100000
00010000
,
00100000
01000000
10000000
01000000
,
00000000
10000000
00000000
00010000
,
00000000
10010000
00000000
00000000
,
00000000
10000000
00000000
01000000
,
00000000
00010000
00000000
00000000
,
00000000
00001000
00000000
00010000
,
00000000
00011000
00000000
00000000
,
00000000
00001000
00000000
00000010
,
00000000
00000001
00000000
00000000
,
00000000
00001001
00000000
00000000
,
00000000
00000001
00000001
00001000
,
00000000
00000100
00001000
00000100
,
00010000
00001000
00000000
00010000
,
00000000
00001000
00001000
00010000
,
00001000
00100000
00000000
00010000
,
00000000
01000000
01000000
00100000
,
10000000
00010000
00000000
01000000
,
00000000
00200000
00000000
00000000
,
00000000
00300000
00000000
00000000
,
00000000
10010000
00000000
00000000
,
00000000
10000000
01000000
00100000
,
00000000
00110000
00000000
00000000
,
00000000
00010000
00100000
00001000
,
00000000
00011000
00000000
00000000
,
00000000
00001000
00010000
00000100
,
00000000
00001100
00000000
00000000
,
00000000
00001000
00000100
00000010
,
00000000
00000001
00000100
00000001
,
00000100
00000010
00001000
00000010
,
00000000
00001000
00000010
00010000
,
00000010
00010000
00001000
00010000
,
00000000
00001000
01000000
00010000
,
00000000
10000000
01000000
00100000
,
00000000
00010000
10000000
01000000
,
00010000
00001000
00000000
00000000
,
00000000
00010000
00010000
00000100
,
00001000
00000010
00000010
00000100
,
00000000
00000001
00000001
00000010
,
00000100
00010000
00010000
00001000
,
00000000
00010000
00001000
00100000
,
00010000
01000000
00100000
01000000
,
00010000
00100000
00001000
00010000
,
00001000
00100000
00010000
01000000
,
00000000
00001000
00001000
01000000
,
00010000
00100000
00100000
01000000
,
00000000
10000000
10000000
00100000
,
01000000
00001000
00001000
00010000
,
00000000
00001000
00010000
00000010
,
00001000
00000100
00000010
00000100
,
00001000
00000010
00010000
00001000
,
00010000
00000010
00001000
00000100
,
00000000
00001000
00000001
00000100
,
00000000
00000010
00010000
00001000
,
00000000
01000000
00010000
01000000
,
00000000
00100000
10000000
00010000
,
00000000
10000000
01000000
00010000
,
00000000
01000000
00010000
00001000
,
00000000
00010000
00001000
00000010
,
00000000
00001000
00000010
00000001
,
00000000
00001000
00001000
00001000
,
00001000
00000100
00000100
00000100
,
00000000
00010000
00010000
00010000
,
00010000
00001000
00001000
00001000
,
00000000
00100000
00100000
00100000
,
00000000
01000000
01000000
01000000
,
00000000
10000000
00010000
10000000
,
00010000
10010000
00000000
00000000
,
00000000
00000000
00000000
00000000
,
00000000
10010000
00000000
00000000
,
00000000
00000000
00000000
00000000
,
00000000
00000000
00000000
00000000
,
00000000
00000000
00000000
10000000
,
01000000
00100000
00000000
00010000
,
01000000
00100000
10000000
00100000
,
01000000
00000000
00010000
00100000
,
00000000
00010000
00100000
00001000
,
00000000
00010000
00000100
00001000
,
00000000
00000010
00010000
00001000
,
00000000
01000000
00001000
00100000
,
00010000
10000000
01000000
00000000
,
00100000
00001000
00010000
00000000
,
00000100
00001000
00000001
00000010
,
00000001
00000000
00000011
00000000
,
00001001
00000000
00001100
00000000
,
00010100
00000000
00011000
00000000
;
#NOTEDATA:;
#STEPSTYPE:dance-double;
#DIFFICULTY:Medium;
#METER:13;
#BPMS:0=228,15=114,29=228,125=114,126.5=228,131.5=114,133=228,138=114,139.5=228,144.5=114,146=228,149=114,151=228,179=342,180.5=266,181.66666=190,182.5=114,183=76,183.33333=57,183.583=47.5,184=114,200=228,228=114,230=228,359.375=190,360=114,367=228,379.5=250;
#STOPS:357.5=0.099,357.875=0.099,358.25=0.099,358.625=0.099,359=0.099,379=0.132,379.5=0.12;
#TIMESIGNATURES:0=4=4,8=7=4,29=4=4,41=3=4,44=4=4,56=3=4,59=4=4,123=3=4,126=5=4,129.5=3=4,132.5=5=4,136=3=4,139=5=4,142.5=3=4,145.5=5=4,149=2=4,151=4=4,179=3=4,182=2=4,184=4=4,228=2=4,230=4=4,354=5=4,357.5=3=4,360=7=4,379=1=4,380=4=4,392=3=4,395=4=4;
#NOTES:
00000000
00000000
00000000
00000000
,
00000000
00000000
00000000
00000000
,
00000000
00000000
00000000
00000000
,
00000000
00000000
00000000
00022000
,
00000000
00000000
00000000
00000000
,
00000000
00000000
00000000
00000000
00033000
00000000
00000000
00000000
00001000
00000000
00010000
00000000
00001000
01000000
00001000
00000000
,
01000000
00000000
00010000
00000000
10000000
00000000
01000000
00000000
00100000
00010000
00100000
00000000
00010000
00000000
00100000
00000000
,
00002000
00003000
00010000
00000000
00010100
00000000
00000100
00000000
,
00001100
00000000
00001000
00000100
00001000
00000000
00000100
00000010
,
00000001
00000100
00000101
00000001
,
00001001
00000000
00001000
00000100
00010000
00001000
00010000
00000000
,
00001000
01001000
01000000
01010000
,
00010000
01000000
00100000
00000000
10000000
01000000
00100000
00000000
,
00010000
00110000
00100000
00101000
,
00001000
00010000
00001000
00000000
00010000
00000000
00001000
00000000
,
00010000
00000100
00001000
00000001
,
00000100
00000000
00000010
00000100
00000010
00000000
00000100
00000000
,
00001000
00010000
00100000
01000000
,
01000000
01100000
10010000
10000000
,
00010000
00100000
01000000
00100000
,
00010000
00000000
00100000
00001000
00100000
00000000
00001000
00000000
,
00010000
00010100
00000000
00001100
,
00000000
00000110
00000000
00000010
,
00000001
00000100
00000000
00000010
,
00001000
00000000
00000100
00000010
00000100
00000000
00000010
00000000
,
00000001
00000100
00001000
00010000
,
00100000
00000000
01000000
00100000
01000000
00000000
00100000
00000000
,
10000000
10100000
10100000
10000000
,
00010000
00000000
01010000
00000000
01010000
00000000
01000000
00010000
,
01000000
00000000
00001000
00010000
00001000
00000000
00010000
00000000
,
00000100
00001000
00000100
00000000
00000010
00000000
00000001
00001000
,
00000000
00000001
00002000
00000000
00000000
00003000
00000000
00001001
,
00000000
00000000
00000000
00001000
00000100
00000000
00010000
00002000
,
00000000
00003000
00011000
00000000
,
00001000
00000000
00000000
00000000
01000000
00000000
00000000
00000000
00010000
00000000
00000000
00000000
02000000
00000000
00000000
00000000
00000000
00000000
00000000
00000000
00000000
03000000
00000000
00000000
,
00000000
01100000
00000000
00000000
00000000
00100000
10000000
00000000
,
00010000
20000000
00000000
00000000
30000000
00000000
10010000
00000000
,
00000000
00000000
20020000
00000000
00000000
30030000
10000000
00000000
,
01000000
00100000
00000000
01000000
00100000
00000000
00010000
00000000
,
00100000
00000000
00001000
00010000
00001000
00000000
00010000
00000000
,
00000100
00001000
00000000
00000010
00001000
00000000
00000100
00000000
,
00000010
00000000
00000001
00001000
00000001
00000000
00000100
00000000
,
00000010
00000100
00000000
00001000
00000100
00000000
00001000
00000000
,
00010000
00000000
00100000
01000000
00100000
00000000
10000000
00000000
,
00010000
00100000
00000000
01000000
10000000
00000000
20020000
00000000
,
00000000
00000000
00000000
30030000
,
10000000
00000000
00000000
01000000
00000000
00000000
10000000
00000000
00000000
01000000
00000000
00000000
00100000
00010000
00100000
00000000
,
00001000
00000000
00000000
00010000
00000000
00000000
00001000
00000000
00000000
00010000
00000000
00000000
00000010
00001000
00000010
00000000
,
00000100
00000000
00000001
00000000
00000010
00000000
00001000
00000000
00010000
00000000
01000000
00000000
00100000
00010000
00100000
00000000
,
00010000
00000000
10000000
00000000
01000000
00000000
00010000
00000000
00001000
00010000
00001000
00000000
00020000
00000000
00000000
00000000
,
00032000
00000000
00003010
00000001
,
00000200
00000000
00001300
00010000
,
00200000
00000000
10300000
01000000
,
00020000
00000000
00031000
00000010
,
00000001
00000100
00000001
00000100
00000010
00001000
00000010
00000000
,
00010000
00001000
01000000
00010000
10000000
00100000
10000000
00000000
,
00010000
10000000
00010000
10000000
00010000
10000000
00010000
00000000
,
20020000
00000000
00000000
30030000
10000000
01000000
00010000
00000000
,
00001000
00000000
00000010
00000000
00000001
00000100
00001000
00000000
,
00010000
00100000
10000000
10100000
,
00100000
00000000
01100000
00000000
01000000
00010000
01000000
00001000
,
00020000
00000000
00030000
00000000
00001000
00010000
00000100
00000000
,
00000010
00000100
00010000
00000000
00001000
00100000
01000000
00000000
,
00100000
00001000
00010000
00000000
00001000
01000000
00100000
00000000
,
00010000
00001000
00000100
00000001
00002000
00000000
00000000
00000000
,
00000000
00000000
00003000
00000000
00000001
00000100
00001000
00000000
,
00010000
00000000
00100000
00000000
10000000
01000000
00010000
00000000
,
00001000
00000010
00000001
00000011
,
00000010
00000000
00000110
00000000
00000100
00001000
00000100
00010000
,
00002000
00000000
00003000
00000000
00010000
00001000
01000000
00000000
,
00100000
01000000
00001000
00000000
00010000
00000010
00000100
00000000
,
00000010
00010000
00001000
00000000
00010000
00000100
00000010
00000000
,
00001000
00010000
01000000
10000000
00020000
00000000
00000000
00000000
,
00000000
00030000
10000000
01000000
,
00010000
00001000
00000010
00000000
00000001
00001000
00000100
00000010
,
00000002
00000000
00000003
00000000
00000001
00000100
00000001
00000100
,
00000010
00001000
00000010
00000000
00010000
00000010
00010000
00001000
,
00020000
00000000
00030000
00000000
00001000
00010000
00001000
00000000
,
00100000
00010000
00100000
00000000
01000000
00100000
01000000
00100000
,
01000000
00100000
01000000
00000000
10000000
01000000
00100000
00010000
,
00000000
00100000
00001000
00000000
00010000
00000000
00000010
00000000
,
00001000
00000001
00000000
00000000
00000010
00000001
00000010
00000001
,
00000010
00000001
00000010
00000000
00000100
00001000
00000100
00001000
,
00000100
00001000
00000100
00000000
00010000
00001000
00010000
00001000
,
00010000
00001000
00010000
00000000
00001000
01000000
00001000
01000000
,
00001000
01000000
00001000
00000000
01000000
00010000
10000000
01000000
,
00100000
00010000
01000000
00000000
00010000
00100000
00001000
00010000
,
00000100
00001000
00000010
00000000
00001000
00000100
00000010
00000001
,
00000100
00000010
00000100
00001000
00020000
00000000
00000000
00000000
,
00000000
00000000
00000000
00000000
,
00032000
00000000
00000000
00000000
,
00000000
00000000
00000000
00013000
,
00001000
00000000
00100000
00010000
00100000
00000000
01000000
00000000
,
10000000
00000000
00010000
01000000
00010000
00000000
01000000
00000000
,
00001000
00000000
00010000
00001000
00010000
00000000
00022000
00033000
,
00010000
00000000
00001000
00000000
00000010
00000001
00001000
00000000
,
00000001
00000100
00001000
00010000
,
00100000
10000000
00010000
00000000
10000000
00000000
01000000
00000000
,
00010000
00001000
00010000
00001000
00010000
00000000
00001000
00000000
,
00000100
00000000
00000001
00001000
00000100
00000000
00000010
00000000
,
00001000
00000000
00010000
00000000
01000000
00000000
10000000
00010000
,
01000000
00100000
10000000
11000000
,
00000000
01100000
00000000
00101000
,
00000000
00011000
00000000
00010100
,
00000000
00000220
00000000
00000000
,
00000330
00000000
00000000
00000000
;
#NOTEDATA:;
#STEPSTYPE:dance-double;
#DIFFICULTY:Hard;
#METER:17;
#BPMS:0=228,15=114,29=228,125=114,126.5=228,131.5=114,133=228,138=114,139.5=228,144.5=114,146=228,149=114,151=228,179=342,180.5=266,181.66666=190,182.5=114,183=76,183.33333=57,183.583=47.5,184=114,200=228,228=114,230=228,359.375=190,360=114,367=228,379.5=250;
#STOPS:357.5=0.099,357.875=0.099,358.25=0.099,358.625=0.099,359=0.099,379=0.132,379.5=0.12;
#TIMESIGNATURES:0=4=4,8=7=4,29=4=4,41=3=4,44=4=4,56=3=4,59=4=4,123=3=4,126=5=4,129.5=3=4,132.5=5=4,136=3=4,139=5=4,142.5=3=4,145.5=5=4,149=2=4,151=4=4,179=3=4,182=2=4,184=4=4,228=2=4,230=4=4,354=5=4,357.5=3=4,360=7=4,379=1=4,380=4=4,392=3=4,395=4=4;
#NOTES:
00000000
00000000
00000000
00000000
,
00000000
00000000
00000000
00000000
,
00000000
00000000
00000000
00000000
,
00000000
00000000
00000000
00022000
,
00000000
00000000
00000000
00000000
,
00000000
00000000
00000000
00000000
00033000
00000000
00000000
00000000
00001000
00010000
00001000
00000000
00010000
00100000
10000000
00000000
,
00010000
01000000
00100000
10000000
00010000
00000000
10000000
00000000
01000000
00100000
00010000
00000000
00100000
00001000
00010000
00000000
,
00022000
00033000
00001000
00010000
00000100
00001000
00000001
00000100
,
00001000
00000100
00000001
00000010
00000100
00010000
00001000
00100000
,
00010000
01000000
00100000
10000000
01000000
00010000
01000000
10000000
,
00010000
00100000
01000000
10000000
00010000
01000000
00100000
00000000
,
10000000
00010000
00100000
01000000
00010000
00001000
00000010
00000100
,
00010000
00001000
00000100
00000001
00001000
00000100
00000010
00000001
,
00000100
00000010
00010000
00001000
00000010
00000100
00000010
00001000
,
00010000
01000000
00100000
00010000
10000000
00000000
00010000
01000000
,
00100000
00000000
10000000
01000000
00100000
00000000
00010000
10000000
,
01000000
00010000
00001000
00000010
00000001
00000000
00000010
00000100
,
00001000
00000000
00000010
00000100
00000001
00000000
00000010
00000100
,
00010000
00001000
01000000
00000000
10010000
00000000
00010000
00100000
,
01000000
00000000
10000000
00100000
01000000
00000000
00010000
10000000
,
00100000
00010000
00001000
00000100
00000001
00000000
00000100
00000010
,
00001000
00000000
00000000
00000000
00000100
00000000
00000000
00000010
00000000
00000000
00000001
00000000
00000100
00000000
00000000
00000010
,
00000000
00010000
00002000
00000000
00000000
00000000
00013000
00000000
,
00011000
00001000
00100000
00010000
01000000
00010000
00100000
01000000
,
10000000
00010000
01000000
00100000
10000000
01000000
00010000
00001000
,
00100000
00001000
00010000
00001000
00000010
00000100
00001000
00000001
,
00000100
00000010
00010000
00001000
00000010
00000100
00001000
00000000
,
00001001
00000000
00000001
00000000
00000101
00000000
00000100
00001000
,
00010000
00000000
00100000
10000000
00010000
00000000
10000000
01000000
,
00100000
00010000
00001000
00000100
00000010
00000001
00002000
00000000
,
00000001
00000001
00000001
00000001
00003001
00000000
00001000
00000100
,
00010000
00000000
00000000
00000000
00000000
00000000
00000000
00000000
00022000
00033000
00000000
00000000
00000000
00000000
00202000
00303000
00000000
00000000
00000000
00000000
00022000
00033000
00000000
00000000
00000000
00000000
00000000
00000000
00001000
00000000
00000000
00000000
,
00000000
00000000
00000000
00000000
00010000
00000000
00000000
00000000
00100000
00000000
00000000
00000000
10000000
00000000
00000000
00000000
00010000
00000000
00000000
00000000
00000000
00000000
00000000
00000000
01000000
00000000
00000000
00000000
02200000
03300000
00000000
00000000
,
00000000
00000000
20200000
30300000
00000000
00000000
00000000
00000000
20020000
30030000
00000000
00000000
00000000
00000000
00000000
00000000
00010000
00000000
00000000
00000000
00000000
00000000
00000000
00000000
10000000
00000000
00000000
00000000
01000000
00000000
00000000
00000000
,
00010000
00000000
00000000
00000000
00000000
00000000
00000000
00000000
00000000
00000000
00000000
00000000
00000000
00000000
00000000
00000000
00001000
00000000
00000000
00000000
00000000
00000000
00000000
00000000
00000000
00000000
00000000
00000000
00000000
00000000
00000000
00000000
00010000
00000000
00000000
00000000
00000000
00000000
00000000
00000000
00000000
00000000
00000000
00000000
00000000
00000000
00000000
00000000
00022000
00000000
00000000
00033000
00000000
00000000
00000000
00000000
00000000
00000000
00000000
00000000
00000000
00000000
00000000
00000000
00000000
00000000
00020200
00000000
00000000
00030300
00000000
00000000
00000000
00000000
00000000
00000000
00000000
00000000
00000000
00000000
00000000
00000000
00000000
00000000
00022000
00000000
00000000
00033000
00000000
00000000
00000000
00000000
00000000
00000000
00000000
00000000
,
00000000
00000000
00010000
00000000
00000000
00000000
00001000
00000000
00000010
00000000
00000001
00000010
00000001
00000000
00000000
00000000
,
00001000
00000000
00000000
00000000
00002020
00003030
00000000
00000000
00000000
00000000
00000220
00000330
00000000
00000000
00000000
00000000
00000202
00000303
00000000
00000000
00000000
00000000
00000000
00000000
00000001
00000000
00000000
00000000
00000000
00000000
00000000
00000000
,
00002000
00000000
00003200
00000000
00000000
00000000
00000310
00000001
,
00000010
00000001
00000000
00000100
00000010
00000000
00001000
00000100
,
00010000
00000000
00010000
00001000
01000000
00000000
00010000
00100000
,
00010000
01000000
00010000
10000000
00010000
00000000
10000000
01000000
,
01100000
00000000
00100000
00001000
00011000
00000000
00010000
00001000
,
00000010
00001000
00010000
00001000
00000010
00000000
00000001
00000010
,
00000011
00000000
00000001
00000100
00000101
00000000
00000001
00000100
,
00001000
00010000
00001000
00010000
00100000
00000000
02200000
00000000
,
00000000
00000000
00000000
03300000
,
10000000
00000000
00100000
01000000
00000000
00010000
10000000
00000000
01000000
00100000
00000000
00010000
00100000
00000000
00001000
00010000
,
00001000
00000000
00010000
00000100
00000000
00001000
00000010
00000000
00000100
00000010
00000000
00001000
00000001
00000000
00000010
00000000
,
00000100
00001000
00000010
00000100
00001000
00010000
00100000
01000000
00001000
00010000
00001000
00100000
00001000
01000000
00020000
00000000
,
10030000
00000000
00000000
00000000
00000000
00000000
00100000
00000000
00000000
00000000
00000000
00000000
01000000
00000000
00000000
00000000
00000000
00000000
00010000
00000000
00000000
00000000
00000000
00000000
00100000
00000000
00000000
00000000
00000000
00000000
00001000
00000000
00000000
00000000
00000000
00000000
00010000
00000000
00000000
00000000
00000000
00000000
00000010
00000000
00000000
00001000
00000000
00000000
00000010
00000000
00000000
00000000
00000000
00000000
00000100
00000000
00000000
00000000
00000000
00000000
00000020
00000000
00000000
00000000
00000000
00000000
00000000
00000000
00000000
00000000
00000000
00000000
00001030
00000000
00000000
00000000
00000000
00000000
00000000
00000000
00000001
00000000
00000000
00000000
00000000
00000000
00000000
00000000
00001000
00000000
00000000
00000000
00000000
00000000
00000000
00000000
,
00000001
00000000
00000100
00000000
00001000
00010000
00100000
00000000
,
10000000
00010000
00100000
01000000
10000000
00000000
10010000
00000000
,
10000000
00000000
01000000
00000000
00010000
00001000
00000010
00000000
,
00000001
00001000
00000010
00000100
00000001
00000000
00001001
00000000
,
00000001
00000010
00000001
00001000
00000100
00001000
00000100
00010000
,
00000100
00010000
00001000
00010000
00001000
00100000
00001000
00000000
,
00100000
00010000
01000000
00100000
10000000
01000000
00100000
00001000
,
00020000
00030000
00002000
00003000
00020000
00030000
00002000
00003000
00020000
00000000
00000000
00000000
00000000
00000000
00000000
00000000
00031000
00000000
00000000
00000000
00000010
00000000
00000000
00000000
00000001
00000000
00000000
00000000
00001000
00000000
00000000
00000000
,
00001100
00000000
00000000
00000000
00000100
00000000
00010000
00000000
00001000
00010000
00001000
00000000
00100000
00000000
00010000
00000000
,
01010000
00000000
01000000
00100000
10000000
01000000
00010000
00001000
,
00100000
01000000
00010000
00001000
00000010
00000100
00010000
00001000
,
00000100
00000000
00000010
00000000
00010000
00000000
00001000
00000000
00000010
00000000
00000000
00000000
00000001
00000010
00000100
00000000
,
00001000
00000010
00000100
00000000
00000001
00000000
00000100
00000000
00001000
00000000
00000000
00000000
00010000
00100000
01000000
00000000
,
00010000
00100000
01000000
00000000
10000000
00000000
00010000
00000000
01000000
00000000
00000000
00000000
00100000
10000000
00010000
00000000
,
00100000
01000000
10000000
00000000
00010000
00000000
01000000
00000000
00001000
00000000
00010000
00000100
00000000
00001000
00000010
00000000
,
00000100
00001000
00011000
00000000
00010000
00100000
10000000
00010000
,
01010000
00000000
00000000
00000000
01000000
00000000
00001000
00000000
00010000
00001000
00010000
00000000
00000010
00000000
00001000
00000000
,
00001100
00000000
00000100
00000010
00000001
00000100
00001000
00010000
,
00000010
00000100
00001000
00010000
00100000
01000000
00001000
00010000
,
01000000
00000000
00100000
00000000
00001000
00000000
00010000
00000000
00100000
00000000
00000000
00000000
10000000
00100000
01000000
00000000
,
00010000
00100000
01000000
00000000
10000000
00000000
01000000
00000000
00010000
00000000
00000000
00000000
00001000
00000010
00000100
00000000
,
00001000
00000010
00000100
00000000
00000001
00000000
00001000
00000000
00000100
00000000
00000000
00000000
00000010
00000001
00001000
00000000
,
00000010
00000100
00000001
00000000
00001000
00000000
00000100
00000000
00010000
00000000
00010000
00000000
00001000
00000000
00001000
00000000
,
01000000
00100000
01100000
00000000
10010000
00000000
10000000
00100000
,
01000000
00000000
00010000
00000000
10000000
00000000
01000000
00000000
00100000
00000000
00010000
00100000
00010000
00000000
00100000
00000000
,
00001000
00010000
00001000
00000000
00020000
00000000
00000000
00000000
00031000
00000000
00001000
00000000
00020000
00000000
00000000
00000000
,
00030100
00000100
00001000
00001000
00000010
00000100
00000010
00000100
,
00000001
00000000
00001000
00000000
00000001
00000000
00000000
00000000
00001000
00000000
00000001
00000000
00000010
00000100
00001000
00000000
,
00000100
00000000
00010000
00010000
00001000
00001000
00100000
00100000
,
00010000
01000000
00100000
00000000
10000000
00100000
10100000
10000000
,
00010000
00110000
00100000
00001000
00011000
00000000
00010000
00000100
,
00000010
00000000
00000001
00000000
00000000
00000000
00000000
00000000
00000010
00000001
00000010
00000001
00000010
00000001
00000010
00000001
,
00000010
00000001
00000010
00000001
00000010
00000000
00000000
00000000
00000100
00001000
00000100
00001000
00000100
00001000
00000100
00001000
,
00000100
00001000
00000100
00001000
00000100
00000000
00000000
00000000
00010000
00001000
00010000
00001000
00010000
00001000
00010000
00001000
,
00010000
00001000
00010000
00001000
00010000
00000000
00000000
00000000
00001000
00100000
00001000
00100000
00001000
00100000
00001000
00100000
,
00001000
00100000
00001000
00100000
00001000
00000000
00000000
00000000
00100000
00000000
00010000
00100000
00000000
00010000
00100000
00000000
,
01000000
10000000
00000000
01000000
10000000
00000000
00010000
00000000
01000000
00010000
00000000
01000000
00010000
00000000
01000000
00001000
,
00000000
01000000
00001000
00000000
00010000
00000000
00000000
00000000
00001000
00000000
00010000
00000010
00000000
00001000
00000010
00000000
,
00000100
00000000
00000001
00000010
00000000
00000100
00001000
00000000
00000002
00000000
00000000
00000000
00000000
00000000
00000000
00000000
,
00000000
00000000
00000000
00000000
,
00002003
00000000
00000000
00000000
,
00000000
00000000
00000000
00000000
00000000
00000000
00003001
00000100
,
00001000
00000000
00010000
00100000
10000000
00000000
00010000
00100000
,
01000000
10000000
01000000
00000000
10000000
01000000
00010000
00000000
,
00001000
00000010
00000001
00000000
00001000
00000001
00002000
00003000
,
00000001
00001000
00000100
00000010
00000100
00010000
00001000
01000000
,
00010000
00100000
01000000
00100000
00001000
00010000
00100000
00000000
,
10000000
01000000
00010000
01000000
10000000
00100000
01000000
00000000
,
00001000
00010000
00000010
00001000
00000001
00000000
00000010
00001000
,
00000010
00000001
00000100
00000010
00000100
00000000
00001000
00010000
,
00100000
01000000
00100000
10000000
00010000
00000000
10000000
01000000
,
00010000
00000000
00000000
00001000
00000000
00000000
00000010
00000000
00000000
00000001
00000000
00000000
00001000
00000000
00000000
00000100
00000000
00000000
00000010
00000000
00000000
00000000
00000001
00000000
,
00000000
00000001
00000000
00000100
00000000
00001000
00000000
00001000
00000000
00010000
00000000
00100000
,
00000000
00010000
00000000
00001000
00000000
00000010
00000000
00001000
00000000
00010000
00000000
00001000
,
00000000
00010000
00000000
00022000
00000000
00000000
00000000
00000000
00000000
00000000
00000000
00000000
,
00033000
00000000
00000000
00000000
;
