
//----- song ID: skdr -----//
#TITLE:SkyDrive! (HASEKO EUROBEAT MIX);
#ARTIST:Amateras Records feat. 築山さえ;
#ARTISTTRANSLIT:Amateras Records feat. Sae Tsukiyama;
#BANNER:SkyDrive! (HASEKO EUROBEAT MIX).png;
#BACKGROUND:SkyDrive! (HASEKO EUROBEAT MIX)-bg.png;
#CDTITLE:./CDTitles/DDR WORLD.png;
#MUSIC:SkyDrive! (HASEKO EUROBEAT MIX).ogg;
#SAMPLESTART:82.751;
#SAMPLELENGTH:15;
#BPMS:0=170;
#NOTES:
     dance-single:
     :
     Beginner:
     3:
     :
0000
0000
0000
0000
,
0000
0000
0000
0000
,
0000
0000
0000
0000
,
0000
0000
0000
0000
,
0000
0000
0000
0000
,
0000
0000
0000
0000
,
0000
0000
0000
0000
,
0001
0000
0000
0000
,
0001
0000
0000
0000
,
1000
0000
0000
0000
,
1000
0000
0000
0000
,
0001
0000
1000
0000
,
0001
0000
0000
0000
,
1000
0000
0100
0000
,
1000
0000
0000
0000
,
0001
0000
1000
0000
,
0001
0000
0000
0000
,
1000
0000
0010
0000
,
2000
0000
0000
3000
,
0001
0000
0001
0000
,
1000
0000
0010
0000
,
1000
0000
1000
0000
,
0001
0000
0000
0000
,
1000
0000
1000
0000
,
0100
0000
1000
0000
,
0001
0000
0001
0000
,
1000
0000
0000
0000
,
0002
0000
0000
0000
,
0003
0000
0000
0000
,
2000
0000
0000
0000
,
3000
0000
0000
0000
,
0002
0000
0000
0000
,
0003
0000
0000
0000
,
2000
0000
0000
0000
,
3000
0000
0000
0000
,
0001
0000
0001
0000
,
0001
0000
0000
0000
,
1000
0000
1000
0000
,
1000
0000
0000
0000
,
0010
0000
0010
0000
,
0010
0000
0000
0000
,
0100
0000
0100
0000
,
0100
0000
0000
0000
,
0001
0000
1000
0000
,
0001
0000
1000
0000
,
0010
0000
1000
0000
,
0010
0000
0000
0000
,
1000
0000
0001
0000
,
1000
0000
0001
0000
,
1000
0000
0100
0000
,
1000
0000
0000
0000
,
0001
0000
1000
0000
,
0010
0000
1000
0000
,
0001
0000
1000
0000
,
0100
0000
0000
0000
,
1000
0000
0100
0000
,
1000
0000
0001
0000
,
1000
0000
0010
0000
,
1000
0000
0000
0000
,
0001
0000
0001
0000
,
1000
0000
1000
0000
,
0001
0000
0001
0000
,
1000
0000
0000
0000
,
0010
0000
0010
0000
,
1000
0000
1000
0000
,
0010
0000
0010
0000
,
1000
0000
0000
0000
,
0001
0000
0001
0000
,
1000
0000
1000
0000
,
0010
0000
0010
0000
,
1000
0000
0000
0000
,
0001
0000
0001
0000
,
1000
0000
1000
0000
,
0100
0000
0100
0000
,
2000
0000
0000
3000
,
0001
0000
0001
0000
,
1000
0000
0001
0000
,
1000
0000
1000
0000
,
0010
0000
0000
0000
,
1000
0000
1000
0000
,
0001
0000
1000
0000
,
0001
0000
0001
0000
,
0010
0000
0000
0000
,
0100
0000
0000
0000
,
0000
0000
0000
0000
;
#NOTES:
     dance-single:
     :
     Easy:
     7:
     :
0000
0000
0000
0000
,
0000
0000
0000
0000
,
0000
0000
0000
0000
,
0000
0000
0000
0000
,
0000
0000
0000
0000
,
0000
0000
0000
0000
,
0000
0000
0000
0000
,
0001
0000
0001
0000
,
1000
0000
1000
0000
,
0010
0000
0010
0000
,
0200
0000
0000
0300
,
0001
0100
0001
0100
,
0010
1000
0010
1000
,
0010
0100
0010
0100
,
0001
1000
0001
1000
,
0001
0010
0001
0010
,
0100
1000
0100
1000
,
0100
0010
0100
0010
,
0002
0000
0000
0003
,
1000
0001
1000
0001
,
1000
0100
1000
0100
,
0010
0100
0010
0100
,
0010
0001
0010
0001
,
1000
0001
1000
0001
,
1000
0010
1000
0010
,
0100
0010
0100
0010
,
0100
0001
0100
0001
,
2000
0000
0000
0000
,
3000
0000
0000
0000
,
0002
0000
0000
0000
,
0003
0000
0000
0000
,
0020
0000
0000
0000
,
0030
0000
0000
0000
,
0200
0000
0000
0000
,
0300
0000
0000
0000
,
2000
0000
0000
0000
3002
0000
0000
0103
,
0000
0000
0001
0000
1000
0001
0000
0100
,
0000
0000
0000
0000
0000
0000
0010
1000
,
0000
0000
0000
0001
0000
0000
0000
0000
,
2000
0000
0000
0000
3001
0000
0010
0001
,
0000
0000
1000
0000
0001
0100
0000
0001
,
0000
0000
0000
0000
0000
0000
1000
0100
,
0000
0000
0000
0010
0000
0000
0000
0000
,
0001
0010
0001
0010
,
0100
1000
0100
1000
,
0001
0100
0001
0100
,
0010
1000
0010
1000
,
0001
1000
0001
1000
,
0001
0100
0001
0100
,
0010
0100
0010
0100
,
0010
1000
0010
1000
,
0001
0100
0010
1000
,
0001
0100
0010
1000
,
0001
0010
0100
1000
,
0001
0010
0100
1000
,
0001
0100
0010
0100
,
0001
1000
0100
1000
,
0001
0010
0100
0010
,
0002
0000
0000
0003
,
1000
0001
0010
0001
,
1000
0010
1000
0001
,
0100
0001
1000
0100
,
0020
0100
0100
0130
,
0010
0001
1000
0100
,
1000
0001
0100
0010
,
0100
0001
1000
0010
,
0100
0001
0010
0100
,
1000
0001
0100
0001
,
1000
0100
1000
0001
,
0010
0001
1000
0010
,
0200
0010
0010
0310
,
0100
0001
1000
0010
,
1000
0001
0010
0100
,
0010
0001
1000
0100
,
0020
0000
0000
0030
,
0001
1000
0001
1000
,
0001
0100
0001
0100
,
0010
0100
0010
0100
,
0010
1000
0010
1000
,
0001
1000
0001
1000
,
0001
0010
0001
0010
,
0100
0010
0100
0010
,
0100
1000
0100
1000
,
0200
0000
0000
0000
,
0000
0000
0000
0000
,
0000
0000
0000
0000
,
0000
0000
0300
0000
,
0000
0000
0000
0000
;
#NOTES:
     dance-single:
     :
     Medium:
     12:
     :
0000
0000
0000
0000
,
0000
0000
0000
0000
,
0000
0000
0000
0000
,
0000
0000
0000
0000
,
0000
0000
0000
0000
,
0000
0000
0000
0000
,
0000
0000
0000
0000
,
0001
0000
0001
0000
0001
0000
0100
0010
,
1000
0000
1000
0000
1000
0000
0100
0010
,
0001
0000
0001
0000
0010
0100
0010
0000
,
0001
1000
0001
2000
0000
0000
3000
0000
,
0001
1000
0001
1000
0001
0000
0100
0010
,
1000
0001
1000
0001
1000
0000
0100
0010
,
0001
0010
0001
0000
0010
0100
1000
0000
,
0010
0100
0001
0000
1000
0100
1000
0000
,
0010
0100
0010
0100
0010
0000
1000
0001
,
0010
0100
0010
0100
0010
0000
0001
1000
,
0100
1000
0100
0000
0010
0100
1000
0000
,
0010
0100
0001
2000
0000
0000
3001
0000
,
1000
0000
0001
1000
0000
0001
1000
0000
0001
1000
0000
0001
1000
0000
0000
0000
,
0001
0010
0001
0010
0100
1000
0100
0000
,
0010
0100
0000
0010
0100
0000
0010
0100
0000
0010
0100
0000
0010
0000
0000
0000
,
0100
1000
0100
1000
0001
0100
0001
0000
,
1000
0100
0000
1000
0100
0000
1000
0100
0000
1000
0100
0000
1000
0000
0000
0000
,
0001
0100
0001
0100
0010
1000
0010
0000
,
0100
0001
0000
0100
0001
0000
0100
0001
0000
0100
0001
0000
0100
0000
0000
0000
,
0010
1000
0010
1000
0001
0100
0001
0000
,
2000
0000
0000
0000
3002
0000
0000
0103
,
0000
0000
0001
0000
1000
0100
0000
2000
,
0000
0000
3000
0000
0000
0000
0001
0100
,
0000
0000
0000
0001
0000
0000
0000
0000
,
2000
0000
0000
0000
3010
0000
0100
0001
,
0000
0000
1000
0000
0010
0100
0000
0002
,
0000
0000
0003
0000
0000
0000
0010
0100
,
0000
0000
0000
1000
0000
0000
0100
0000
,
1000
0100
1000
0000
0100
1000
0100
0000
,
0010
0001
0010
0000
0001
0010
0001
0000
,
1000
0010
1000
0000
0010
1000
0010
0000
,
0100
0001
0100
0000
0001
0100
0001
0000
,
0010
0100
0010
0000
0100
0010
0100
0000
,
1000
0001
1000
0000
0001
1000
0001
0000
,
0100
0010
0100
0000
0010
0100
0010
0000
,
1000
0000
1000
0002
0000
0003
1000
0000
,
0001
0100
0001
0100
0010
1000
0010
1000
,
0001
0010
0001
0010
0100
1000
0100
1000
,
0001
1000
0001
1000
0010
0100
0010
0100
,
0001
1000
0001
1000
0100
0010
0100
0000
,
1000
0001
0010
0100
1000
0001
0010
0100
,
1000
0001
0100
0010
1000
0001
0100
0010
,
1000
0010
0100
0001
1000
0010
0100
0001
,
1000
0100
0010
0001
1000
0100
0010
0000
,
0001
0100
0010
0100
0001
1000
0010
1000
,
0001
0010
0100
0010
0001
1000
0100
1000
,
0001
0010
0001
1000
0010
0100
0010
1000
,
0001
0010
0100
0010
0001
1000
0001
0000
,
0100
1000
0100
0001
0100
1000
0100
0001
,
1000
0100
0001
0100
1000
0100
0001
0100
,
1000
0010
0001
0010
1000
0010
0001
0010
,
2000
0000
0000
3001
,
2000
0000
3001
0100
0010
1000
0001
1000
,
0100
0010
0001
0010
0100
0000
1000
0001
,
2000
0000
3001
0100
0010
1000
0001
1000
,
0020
0230
0302
2003
,
3001
0000
1000
0010
0100
0001
1000
0001
,
0010
0100
1000
0100
0010
0001
1000
0000
,
0020
0000
0130
0001
1000
0100
0010
0001
,
2000
0100
0001
0010
,
3001
0000
1000
0010
0100
0010
0100
0001
,
1000
0001
1000
0100
0010
0100
0010
0001
,
2000
0000
3001
0100
0010
1000
0100
0010
,
0200
2300
3002
0203
,
0310
0000
1000
0001
1000
0100
0010
0100
,
0010
0001
1000
0001
1000
0010
0100
0010
,
0200
0000
0301
1000
0010
0100
0001
1000
,
0002
0000
0000
1003
,
0001
0000
1000
0001
0000
1000
0001
0000
1000
0001
0000
1000
0001
0000
0000
0000
,
1000
0010
1000
0010
0100
0001
0100
0000
,
0010
0100
0000
0010
0100
0000
0010
0100
0000
0010
0100
0000
0010
0000
0000
0000
,
0100
0001
0100
0001
1000
0100
1000
0000
,
0001
0100
0000
0001
0100
0000
0001
0100
0000
0001
0100
0000
0001
0000
0000
0000
,
1000
0100
1000
0100
0010
0001
0010
0000
,
0100
1000
0000
0100
1000
0000
0100
1000
0000
0100
1000
0000
0100
0000
0000
0000
,
0010
0001
0010
0001
1000
0100
1000
0000
,
0200
0000
0000
0000
,
0000
0000
0000
0000
,
0000
0000
0000
0000
,
0000
0000
0300
0000
,
0000
0000
0000
0000
;
#NOTES:
     dance-single:
     :
     Hard:
     14:
     :
0000
0000
0000
0000
,
0000
0000
0000
0000
,
0000
0000
0000
0000
,
0000
0000
0000
0000
,
0000
0000
0000
0000
,
0000
0000
0000
0000
,
0000
0000
0000
0000
,
1000
0001
1000
0001
1000
0000
0100
0010
,
0001
1000
0010
1000
0010
0000
0100
0001
,
1000
0100
1000
0000
0001
0100
0001
0000
,
0010
0100
1000
0002
0000
0000
1003
0000
,
0001
0100
0001
0100
0010
1000
0010
1000
,
0001
0010
0001
0010
0100
1000
0100
1000
,
0001
0100
0010
1000
0001
0010
0100
1000
,
0010
0100
0001
1000
0100
0010
0001
1000
,
0010
0100
0010
0100
0010
1000
0010
1000
,
0001
1000
0001
1000
0001
0010
0001
0010
,
0100
1000
0010
0100
0001
0010
0100
1000
,
0010
0100
0001
1000
0100
0010
0001
0000
,
1000
0000
0001
0100
0000
0010
1000
0000
0001
0100
0000
0010
1000
0000
0001
0000
,
1000
0100
1000
0000
0001
0010
0000
0020
0000
0030
0001
0000
1000
0000
0100
0000
,
0010
0001
0000
1000
0100
0000
0010
0001
0000
1000
0100
0000
0010
0001
1000
0000
,
0001
0000
1000
0010
0000
0100
0001
1000
0000
0010
0100
0010
0100
0000
0001
0000
,
1000
0100
0000
0010
0001
0000
1000
0100
0000
0010
0001
0000
1000
0100
0000
0100
,
1000
0100
1000
0000
0001
0010
0000
0020
0000
0030
0001
0000
1000
0000
0010
0000
,
0100
0001
0000
1000
0010
0000
0100
0001
0000
1000
0010
0000
0100
0001
1000
0000
,
0001
0000
1000
0010
0000
0100
0001
1000
0000
0010
0100
0000
0010
0100
0010
0100
,
0002
0000
0000
0000
2003
0000
0000
3200
,
0000
0000
2300
0000
3010
0200
0000
0302
,
0000
0000
0003
0000
0000
0000
0010
0200
,
0000
0000
0300
2000
0000
0000
3000
0000
,
0002
0000
0000
0000
0023
0030
0100
2000
,
0000
3000
2000
0000
3010
0200
0000
0302
,
0000
0000
0003
0000
0000
0000
0010
0200
,
0000
0300
0000
0020
0000
0030
0001
0000
,
1000
0100
1000
0100
0010
0001
0010
0001
,
1000
0000
1000
0020
0000
0130
0001
0000
,
0001
0100
0001
0100
0010
1000
0010
1000
,
0001
0000
0001
0020
0000
0130
1000
0000
,
0001
0010
0001
0010
0100
1000
0100
1000
,
0010
0000
0010
0200
0000
0301
1000
0000
,
1000
0010
1000
0010
0100
0001
0100
0001
,
0010
0000
0010
0200
0000
0310
0001
0000
,
0001
0100
0010
1000
0001
0100
0010
1000
,
0001
0010
0100
1000
0001
0010
0100
1000
,
0010
0100
0001
1000
0010
0100
0001
1000
,
0100
0010
0001
1000
0100
0010
0001
1000
,
0010
0100
0001
0010
0100
0010
0001
0100
,
0010
1000
0100
0010
0100
1000
0010
0100
,
0001
0010
1000
0010
0001
0100
1000
0100
,
0001
0010
1000
0001
0100
1000
0001
1000
,
0001
1000
0001
0000
0010
0000
0100
0000
1000
0000
0001
0000
1000
0000
0001
0000
,
0100
0010
0100
0000
0001
0000
1000
0000
0100
0000
0010
0000
0100
0000
0010
0000
,
0100
1000
0100
0000
0010
0000
0001
0000
1000
0000
0010
0000
1000
0000
0010
0000
,
0100
0001
0100
0000
0010
0000
1000
0000
0001
0000
0010
0000
0001
0000
0010
0000
,
0100
1000
0001
0000
0100
0000
0010
0000
1000
0000
0100
0000
0010
0000
0001
0000
,
0100
0001
1000
0000
0100
0000
0010
0000
0001
0000
0100
0000
0010
0000
1000
0000
,
0100
0010
0001
0000
0010
0000
0100
0000
1000
0000
0010
0000
0001
0000
0010
0000
,
2000
0000
0000
3001
,
2000
0000
3010
0100
0001
0010
0100
1000
,
0010
0000
0001
0000
0010
0000
1000
0000
0001
0010
0100
0000
1000
0000
0010
0000
,
0200
0000
0301
1000
0010
0100
0001
0010
,
0200
0001
0010
1300
,
0002
0000
0013
0100
1000
0010
0100
0001
,
0010
0000
1000
0000
0010
0000
0001
0000
1000
0010
0100
0000
0001
0000
0010
0000
,
0200
0000
1300
0001
0010
0100
1000
0010
,
1000
0100
0010
0100
0001
0100
0010
0100
,
2000
0000
3100
0010
0001
0100
0010
1000
,
0100
0000
0001
0000
0100
0000
1000
0000
0001
0100
0010
0000
1000
0000
0100
0000
,
0020
0000
0031
1000
0100
0010
0001
0100
,
0020
0001
0100
1030
,
0002
0000
0103
0010
1000
0100
0010
0001
,
0100
0000
1000
0000
0100
0000
0001
0000
1000
0100
0010
0000
0001
0000
0100
0000
,
0020
0000
1030
0001
0010
1000
0010
0001
,
1000
0010
0001
0020
0000
0000
0130
0000
,
0001
0000
1000
0100
0000
0010
0001
0000
1000
0010
0000
0100
0001
0000
1000
0000
,
0001
0100
0001
0000
1000
0010
0000
0020
0000
0030
1000
0000
0001
0000
0010
0000
,
0100
1000
0000
0001
0100
0000
0010
1000
0000
0001
0010
0000
0100
1000
0001
0000
,
1000
0000
0001
0010
0000
0100
1000
0001
0000
0100
0010
0100
0010
0000
1000
0000
,
0001
0010
0000
0100
1000
0000
0001
0100
0000
0010
1000
0000
0001
0010
0000
0010
,
0001
0010
0001
0000
1000
0010
0000
0020
0000
0030
1000
0000
0001
0000
0010
0000
,
0100
1000
0000
0001
0100
0000
0010
1000
0000
0001
0010
0000
0100
1000
0001
0000
,
1000
0000
0001
0010
0000
0100
0010
0001
0000
0100
0010
0000
0100
0010
0100
0010
,
0200
0000
0000
0000
,
0000
0000
0000
0000
,
0000
0000
0000
0000
,
0000
0000
0300
0000
,
0000
0000
0000
0000
;
#NOTES:
     dance-single:
     :
     Challenge:
     17:
     :
0000
0000
0000
0000
,
0000
0000
0000
0000
,
0000
0000
0000
0000
,
0000
0000
0000
0000
,
0000
0000
0000
0000
,
0000
0000
0000
0000
,
0000
0000
0000
0000
,
0001
1000
0001
1000
0001
1000
0100
0010
,
0001
1000
0010
0100
0010
0100
0001
1000
,
0100
0010
0001
1000
0010
0100
0001
0010
,
0220
0000
0000
0330
,
0001
0000
1000
0010
1000
0000
0001
0010
0001
0000
1000
0100
1000
0000
0001
0000
,
0100
0000
0010
1000
0010
0000
0100
0010
0100
0000
0001
0100
0001
0000
1000
0000
,
0100
0000
0010
0001
1000
0000
0010
0100
0001
0000
1000
0100
0010
0000
0001
0000
,
0010
0000
0100
1000
0001
0000
0100
0010
1000
0000
0001
0010
0200
0000
0300
0000
,
1000
0000
0001
0010
0001
0000
1000
0010
1000
0000
0001
0100
0001
0000
1000
0000
,
0100
0000
0010
0001
0010
0000
0100
0010
0100
0000
1000
0100
1000
0000
0001
0000
,
0100
0000
0010
1000
0001
0000
0010
0100
1000
0000
0001
0100
0010
0000
1000
0000
,
0002
0000
0003
1001
,
0001
0000
1000
0010
0000
0100
0001
0000
1000
0100
0000
0010
0001
0000
0001
0000
,
1000
0010
0100
0001
1000
0010
0000
0020
0000
0030
1000
0000
0001
0000
0010
0000
,
0010
0001
1000
0010
1000
0001
0010
0001
1000
0010
1000
0001
0010
0001
0010
0100
,
0010
0000
0100
1000
0000
0010
0100
0002
0000
0013
0100
1000
0001
0100
0010
1000
,
0010
0100
0000
0001
1000
0000
0100
0010
0000
0001
1000
0000
0010
0100
0000
0100
,
0001
0010
0100
1000
0001
0010
0000
0020
0000
0030
0001
0000
1000
0000
0100
0000
,
0100
1000
0001
0100
0001
1000
0100
1000
0001
0100
0001
1000
0100
1000
0100
0010
,
0100
0000
0010
0001
0000
0100
0010
2000
0000
3100
0010
0001
0010
0100
1000
0001
,
0200
0000
0000
0000
,
0000
0000
0000
0000
,
0302
0000
0000
0000
,
0000
0000
0000
0000
,
2003
0000
0000
0000
,
0000
0000
0000
0000
,
3020
0000
0000
0000
,
0030
0000
0000
0000
0000
0000
0220
0330
,
0101
0001
2001
3000
1100
0100
0120
0030
,
0011
0000
0101
2002
0000
0000
3003
0000
,
1010
1000
1002
0003
0011
0010
0210
0300
,
1100
0000
1010
2002
0000
0000
3003
0000
,
1100
0000
1000
0000
2001
0000
3001
0100
0001
0000
0100
0000
0210
0000
0310
1000
,
0010
0000
0000
0000
1100
0000
2001
0000
0000
0000
3001
0010
0100
0000
1000
0000
,
0011
0000
0001
0000
1002
0000
1003
0010
1000
0000
0010
0000
0120
0000
0130
0001
,
0100
0000
0011
2002
0000
0000
3003
0000
,
0001
0100
0001
0000
0001
0100
0001
0000
1000
0100
1000
0000
1000
0100
1000
0000
,
0001
0010
0001
0000
0001
0010
0001
0000
1000
0010
1000
0000
1000
0010
1000
0000
,
0001
1000
0001
0000
0001
1000
0001
0000
0010
0100
0010
0000
0010
0100
0010
0000
,
0100
1000
0100
0000
0100
1000
0100
0000
0010
0001
0010
0000
0020
0000
0030
0000
,
0100
0010
0001
0000
0001
0010
0100
0000
0010
0100
1000
0000
1000
0100
0010
0000
,
0100
1000
0001
0000
0001
1000
0100
0000
1000
0001
0100
0000
0100
0001
1000
0000
,
0010
0100
0001
0000
0001
0100
0010
0000
0100
0010
1000
0000
1000
0010
0100
0000
,
0010
1000
0001
0000
0001
1000
0010
0000
1000
0001
0010
0000
0020
0000
0030
0000
,
0100
0010
0001
0000
0100
0010
0001
0000
0010
0100
0001
0000
0010
0100
0001
0000
,
1000
0010
0100
0000
1000
0010
0100
0000
1000
0100
0010
0000
1000
0100
0010
0000
,
0100
1000
0001
0000
0100
1000
0001
0000
0010
1000
0001
0000
0010
1000
0001
0000
,
1000
0010
0001
0000
1000
0010
0001
0000
1000
0100
0001
0000
2000
0000
3200
0000
,
0301
0100
0010
0000
0001
0100
0010
0000
0001
0010
0100
0000
0001
0010
0100
0000
,
0010
0100
1000
0000
0010
0100
1000
0000
0100
0010
1000
0000
0100
0010
1000
0000
,
0010
0001
1000
0000
0010
0001
1000
0000
0100
0001
1000
0000
0100
0001
1000
0000
,
0020
0000
0000
0030
,
0001
0000
0010
0100
1000
0000
0001
0010
0100
0000
1000
0001
0010
0100
1000
0001
,
0010
1000
0010
0001
0100
1000
0100
0001
,
1000
0000
0010
0100
0001
0000
1000
0010
0100
0000
0001
1000
0010
0100
0001
1000
,
0020
0100
0001
0100
2030
0001
0100
0001
,
3010
0000
0100
0010
0100
0000
0001
1000
0001
0000
0010
0100
1000
0001
0100
0010
,
1000
0100
0001
0100
1000
0010
0001
0010
,
1000
0000
0100
0010
0100
0000
1000
0001
1000
0000
0010
0100
0001
1000
0100
0010
,
0002
1000
0100
1000
0023
0100
1000
0100
,
0031
0000
0010
0100
1000
0000
0010
0100
0001
0000
0010
0100
0001
0100
0010
0001
,
1000
0010
0001
1000
0001
0010
1000
0001
,
1000
0000
0100
0010
0001
0000
0100
0010
1000
0000
0100
0010
1000
0010
0100
1000
,
0020
0100
0001
0100
2030
0001
0100
0001
,
3010
0000
0100
0010
0001
0000
0010
0100
0001
0000
1000
0100
0010
1000
0010
0100
,
1000
0001
0100
1000
0001
1000
0100
0001
,
1000
0000
0100
0010
1000
0000
0010
0100
1000
0000
0001
0100
0010
0001
0010
0100
,
0001
0000
0010
0100
1000
0001
1000
0001
0100
0010
0100
0010
0100
0010
0100
0010
,
1000
0000
0001
0010
0000
0010
1000
0000
0001
0100
0000
0100
1000
0000
1000
0000
,
0001
0010
0100
1000
0001
0010
0000
0020
0000
0030
0001
0000
1000
0000
0010
0000
,
0010
1000
0100
0010
0001
0100
0010
1000
0100
0010
0001
0100
0010
1000
0100
0010
,
0001
0000
0010
1000
0000
0010
0001
2000
0000
3010
0100
0001
0010
0100
1000
0001
,
1000
0100
0000
0100
0001
0000
1000
0010
0000
0010
0001
0000
1000
0010
0000
0010
,
0100
0010
1000
0001
0010
0100
0000
0200
0000
0300
1000
0000
0001
0000
0100
0000
,
0100
0001
0010
0100
1000
0010
0100
0001
0010
0100
1000
0010
0100
0001
0010
0100
,
1000
0000
0100
0001
0000
0100
1000
0002
0000
0103
0010
1000
0100
0010
0001
1000
,
0200
0000
0000
0000
,
0000
0000
0000
0000
,
0000
0000
0000
0000
,
0000
0000
0300
0000
,
0000
0000
0000
0000
;
#NOTES:
     dance-double:
     :
     Easy:
     8:
     :
00000000
00000000
00000000
00000000
,
00000000
00000000
00000000
00000000
,
00000000
00000000
00000000
00000000
,
00000000
00000000
00000000
00000000
,
00000000
00000000
00000000
00000000
,
00000000
00000000
00000000
00000000
,
00000000
00000000
00000000
00000000
,
00001000
00000000
00010000
00000000
,
00000100
00000000
00001000
00000000
,
00000001
00000000
00000010
00000000
,
00000200
00000000
00000000
00000300
,
00000010
00000001
00000010
00000001
,
00001000
00000100
00001000
00000100
,
00010000
00001000
00010000
00001000
,
00100000
00010000
00100000
00010000
,
10000000
00010000
00100000
00001000
,
00010000
00000100
00001000
00000001
,
00001000
00000010
00010000
00001000
,
01000000
00010000
10000000
10000000
,
00010000
00100000
00010000
00100000
,
00001000
00010000
00001000
00010000
,
00000010
00001000
00000010
00001000
,
00000001
00000100
00000001
00000001
,
00001000
00000100
00001000
00000100
,
00010000
00001000
00010000
00001000
,
01000000
00010000
01000000
00010000
,
10000000
00100000
10000000
10000000
,
00200000
00000000
00000000
00000000
,
00300000
00000000
00000000
00000000
,
02000000
00000000
00000000
00000000
,
03000000
00000000
00000000
00000000
,
00002000
00000000
00000000
00000000
,
00003000
00000000
00000000
00000000
,
00020000
00000000
00000000
00000000
,
00030000
00000000
00000000
00000000
,
00002000
00000000
00000000
00000000
00023000
00000000
00000000
00030100
,
00000000
00000000
00001000
00000000
00000001
00000100
00000000
00000001
,
00000000
00000000
00000000
00000000
00000000
00000000
00001000
00000100
,
00000000
00000000
00000000
00010000
00000000
00000000
00000000
00000000
,
00002000
00000000
00000000
00000000
01003000
00000000
00010000
01000000
,
00000000
00000000
00010000
00000000
10000000
01000000
00000000
10000000
,
00000000
00000000
00000000
00000000
00000000
00000000
00010000
01000000
,
00000000
00000000
00000000
00010000
00000000
00000000
10000000
00000000
,
00010000
10000000
00010000
10000000
,
01000000
00100000
01000000
00100000
,
00001000
00010000
00001000
00010000
,
00000100
00000010
00000100
00000010
,
00000001
00001000
00000001
00001000
,
00000010
00000100
00000010
00000100
,
00001000
00010000
00001000
00010000
,
00100000
01000000
00100000
01000000
,
00010000
10000000
00100000
01000000
,
00001000
00010000
00000010
00000100
,
00000001
00001000
00000100
00000010
,
00001000
00010000
01000000
00100000
,
00010000
10000000
00100000
00010000
,
00001000
00000100
00000001
00001000
,
00000100
00000010
00001000
00010000
,
00002000
00000000
00000000
00003000
,
00100000
00010000
10000000
00100000
,
01000000
00010000
10000000
01000000
,
10000000
01000000
00100000
00010000
,
00001000
00000100
00000010
00000001
,
00001000
00000001
00000100
00000001
,
00001000
00000010
00001000
00000001
,
00000100
00000010
00001000
00010000
,
01000000
00100000
00010000
00001000
,
00000100
00000001
00001000
00000100
,
00000010
00000001
00001000
00000010
,
00000001
00000010
00000100
00001000
,
00010000
00100000
01000000
10000000
,
01000000
00100000
10000000
00010000
,
00100000
01000000
00010000
00001000
,
00000010
00000100
00001000
00000001
,
00002000
00000000
00000000
00003001
,
00001000
00000010
00001000
00000010
,
00010000
00001000
00010000
00001000
,
00100000
00010000
00100000
00010000
,
10000000
01000000
10000000
10000000
,
00010000
01000000
00010000
01000000
,
00001000
00010000
00001000
00010000
,
00000100
00001000
00000100
00001000
,
00000001
00000100
00000001
00000001
,
00002000
00000000
00000000
00000000
,
00000000
00000000
00000000
00000000
,
00000000
00000000
00000000
00000000
,
00000000
00000000
00003000
00000000
,
00000000
00000000
00000000
00000000
;
#NOTES:
     dance-double:
     :
     Medium:
     12:
     :
00000000
00000000
00000000
00000000
,
00000000
00000000
00000000
00000000
,
00000000
00000000
00000000
00000000
,
00000000
00000000
00000000
00000000
,
00000000
00000000
00000000
00000000
,
00000000
00000000
00000000
00000000
,
00000000
00000000
00000000
00000000
,
00010000
00000000
00010000
00000000
00010000
00000000
00001000
01000000
,
00010000
00000000
00010000
00000000
00010000
00000000
01000000
00100000
,
10000000
00000000
10000000
00000000
00100000
01000000
00100000
00000000
,
10000000
00010000
10000000
00020000
00000000
00000000
00030000
00000000
,
10000000
00100000
10000000
00100000
10000000
00000000
00010000
01000000
,
00001000
00010000
00001000
00010000
00001000
00000000
00010000
00000010
,
00001000
00000010
00001000
00000000
00000010
00000100
00000001
00000000
,
00000010
00000100
00001000
00000000
00000100
00010000
00001000
00000000
,
00010000
00001000
00010000
00001000
00010000
00000000
00001000
00100000
,
00010000
10000000
00010000
10000000
00010000
00000000
10000000
00100000
,
01000000
00010000
01000000
00000000
00001000
00010000
00001000
00000000
,
00100000
00010000
00100000
00020000
00000000
00000000
10030000
00000000
,
00010000
00000000
10000000
00010000
00000000
10000000
00010000
00000000
10000000
00010000
00000000
10000000
00010000
00000000
00000000
00000000
,
10000000
00010000
00100000
00001000
00010000
00000010
00001000
00000000
,
00000010
00000100
00000000
00000010
00000100
00000000
00000010
00000100
00000000
00000010
00000100
00000000
00000010
00000000
00000000
00000000
,
00001000
00000010
00010000
00001000
00100000
00010000
10000000
00000000
,
00010000
01000000
00000000
00010000
01000000
00000000
00010000
01000000
00000000
00010000
01000000
00000000
00010000
00000000
00000000
00000000
,
10000000
00010000
00100000
00001000
00010000
00000100
00001000
00000000
,
00000001
00000010
00000000
00000001
00000010
00000000
00000001
00000010
00000000
00000001
00000010
00000000
00000001
00000000
00000000
00000000
,
00001000
00000100
00010000
00001000
00100000
00010000
10000000
00000000
,
00200000
00000000
00000000
00000000
20300000
00000000
00000000
31000000
,
00000000
00000000
10000000
00000000
00010000
01000000
00000000
00020000
,
00000000
00000000
00030000
00000000
00000000
00000000
10000000
01000000
,
00000000
00000000
00000000
10000000
00000000
00000000
00000000
00000000
,
00020000
00000000
00000000
00000000
00130000
00000000
00001000
00010000
,
00000000
00000000
00000100
00000000
00001000
00000001
00000000
00002000
,
00000000
00000000
00003000
00000000
00000000
00000000
00000010
00000100
,
00000000
00000000
00000000
00001000
00000000
00000000
00010000
00000000
,
00001000
00010000
00001000
00000000
00010000
00001000
00010000
00000000
,
00000010
00001000
00000010
00000000
00001000
00000010
00001000
00000000
,
00000001
00000010
00000001
00000000
00000010
00000001
00000010
00000000
,
00000001
00001000
00000001
00000000
00001000
00000001
00001000
00000000
,
00000100
00001000
00000100
00000000
00001000
00000100
00001000
00000000
,
00000100
00010000
00000100
00000000
00010000
00000100
00010000
00000000
,
00001000
00010000
00001000
00000000
00010000
00001000
00010000
00000000
,
00001000
00000000
00100000
00020000
00000000
00030000
10000000
00000000
,
00010000
00100000
00010000
00000000
10000000
01000000
10000000
00000000
,
00010000
00100000
00001000
00010000
00000100
00001000
00000001
00000000
,
00001000
00000010
00001000
00000000
00000001
00000100
00000001
00000000
,
00001000
00000010
00010000
00001000
01000000
00010000
10000000
00000000
,
00100000
10000000
00010000
00000000
01000000
00001000
00010000
00000000
,
00000010
00001000
00000001
00000100
00000010
00001000
00000001
00000000
,
00000010
00000001
00001000
00000000
00000100
00010000
00001000
00000000
,
00100000
00010000
10000000
01000000
00100000
00010000
10000000
00000000
,
00100000
10000000
01000000
00000000
00010000
00001000
00010000
00000000
,
00000010
00000100
00001000
00000000
00010000
00001000
00010000
00000000
,
01000000
10000000
00100000
00000000
00010000
00001000
00010000
00000000
,
00000100
00000010
00001000
00000000
00010000
00001000
00010000
00000000
,
01000000
10000000
00100000
00000000
00010000
00001000
00000100
00000000
,
00000100
00000001
00000010
00000000
00001000
00010000
01000000
00000000
,
01000000
00100000
00001000
00000000
00010000
00000010
00000100
00000000
,
00000002
00000000
00000000
00001003
,
00000002
00000000
00000013
00000100
00001000
00000001
00000010
00000100
,
00001000
00000100
00010000
00001000
00010000
00000000
00001000
00010000
,
00000200
00000000
00001300
00000100
00000010
00000001
00000010
00000000
,
00000002
00002003
00023000
20030000
,
30010000
00000000
00100000
01000000
10000000
00010000
00100000
01000000
,
10000000
01000000
00100000
00001000
00100000
00001000
00010000
00000000
,
00002000
00000000
00013000
01000000
10000000
00100000
00010000
00001000
,
00020000
01000000
10000000
01000000
,
00031000
00000000
00010000
00000010
00001000
00000001
00000010
00000100
,
00001000
00000010
00000100
00000001
00000010
00000100
00001000
00000000
,
00000200
00000000
00010300
00001000
00100000
00010000
10000000
01000000
,
20000000
30020000
00032000
00003002
,
00001003
00000000
00000010
00000100
00000001
00000010
00000100
00001000
,
00000010
00000100
00001000
00010000
00100000
01000000
00010000
00000000
,
00200000
00000000
00301000
00010000
00000010
00000100
00001000
00010000
,
00200000
00000000
00000000
00300000
,
10000000
00000000
00010000
10000000
00000000
00010000
10000000
00000000
00010000
10000000
00000000
00010000
10000000
00000000
00000000
00000000
,
00100000
10000000
00010000
01000000
00001000
00010000
00000100
00000000
,
00000010
00000100
00000000
00000010
00000100
00000000
00000010
00000100
00000000
00000010
00000100
00000000
00000010
00000000
00000000
00000000
,
00000001
00000010
00000100
00010000
00001000
01000000
00010000
00000000
,
10000000
01000000
00000000
10000000
01000000
00000000
10000000
01000000
00000000
10000000
01000000
00000000
10000000
00000000
00000000
00000000
,
01000000
10000000
00010000
00100000
00001000
00010000
00000010
00000000
,
00001000
00000010
00000000
00001000
00000010
00000000
00001000
00000010
00000000
00001000
00000010
00000000
00001000
00000000
00000000
00000000
,
00000001
00000010
00000100
00001000
00010000
00100000
01000000
00000000
,
20000000
00000000
00000000
00000000
,
00000000
00000000
00000000
00000000
,
00000000
00000000
00000000
00000000
,
00000000
00000000
30000000
00000000
,
00000000
00000000
00000000
00000000
;
#NOTES:
     dance-double:
     :
     Hard:
     14:
     :
00000000
00000000
00000000
00000000
,
00000000
00000000
00000000
00000000
,
00000000
00000000
00000000
00000000
,
00000000
00000000
00000000
00000000
,
00000000
00000000
00000000
00000000
,
00000000
00000000
00000000
00000000
,
00000000
00000000
00000000
00000000
,
00010000
00001000
00010000
00001000
00010000
00000000
00000100
00001000
,
00000001
00000100
00000010
00001000
00000010
00000000
00010000
00001000
,
00010000
00001000
01000000
00000000
00010000
10000000
01000000
00000000
,
00100000
00010000
10000000
00200000
00000000
00000000
01300000
00000000
,
00010000
01000000
00010000
01000000
00001000
00010000
00001000
00010000
,
00000010
00001000
00000010
00001000
00000001
00000010
00000001
00000010
,
00000100
00001000
00000010
00010000
00001000
00100000
00010000
01000000
,
00100000
10000000
01000000
00100000
00001000
00010000
00000010
00000100
,
00000001
00000100
00000001
00000100
00000010
00001000
00000010
00001000
,
00000100
00010000
00000100
00010000
00001000
00100000
00001000
00100000
,
00010000
10000000
01000000
00100000
00001000
00010000
00000010
00001000
,
00000100
00000010
00000001
00002000
00000000
00000000
00003001
00000000
,
00001000
00000000
00000001
00000100
00000000
00000010
00001000
00000000
00000001
00000100
00000000
00000010
00001000
00000000
00000001
00000000
,
00000100
00000000
00000010
00000000
00010000
00001000
00000000
00020000
00000000
00030000
01000000
00000000
10000000
00000000
00010000
00000000
,
10000000
01000000
00000000
00100000
00010000
00000000
00010000
00001000
00000000
00001000
00000100
00000000
00000010
00000001
00001000
00000000
,
00000100
00010000
00001000
00100000
01000000
00010000
00001000
00000100
,
00000010
00001000
00000000
00000001
00000100
00000000
00000010
00001000
00000000
00000001
00000100
00000000
00000010
00001000
00000000
00001000
,
00000010
00001000
00000010
00000000
00010000
00001000
00000000
00020000
00000000
00030000
01000000
00000000
10000000
00000000
00010000
00000000
,
10000000
00100000
00000000
01000000
00010000
00000000
00010000
00001000
00000000
00001000
00000010
00000000
00000100
00000001
00001000
00000000
,
00000010
00000000
00010000
00000000
00001000
00000000
01000000
00000000
00100000
00000000
00010000
00000000
00001000
00010000
00001000
00000000
,
00020000
00000000
00000000
00000000
00032000
00000000
00000000
02003000
,
00000000
00000000
03020000
00000000
00130000
02000000
00000000
23000000
,
00000000
00000000
30000000
00000000
00000000
00000000
00100000
00020000
,
00000000
00000000
00030000
00002000
00000000
00000000
00003000
00000000
,
00000200
00000000
00000000
00000000
00000320
00000030
00001000
00000002
,
00000000
00000003
00000002
00000000
00000013
00002000
00000000
00023000
,
00000000
00000000
00030000
00000000
00000000
00000000
00001000
02000000
,
00000000
03000000
00000000
00200000
00000000
00300000
10000000
00000000
,
00010000
01000000
00010000
01000000
00001000
00010000
00001000
00010000
,
00000010
00000000
00000010
00000200
00000000
00000300
00000001
00000000
,
00001000
00000100
00001000
00000100
00010000
00001000
00010000
00001000
,
00100000
00000000
00100000
02000000
00000000
03000000
10000000
00000000
,
00100000
00010000
00100000
00010000
00001000
00010000
00001000
00010000
,
01000000
00000000
01000000
00020000
00000000
00030000
00001000
00000000
,
00000010
00001000
00000010
00001000
00010000
00001000
00010000
00001000
,
00000100
00000000
00000100
00002000
00000000
00003000
00010000
00000000
,
00001000
00010000
00001000
00010000
00001000
00000100
00001000
00000100
,
00000001
00000100
00000001
00000100
00000001
00000010
00000001
00000010
,
00001000
00000010
00001000
00000010
00001000
00010000
00001000
00010000
,
01000000
00010000
01000000
00010000
01000000
10000000
01000000
10000000
,
10000000
01000000
10000000
01000000
00100000
00010000
00100000
00010000
,
00001000
00000100
00001000
00000100
00000010
00000001
00000010
00000001
,
00001000
00000010
00001000
00000010
00010000
00001000
00010000
00001000
,
00100000
00010000
00100000
00010000
10000000
00100000
10000000
00100000
,
00100000
10000000
01000000
00010000
00001000
00000010
00000001
00000100
,
00001000
00010000
00100000
10000000
01000000
00010000
00001000
00000010
,
00000001
00000100
00001000
00010000
00001000
00010000
01000000
10000000
,
00100000
00010000
00001000
00010000
00001000
00000010
00000001
00001000
,
00001000
00000100
00000010
00001000
00010000
00100000
01000000
00010000
,
00100000
01000000
00010000
00001000
00000100
00000010
00001000
00000001
,
00000010
00001000
00010000
01000000
10000000
00100000
00010000
00001000
,
00000200
00000000
00000000
00000300
,
00000002
00000000
00000013
00001000
00010000
01000000
10000000
00010000
,
01000000
00100000
00010000
00001000
00000010
00000100
00010000
00001000
,
02000000
00000000
03100000
00010000
00001000
00010000
01000000
00100000
,
20000000
30020000
00032000
00003002
,
00000203
00000000
00000310
00001000
00010000
01000000
10000000
00100000
,
00010000
00001000
00000010
00000100
00010000
00001000
01000000
00100000
,
20000000
00000000
30100000
00010000
00001000
00000100
00000010
00001000
,
00020000
01000000
10000000
00100000
,
00032000
00000000
00003100
00000001
00000100
00001000
00010000
00100000
,
01000000
10000000
00010000
01000000
00100000
00010000
00001000
00000100
,
00000020
00000000
00000130
00000001
00001000
00000100
00000010
00001000
,
00000002
00002003
00023000
20030000
,
30200000
00000000
01300000
10000000
00100000
00010000
00001000
00000100
,
00000001
00001000
00000100
00000001
00001000
00000010
00010000
00001000
,
02000000
00000000
03100000
01000000
10000000
00010000
01000000
00100000
,
10000000
00100000
00010000
00200000
00000000
00000000
10300000
00000000
,
00010000
00000000
10000000
01000000
00000000
00100000
00010000
00000000
10000000
00100000
00000000
01000000
00010000
00000000
10000000
00000000
,
01000000
00000000
00100000
00000000
00001000
00010000
00000000
00002000
00000000
00003000
00000100
00000000
00000001
00000000
00001000
00000000
,
00000001
00000100
00000000
00000010
00001000
00000000
00001000
00010000
00000000
00010000
01000000
00000000
00100000
10000000
00010000
00000000
,
01000000
00001000
00010000
00000010
00000100
00001000
00010000
01000000
,
00100000
00010000
00000000
10000000
00100000
00000000
01000000
00010000
00000000
10000000
01000000
00000000
00100000
00010000
00000000
00010000
,
00100000
00010000
00100000
00000000
00001000
00010000
00000000
00002000
00000000
00003000
00000100
00000000
00000001
00000000
00001000
00000000
,
00000001
00000010
00000000
00000100
00001000
00000000
00001000
00010000
00000000
00010000
00100000
00000000
01000000
10000000
00010000
00000000
,
00100000
00000000
00001000
00000000
00010000
00000000
00000100
00000000
00000010
00000000
00001000
00000000
00010000
00001000
00010000
00000000
,
00002000
00000000
00000000
00000000
,
00000000
00000000
00000000
00000000
,
00000000
00000000
00000000
00000000
,
00000000
00000000
00003000
00000000
,
00000000
00000000
00000000
00000000
;
#NOTES:
     dance-double:
     :
     Challenge:
     17:
     :
00000000
00000000
00000000
00000000
,
00000000
00000000
00000000
00000000
,
00000000
00000000
00000000
00000000
,
00000000
00000000
00000000
00000000
,
00000000
00000000
00000000
00000000
,
00000000
00000000
00000000
00000000
,
00000000
00000000
00000000
00000000
,
00010000
00001000
00010000
00001000
00010000
00001000
00000100
00000010
,
00001000
00000001
00000010
00000100
00000010
00000100
00001000
00000001
,
00000100
00000010
00010000
00001000
00100000
01000000
10000000
00010000
,
02000000
00000000
00000000
03100000
,
10000000
00000000
00010000
00100000
00010000
00000000
00100000
00001000
00100000
00000000
00001000
00010000
00001000
00000000
00010000
00000000
,
00000100
00000000
00001000
00000100
00001000
00000000
00000100
00000010
00000100
00000000
00000010
00000001
00000010
00000000
00000001
00000000
,
00001000
00000010
00000100
00010000
00001000
00000010
00010000
00001000
,
00100000
01000000
00001000
00010000
00100000
00010000
10000000
00100000
,
10000000
00000000
00010000
01000000
00010000
00000000
01000000
00001000
01000000
00000000
00001000
00010000
00001000
00000000
00010000
00000000
,
00000010
00000000
00001000
00000010
00001000
00000000
00000010
00000100
00000010
00000000
00000100
00000001
00000100
00000000
00000001
00000000
,
00001000
00000100
00000010
00010000
00001000
01000000
00100000
00010000
,
20000000
00000000
30000000
10010000
,
10000000
00000000
00100000
00010000
00000000
00010000
00001000
00000000
00001000
00000100
00000000
00000100
00000001
00000000
00000001
00000000
,
00001000
00000010
00000100
00000001
00001000
00000010
00000000
00000020
00000000
00000030
00010000
00000000
00001000
00000000
00010000
00000000
,
00100000
10000000
00000000
00100000
00010000
00000000
00001000
00010000
00000000
00001000
00000010
00000000
00000001
00000010
00000100
00001000
,
00000001
00000000
00000100
00000010
00000000
00001000
00000100
00000010
00000000
00000100
00001000
00000100
00010000
00001000
01000000
00010000
,
10000000
01000000
00000000
01000000
00010000
00000000
00010000
00001000
00000000
00001000
00000010
00000000
00000010
00000001
00000000
00000001
,
00001000
00000010
00000100
00000001
00001000
00000010
00000000
00000020
00000000
00000030
00010000
00000000
00001000
00000000
00010000
00000000
,
01000000
10000000
00000000
01000000
00010000
00000000
00001000
00010000
00000000
00001000
00000100
00000000
00000001
00000100
00000010
00001000
,
00000001
00000000
00000010
00000100
00000000
00001000
00000010
00000100
00000000
00000010
00001000
00000010
00010000
00001000
00100000
00010000
,
20000000
00000000
00000000
00000000
,
00000000
00000000
00000000
00000000
,
30020000
00000000
00000000
00000000
,
00000000
00000000
00000000
00000000
,
00032000
00000000
00000000
00000000
,
00000000
00000000
00000000
00000000
,
00003002
00000000
00000000
00000000
,
00000003
00000000
00000000
00000000
00000000
00000000
00002002
00003003
,
00000001
00000010
00002000
00003000
00010000
00100000
20000000
30000000
,
11000000
00000000
01000000
00020000
00000000
00000000
00031000
00000000
,
00000010
00001000
00020000
00030000
00100000
00010000
00002000
00003000
,
00000010
00000000
00000001
00002000
00000000
00000000
00003000
00000000
,
00000001
00000100
00002000
00003000
00010000
01000000
20000000
30000000
,
10100000
00000000
00100000
00020000
00000000
00000000
00031000
00000000
,
00000100
00001000
00020000
00030000
01000000
00010000
00002000
00003000
,
00000100
00000000
00000001
00002000
00000000
00000000
00003001
00000000
,
00001000
00000001
00001000
00000000
00001000
00000001
00001000
00000000
00000010
00010000
00000010
00000000
00000010
00010000
00000010
00000000
,
00010000
00001000
00010000
00000000
00010000
00001000
00010000
00000000
00001000
00100000
00001000
00000000
00002000
00000000
00003000
00000000
,
00100000
00010000
00100000
00000000
00100000
00010000
00100000
00000000
00010000
10000000
00010000
00000000
00010000
10000000
00010000
00000000
,
01000000
00010000
01000000
00000000
01000000
00010000
01000000
00000000
00100000
10000000
00100000
00000000
00200000
00000000
00300000
00000000
,
01000000
00010000
10000000
00000000
10000000
00010000
01000000
00000000
00001000
00010000
00000100
00000000
00000100
00010000
00001000
00000000
,
00010000
00000010
00001000
00000000
00001000
00000010
00010000
00000000
00000010
00001000
00000001
00000000
00000002
00000000
00000003
00000000
,
00001000
00000010
00010000
00000000
00010000
00000010
00001000
00000000
00000010
00010000
00001000
00000000
00001000
00010000
00000010
00000000
,
00010000
00001000
00100000
00000000
00100000
00001000
00010000
00000000
00001000
00100000
00010000
00000000
00020000
00000000
00030000
00000000
,
01000000
00100000
10000000
00000000
01000000
00100000
10000000
00000000
00100000
01000000
10000000
00000000
00100000
01000000
10000000
00000000
,
00010000
00100000
01000000
00000000
00010000
00100000
01000000
00000000
00100000
00001000
00010000
00000000
00200000
00000000
00300000
00000000
,
00001000
00010000
00000100
00000000
00001000
00010000
00000100
00000000
00001000
00010000
00100000
00000000
00001000
00010000
00100000
00000000
,
00001000
00010000
01000000
00000000
00001000
00010000
01000000
00000000
00010000
01000000
00100000
00000000
00020000
00000000
00030000
00000000
,
01000000
00001000
00010000
00000000
01000000
00001000
00010000
00000000
00000010
00001000
00010000
00000000
00000010
00001000
00010000
00000000
,
00001000
00000010
00010000
00000000
00001000
00000010
00010000
00000000
00001000
00000100
00010000
00000000
00002000
00000000
00003000
00000000
,
00000100
00000010
00001000
00000000
00000100
00000010
00001000
00000000
00000001
00000100
00000010
00000000
00000001
00000100
00000010
00000000
,
00002000
00000000
00000000
00003000
,
00000001
00000000
00000010
00000100
00001000
00000000
00000100
00010000
00001000
00000000
00010000
00001000
00100000
00010000
10000000
01000000
,
00100000
00001000
00000010
00001000
00100000
00001000
00000010
00001000
,
00100000
00000000
01000000
00100000
00010000
00000000
00100000
00001000
00010000
00000000
00001000
00010000
00000100
00001000
00000001
00000010
,
00000100
00010000
01000000
00000000
00100000
00001000
00000010
00000000
,
00000100
00000000
00000010
00000100
00001000
00000000
00000100
00010000
00001000
00000000
00010000
00001000
01000000
00010000
10000000
00100000
,
01000000
00001000
00000100
00001000
01000000
00001000
00000100
00001000
,
01000000
00000000
00100000
01000000
00010000
00000000
01000000
00001000
00010000
00000000
00001000
00010000
00000010
00001000
00000001
00000100
,
00000010
00001000
00100000
00000000
01000000
00010000
00000100
00000000
,
00000010
00000000
00000100
00000001
00001000
00000000
00000100
00010000
00001000
00000000
01000000
00010000
10000000
01000000
00100000
00001000
,
00010000
00000100
00000001
00000100
00010000
00000100
00000001
00000100
,
00010000
00000000
00001000
00010000
00000100
00000000
00001000
00000001
00000100
00000000
00000001
00001000
00000100
00010000
00001000
01000000
,
00100000
00010000
00000010
00001000
00000100
00010000
01000000
10000000
,
00100000
00000000
01000000
00100000
10000000
00000000
01000000
00100000
00010000
00000000
10000000
00100000
01000000
00010000
00100000
00001000
,
00010000
00000010
00000001
00000010
00010000
00000010
00000001
00000010
,
00010000
00000000
00000010
00001000
00000100
00000000
00000010
00000001
00000100
00000000
00000010
00001000
00000100
00010000
00001000
01000000
,
00010000
00000000
00100000
00001000
00010000
00000100
00001000
00000001
00000200
00000000
00000000
00000000
00000000
00000000
00000000
00000000
,
00000301
00000000
00000010
00001000
00000000
00001000
00010000
00000000
00010000
01000000
00000000
01000000
10000000
00000000
10000000
00000000
,
01000000
00010000
00001000
00000000
01000000
00100000
00000000
00200000
00000000
00300000
00010000
00000000
00001000
00000000
00010000
00000000
,
00100000
10000000
00000000
00100000
00010000
00000000
00001000
00010000
00000000
00001000
00000010
00000000
00000001
00000010
00000100
00001000
,
00000001
00000000
00001000
00000100
00000000
00010000
00001000
01000000
00000000
00010000
00100000
00001000
00010000
00000010
00001000
00000000
,
00000001
00000100
00000000
00000100
00001000
00000000
00001000
00010000
00000000
00010000
00100000
00000000
00100000
10000000
00000000
10000000
,
00100000
00010000
00001000
00000000
00100000
01000000
00000000
02000000
00000000
03000000
00010000
00000000
00001000
00000000
00010000
00000000
,
01000000
10000000
00000000
01000000
00010000
00000000
00001000
00010000
00000000
00001000
00000100
00000000
00000001
00000100
00000010
00001000
,
00000001
00000000
00001000
00000010
00000000
00010000
00001000
00100000
00000000
00010000
01000000
00001000
00010000
00000100
00001000
00000000
,
00000002
00000000
00000000
00000000
,
00000000
00000000
00000000
00000000
,
00000000
00000000
00000000
00000000
,
00000000
00000000
00000003
00000000
,
00000000
00000000
00000000
00000000
;
