
//----- song ID: sifl -----//
#TITLE:Silent Flame,Never Fade;
#ARTIST:不知火フレア;
#ARTISTTRANSLIT:Flare Shiranui;
#BANNER:Silent Flame,Never Fade.png;
#BACKGROUND:Silent Flame,Never Fade-bg.png;
#CDTITLE:./CDTitles/pnm High Cheers!!.png;
#MUSIC:Silent Flame,Never Fade.ogg;
#SAMPLESTART:75.529;
#SAMPLELENGTH:15;
#BPMS:0=145;
#NOTES:
     dance-single:
     :
     Beginner:
     2:
     :
0000
0000
0000
0000
,
0000
0000
0000
0000
,
0000
0000
0000
0000
,
0000
0000
0000
0000
,
0000
0000
0000
0000
,
0001
0000
0000
0000
,
0001
0000
0000
0000
,
1000
0000
0000
0000
,
1000
0000
0000
0000
,
0001
0000
0000
0000
,
0000
0000
0000
0000
,
0001
0000
0000
0000
,
0001
0000
0000
0000
,
0010
0000
0000
0000
,
0000
0000
0000
0000
,
1000
0000
0000
0000
,
1000
0000
0000
0000
,
0010
0000
0000
0000
,
0000
0000
0000
0000
,
0001
0000
0000
0000
,
0000
0000
0000
0000
,
0001
0000
0000
0000
,
0000
0000
0000
0000
,
1000
0000
0000
0000
,
0000
0000
0000
0000
,
1000
0000
0000
0000
,
0000
0000
0000
0000
,
0001
0000
0000
0000
,
0001
0000
0000
0000
,
0001
0000
0000
0000
,
0000
0000
0000
0000
,
0010
0000
0000
0000
,
0010
0000
0000
0000
,
0010
0000
0000
0000
,
0000
0000
0000
0000
,
0001
0000
0001
0000
,
0001
0000
0000
0000
,
0001
0000
0000
0000
,
0000
0000
0000
0000
,
1000
0000
1000
0000
,
1000
0000
0000
0000
,
1000
0000
0000
0000
,
0000
0000
0000
0000
,
0010
0000
0000
0000
,
0010
0000
0000
0000
,
0000
0000
0000
0000
,
1001
0000
0000
0000
,
0001
0000
0000
0000
,
0010
0000
0000
0000
,
0001
0000
0000
0000
,
0002
0000
0003
0000
,
0000
0000
0000
0000
,
2000
0000
3000
0000
,
0000
0000
0000
0000
,
1001
0000
0000
0000
,
1000
0000
0000
0000
,
0010
0000
0000
0000
,
1000
0000
0000
0000
,
2000
0000
3000
0000
,
0000
0000
0000
0000
,
0002
0000
0003
0000
,
0000
0000
0000
0000
,
0010
0000
0000
0000
,
0010
0000
0000
0000
,
0001
0000
0001
0000
,
0001
0000
0000
0000
,
0010
0000
0000
0000
,
0010
0000
0000
0000
,
1000
0000
1000
0000
,
1000
0000
0000
0000
,
0010
0000
0000
0000
,
0010
0000
0000
0000
,
0001
0000
0001
0000
,
0010
0000
0000
0000
,
1001
0000
0000
0000
,
0000
0000
0000
0000
;
#NOTES:
     dance-single:
     :
     Easy:
     6:
     :
0000
0000
0000
0000
,
0000
0000
0000
0000
,
0000
0000
0000
0000
,
0000
0000
0000
0000
,
0000
0000
0000
0000
,
1000
0000
1000
0000
,
0100
0100
0100
0000
,
0010
0000
0010
0000
,
0001
0000
0001
0000
,
2000
0000
0000
3000
,
0002
0000
0000
0003
,
0001
1000
0001
1000
,
0010
0100
0010
0000
,
1000
0001
1000
0001
,
0010
0100
0010
0000
,
0001
0010
0001
0010
,
0100
0100
1000
0000
,
1000
0010
1000
0010
,
0100
0100
0001
0000
,
0002
0000
0000
0003
,
0020
0000
0000
0030
,
0002
0000
0000
0003
,
0200
0000
0000
0300
,
0001
0100
0001
0000
,
1000
0100
1000
0000
,
0001
0010
0001
0000
,
1000
0010
1000
0000
,
0001
0010
0001
1000
,
0001
0010
0001
0000
,
1000
0010
1000
0001
,
1000
0010
1000
0000
,
0001
0100
0010
1000
,
0001
0100
0010
0000
,
1000
0100
0010
0001
,
1000
0100
0010
0000
,
0002
0000
0000
0003
,
0001
0001
0001
0000
,
2000
0000
0000
3000
,
1000
1000
1000
0000
,
0020
0000
0000
0030
,
0010
0010
0010
0000
,
0200
0000
0000
0300
,
0100
0100
0100
0000
,
0110
0000
1001
0000
,
1000
0100
0010
0000
,
1001
0000
0000
0000
,
0001
0010
0001
1000
,
0010
0010
0010
0000
,
1000
0010
1000
0001
,
0010
0010
0010
0000
,
0001
0010
1000
0000
,
1000
0010
0001
0000
,
1000
0010
0001
0000
,
0001
0010
1000
0000
,
1000
0100
1000
0001
,
0100
0100
0100
0000
,
0001
0100
0001
1000
,
0100
0100
0100
0000
,
1000
0100
0001
0000
,
0001
0100
1000
0000
,
0001
0100
1000
0000
,
1000
0100
0001
0000
,
1001
0000
0110
0000
,
1001
0000
0000
0000
,
1000
0100
0010
0001
,
0100
0010
1000
0000
,
0001
0100
0010
1000
,
0100
0010
0001
0000
,
1000
1000
0010
0010
,
0100
0001
0100
0000
,
0001
0001
0010
0010
,
0100
1000
0100
0000
,
2002
0000
0000
3003
,
1000
0100
0010
0001
,
0000
0000
0000
0000
;
#NOTES:
     dance-single:
     :
     Medium:
     11:
     :
0000
0000
0000
0000
,
0000
0000
0000
0000
,
0000
0000
0000
0000
,
0000
0000
0000
0000
,
0000
0000
0000
0000
,
2000
0000
0000
3000
,
0002
0000
0000
0003
,
0200
0000
0000
0300
,
0020
0000
0000
0030
,
0110
0000
0000
0000
,
1001
0000
0000
0000
,
1000
0000
0000
0010
0000
0000
1000
0000
0000
0010
0000
0000
1000
0000
0000
0000
,
0001
0000
0000
0100
0000
0000
0001
0000
0000
0100
0000
0000
0001
0000
0000
0000
,
0010
0000
0000
0001
0000
0000
0010
0000
0000
0001
0000
0000
0010
0000
0000
0000
,
0100
0000
0000
1000
0000
0000
0100
0000
0000
1000
0000
0000
0100
0000
0000
0000
,
1000
0000
0000
0010
0000
0000
0100
0000
0000
0010
0000
0000
1000
0000
0000
0000
,
0001
0000
0000
0010
0000
0000
0100
0000
0000
0010
0000
0000
0001
0000
0000
0000
,
1000
0000
0000
0100
0000
0000
0010
0000
0000
0100
0000
0000
1000
0000
0000
0000
,
0001
0000
0000
0100
0000
0000
0010
0000
0000
0100
0000
0000
0001
0000
0000
0000
,
1000
0100
1000
0100
1000
0010
1000
0000
,
0001
0100
0001
0100
0001
0010
0001
0000
,
1000
0010
0100
0010
1000
0010
0100
0000
,
0001
0010
0100
0010
0001
0010
0100
0000
,
2000
0000
3200
0000
0310
0001
0100
0000
,
0002
0000
0203
0000
0310
1000
0100
0000
,
1000
0000
0100
0000
0001
0100
1000
0000
,
0001
0000
0100
0000
1000
0100
0001
0000
,
1000
0010
0100
0001
1000
0100
0010
0000
,
0001
0010
0001
0100
0010
1000
0100
0000
,
1000
0001
0100
0001
0010
0100
0010
0000
,
0001
0100
0010
1000
0100
0010
0001
0000
,
1000
0100
0001
0100
1000
0001
1000
0000
,
0001
0100
1000
0100
0001
1000
0001
0000
,
1000
0010
0100
0000
0001
0010
0100
0000
,
1000
0001
0100
0010
1000
0001
1000
0000
,
0001
0000
0000
0100
0000
0000
0010
0000
0000
0000
0100
0000
0001
0000
0000
0000
,
1000
0000
0000
0100
0000
0000
0010
0000
0001
0000
0000
0000
1000
0000
0000
0000
,
0010
0000
0000
0100
0000
0000
0001
0000
0000
0000
0010
0000
0100
0000
0000
0000
,
1000
0000
0000
0100
0000
0000
0010
0000
0001
0000
0000
0000
0000
0000
0000
0000
,
1000
0000
0000
0001
0000
0000
1000
0000
0000
0000
0010
0000
0100
0000
0000
0000
,
0001
0000
0000
1000
0000
0000
0001
0000
0000
0000
0010
0000
0100
0000
0000
0000
,
1000
0000
0000
0010
0000
0000
0100
0000
0001
0000
0000
0010
0000
0000
0100
0000
,
1000
0000
0000
0100
0000
0000
0010
0000
0001
0000
0000
0000
0000
0000
0000
0000
,
0001
0000
0000
0100
0000
0000
0010
0000
1000
0000
0000
0000
0000
0000
0000
0000
,
1000
0000
0000
0100
0000
0000
0100
0000
0010
0000
0000
0001
0000
0000
0001
0000
,
1000
0000
0000
0001
0000
0000
1001
0000
0000
0000
0000
0000
0000
0000
0000
0000
,
0001
0010
0001
1000
0010
1000
0100
1000
,
0010
0100
0001
0010
0100
0000
1001
0000
,
1000
0010
1000
0001
0010
0001
0100
0001
,
0010
0100
1000
0010
0100
0000
1001
0000
,
0001
0010
1000
0000
1000
0010
0001
0000
,
1000
0010
0001
0010
1000
0000
0001
0000
,
1000
0010
0100
0001
1000
0010
0100
0001
,
1000
0000
0000
0001
0000
0000
1000
0000
0001
0000
0000
0000
0000
0000
0000
0000
,
1000
0100
1000
0001
0100
0001
0010
0001
,
0100
0010
1000
0100
0010
0000
1001
0000
,
0001
0100
0001
1000
0100
1000
0010
1000
,
0100
0010
0001
0100
0010
0000
1001
0000
,
1000
0100
0001
0000
0001
0100
1000
0000
,
0001
0100
1000
0100
0001
0000
1000
0000
,
0001
0100
0010
1000
0001
0100
0010
1000
,
0001
0000
0000
1000
0000
0000
0001
0000
0100
0000
0000
0010
0000
0000
0100
0000
,
0010
0000
0000
0000
0000
0000
0000
0000
1000
0000
0000
0100
0000
0000
0010
0000
,
0002
0000
0000
0003
,
1000
0000
0000
0001
0000
0000
1000
0000
0010
0000
0000
0100
0000
0000
0010
0000
,
1000
0000
0000
0010
0000
0000
0100
0000
0001
0000
0000
0000
0000
0000
0000
0000
,
1000
0000
0000
0100
0000
0000
0010
0000
0100
0000
0000
1000
0000
0000
0001
0000
,
0100
0000
0000
0010
0000
0000
1000
0000
0001
0000
0000
0000
0000
0000
0000
0000
,
2000
3200
0320
0032
,
0103
0010
0100
0010
1000
0000
0000
0000
,
0002
0203
0320
0030
,
2000
3200
0320
0030
,
2002
0000
0000
3003
,
0001
0000
0000
0010
0000
0000
0100
0000
1000
0000
0001
0000
1000
0000
0001
0000
,
0000
0000
0000
0000
;
#NOTES:
     dance-single:
     :
     Hard:
     14:
     :
0000
0000
0000
0000
,
0000
0000
0000
0000
,
0000
0000
0000
0000
,
0000
0000
0000
0000
,
0000
0000
0000
0000
,
2000
0000
0000
0000
,
3200
0000
0000
0000
,
0320
0000
0000
0000
,
0032
0000
0000
0000
,
2000
0000
0000
0000
,
0000
0000
0000
3003
,
1000
0000
0010
1000
0000
0010
1000
0000
0001
0100
0000
0001
0100
0000
0001
1000
,
0001
0000
1000
0100
0000
1000
0100
0000
0010
0001
0000
0010
0001
0000
0000
0000
,
1000
0000
0001
0100
0000
0010
0100
0000
0001
0010
0000
0100
0010
0000
0001
1000
,
0001
0000
0100
0010
0000
0100
0001
0000
0100
0010
0000
0100
0001
0000
0000
0000
,
1000
0000
0010
1000
0000
0010
1000
0000
0001
0100
0000
0001
0100
0000
0001
1000
,
0001
0000
1000
0100
0000
1000
0100
0000
0010
0001
0000
0010
0001
0000
0000
0000
,
1000
0000
0001
0100
0000
0010
0100
0000
0001
0010
0000
0100
0010
0000
0001
0100
,
0001
0000
0000
0101
0000
0000
0110
0000
0000
1010
0000
0000
1001
0000
0000
0000
,
0001
1000
0100
1000
0001
0010
0100
1000
,
0001
0100
0010
1000
0001
0100
0010
0000
,
1000
0001
0100
0001
1000
0010
0100
0001
,
1000
0100
0010
0001
1000
0100
0010
0000
,
0001
0010
0100
1000
0010
0100
0001
0000
,
1000
0100
0010
0001
0100
0010
1000
0000
,
0001
0100
1000
0000
1000
0100
0001
0000
,
1000
0100
0001
0100
1000
1000
1000
1000
,
0001
0000
0100
0010
0000
1000
0001
0000
0100
0010
0000
1000
0001
0000
1000
0100
,
0010
0000
0001
1000
0000
0100
0010
0000
0001
1000
0000
0100
0010
0000
0000
0000
,
0100
0000
1000
0001
0000
0100
0010
0000
0100
0001
0000
1000
0100
0000
0010
0001
,
1000
0000
0100
0010
0000
0001
0100
0000
0010
0100
0000
0001
0010
0000
0000
0000
,
0001
0000
0010
0100
0000
1000
0001
0000
0010
0100
0000
1000
0001
0000
1000
0010
,
0100
0000
0001
1000
0000
0010
0100
0000
0001
1000
0000
0010
0100
0000
0001
0100
,
0010
0000
1000
0001
0000
0010
0100
0000
0010
0001
0000
1000
0010
0000
0100
0001
,
1000
0000
0010
0100
0000
0001
0010
0000
0100
0000
0100
0000
1000
0000
1000
0000
,
0001
0000
0000
0101
0000
0000
0110
0000
0000
0000
0100
0000
0001
0000
0010
0000
,
0100
0000
0000
1100
0000
0000
1000
0000
0001
0000
0000
0000
0001
0000
0010
0000
,
0100
0000
0000
0110
0000
0000
0011
0000
0000
0000
0001
0000
0100
0000
0010
0000
,
1000
0000
0100
0010
0000
0000
1000
0000
0020
0000
0000
0000
0030
0000
0010
0000
,
0001
0000
1000
0001
0000
1000
0001
0000
0000
0000
0001
0000
0010
0000
0100
0000
,
1000
0000
0010
0100
0000
0010
0100
0000
0000
0000
0100
0000
0001
0000
0010
0000
,
0100
0000
1000
0010
0000
1000
0010
0000
0100
0000
0001
0100
0000
0001
0100
0000
,
0001
0000
0000
0011
0000
0000
0010
0000
1001
0000
0000
0000
0000
0000
1000
0000
,
0010
0000
0000
1010
0000
0000
0010
0000
1001
0000
0000
0000
0000
0000
1000
0100
,
0010
0000
0000
1001
0000
0000
0001
0100
0010
0000
0000
1001
0000
0000
1000
0010
,
0100
0000
0000
0110
0000
0000
1001
0000
0000
0000
0000
0000
0000
0000
0000
0000
,
1000
0000
0100
0010
0000
0001
0010
0000
0001
1000
0000
0001
1000
0000
0001
0100
,
0010
0000
1000
0010
0000
1000
0100
0000
0010
0100
0000
0010
0100
0000
0010
0001
,
1000
0000
0010
0100
0000
0001
0100
0000
0010
0000
1000
0100
0000
0010
0100
0000
,
1000
0000
0001
0100
0000
0010
1000
0000
0001
0000
0010
0000
0100
0000
1000
0000
,
0001
0000
0010
1000
0000
0010
0001
0000
0010
1000
0000
0010
0001
0000
1000
0100
,
0010
0000
0001
0100
0000
1000
0100
0000
0001
0100
0000
1000
0100
0000
0001
0100
,
0010
0000
1000
0010
0000
1000
0010
0000
0000
0000
1000
0001
1000
0000
0001
0000
,
1000
0000
0100
0010
0000
0100
0010
0000
0001
1000
0000
0001
1000
0000
0000
0000
,
0001
0000
0100
0010
0000
1000
0010
0000
1000
0001
0000
1000
0001
0000
1000
0100
,
0010
0000
0001
0010
0000
0001
0100
0000
0010
0100
0000
0010
0100
0000
0010
1000
,
0001
0000
0010
0100
0000
1000
0100
0000
0010
0000
0001
0100
0000
0010
0100
0000
,
0001
0000
1000
0100
0000
0010
0001
0000
1000
0000
0010
0000
0100
0000
0001
0000
,
1000
0000
0010
0001
0000
0010
1000
0000
0010
0001
0000
0010
1000
0000
0001
0100
,
0010
0000
1000
0100
0000
0001
0100
0000
1000
0100
0000
0001
0100
0000
1000
0100
,
0010
0000
0001
0010
0000
0001
0010
0000
0002
0000
0000
0000
0003
0000
0100
0000
,
0010
0000
1000
0010
0000
1000
0010
0000
2000
0000
0000
0000
3000
0000
0000
0000
,
0001
0000
0100
0010
0000
1000
0001
0000
0010
0100
0000
1000
0001
0000
1000
0000
,
2002
0000
0000
3003
,
1000
0000
0100
1000
0000
0100
1000
0000
0001
0000
0100
0001
0000
0100
0001
0000
,
1000
0000
0010
1000
0000
0010
1000
0000
0001
0010
0000
0001
0010
0000
0001
1000
,
0001
0000
1000
0010
0000
0100
0010
0000
1000
0000
0001
0010
0000
0100
0010
0000
,
0001
0000
0100
0010
0000
1000
0001
0000
0100
0010
0000
1000
0001
0000
1000
0100
,
0020
0032
0203
0320
0032
0023
0230
0302
,
1003
0100
1000
0100
0010
0000
0001
0000
2000
0000
0000
0000
3000
0000
1000
0001
,
2000
0000
0000
0000
3020
0000
0000
0000
0230
0000
0000
0000
0300
0000
0001
1000
,
0002
0000
0000
0000
0013
0000
0100
0000
1000
0000
0000
0001
0000
0000
0100
0000
,
0020
0000
0000
0030
,
1000
0000
0001
1000
0000
0001
1000
0000
0010
0100
0010
0000
0100
0010
0100
0000
,
0000
0000
0000
0000
;
#NOTES:
     dance-double:
     :
     Easy:
     5:
     :
00000000
00000000
00000000
00000000
,
00000000
00000000
00000000
00000000
,
00000000
00000000
00000000
00000000
,
00000000
00000000
00000000
00000000
,
00000000
00000000
00000000
00000000
,
00001000
00000000
00010000
00000000
,
00001000
00010000
00001000
00000000
,
01000000
00000000
01000000
00000000
,
00010000
00000000
00010000
00000000
,
20000000
00000000
00000000
30000000
,
00020000
00000000
00000000
00030000
,
10000000
00010000
10000000
00010000
,
00100000
01000000
00100000
00000000
,
01000000
00100000
01000000
00100000
,
00010000
00100000
00001000
00000000
,
00010000
00001000
00010000
00001000
,
00010000
00000010
00010000
00000000
,
00000010
00001000
00000010
00001000
,
00000010
00000100
00000010
00000000
,
00002000
00000000
00000000
00003000
,
00000002
00000000
00000000
00000003
,
00000020
00000000
00000000
00000030
,
00000200
00000000
00000000
00000300
,
00001000
00000000
00000100
00000000
,
00010000
00001000
00010000
00000000
,
00001000
00000000
01000000
00000000
,
00010000
01000000
00010000
00000000
,
01000000
00100000
01000000
00100000
,
10000000
00010000
10000000
00000000
,
01000000
10000000
01000000
10000000
,
00010000
00100000
00010000
00000000
,
00100000
00010000
00100000
00001000
,
00010000
00001000
00010000
00000000
,
00001000
00010000
00000010
00010000
,
00000010
00001000
00000010
00000000
,
00002000
00000000
00000000
00003000
,
00000001
00001000
00000001
00000000
,
00002000
00000000
00000000
00003000
,
00000100
00010000
00001000
00000000
,
00002000
00000000
00000000
00003000
,
00010000
00001000
01000000
00000000
,
00020000
00000000
00000000
00030000
,
01000000
00100000
01000000
00000000
,
01100000
00000000
10010000
00000000
,
10000000
01000000
00100000
00000000
,
01100000
00000000
00000000
00000000
,
10000000
01000000
00100000
00010000
,
00100000
00001000
00010000
00000000
,
00001000
00010000
00000100
00001000
,
00000100
00000010
00000001
00000000
,
00001000
00000001
00000100
00000000
,
00001000
00000000
00010000
00000000
,
00100000
10000000
00010000
00000000
,
00100000
01000000
10000000
00000000
,
10000000
00100000
01000000
00010000
,
01000000
00001000
00010000
00000000
,
00001000
00010000
00000010
00001000
,
00000010
00000100
00000001
00000000
,
00001000
00000001
00000010
00000000
,
00001000
00000000
00010000
00000000
,
01000000
10000000
00010000
00000000
,
01000000
00100000
10000000
00000000
,
01000000
00010000
00001000
00010000
,
00001000
00000000
00000000
00000000
,
00010000
00001000
00010000
00000100
,
00001000
00000010
00000100
00000000
,
00000001
00000010
00000100
00001000
,
00000010
00000100
00000010
00000000
,
00000100
00001000
00010000
00000000
,
00100000
01000000
00100000
00000000
,
10000000
01000000
00010000
00000000
,
00001000
00000010
00000001
00000000
,
00002002
00000000
00000000
00003003
,
00001000
00000001
00001000
00000001
,
00000000
00000000
00000000
00000000
;
#NOTES:
     dance-double:
     :
     Medium:
     11:
     :
00000000
00000000
00000000
00000000
,
00000000
00000000
00000000
00000000
,
00000000
00000000
00000000
00000000
,
00000000
00000000
00000000
00000000
,
00000000
00000000
00000000
00000000
,
00002000
00000000
00000000
00003000
,
00020000
00000000
00000000
00030000
,
00200000
00000000
00000000
00300000
,
20000000
00000000
00000000
30000000
,
00010000
00000000
10000000
00000000
,
10010000
00000000
00000000
00000000
,
10000000
00000000
00000000
01000000
00000000
00000000
10000000
00000000
00000000
01000000
00000000
00000000
00100000
00000000
00000000
00000000
,
00010000
00000000
00000000
00100000
00000000
00000000
00010000
00000000
00000000
00100000
00000000
00000000
00001000
00000000
00000000
00000000
,
00010000
00000000
00000000
00001000
00000000
00000000
00010000
00000000
00000000
00000100
00000000
00000000
00001000
00000000
00000000
00000000
,
00000100
00000000
00000000
00000010
00000000
00000000
00000100
00000000
00000000
00000010
00000000
00000000
00000001
00000000
00000000
00000000
,
00000001
00000000
00000000
00000100
00000000
00000000
00000001
00000000
00000000
00000100
00000000
00000000
00000010
00000000
00000000
00000000
,
00001000
00000000
00000000
00000010
00000000
00000000
00001000
00000000
00000000
00000010
00000000
00000000
00010000
00000000
00000000
00000000
,
00001000
00000000
00000000
00010000
00000000
00000000
00001000
00000000
00000000
01000000
00000000
00000000
00010000
00000000
00000000
00000000
,
01000000
00000000
00000000
00100000
00000000
00000000
01000000
00000000
00000000
00100000
00000000
00000000
10000000
00000000
00000000
00000000
,
00010000
10000000
00010000
10000000
01000000
10000000
01000000
00000000
,
00100000
00010000
00100000
00010000
00100000
00001000
00100000
00000000
,
00001000
00010000
00001000
00010000
00000100
00010000
00000100
00000000
,
00001000
00000100
00001000
00000100
00000010
00000001
00000010
00000000
,
00000001
00001000
00000001
00000000
00000100
00000010
00000100
00000000
,
00000010
00010000
00000010
00000000
00010000
00001000
00010000
00000000
,
00001000
01000000
00001000
00000000
01000000
00010000
01000000
00000000
,
00100000
10000000
00100000
00000000
10000000
00000000
10010000
00000000
,
10000000
01000000
00100000
00010000
00100000
01000000
10000000
00000000
,
00010000
01000000
00001000
00010000
00000010
00001000
00000010
00000000
,
00001000
00000100
00000010
00000001
00000010
00000100
00001000
00000000
,
00000100
00010000
00001000
00010000
00001000
00100000
00010000
00000000
,
10000000
01000000
00100000
00000000
00010000
01000000
00100000
00000000
,
10000000
01000000
00010000
00000000
00001000
00000010
00000001
00000000
,
00001000
00000100
00000010
00000000
00000001
00000100
00000010
00000000
,
00001000
00000100
00000001
00000100
00001000
00000000
00001001
00000000
,
00000001
00000000
00000000
00000100
00000000
00000000
00000010
00000000
00000000
00000000
00001000
00000000
00000010
00000000
00000000
00000000
,
00010000
00000000
00000000
00001000
00000000
00000000
00010000
00000000
00001000
00000000
00000000
00000000
00011000
00000000
00000000
00000000
,
00010000
00000000
00000000
00001000
00000000
00000000
01000000
00000000
00000000
00000000
00010000
00000000
01000000
00000000
00000000
00000000
,
00100000
00000000
00000000
10000000
00000000
00000000
00010000
00000000
10000000
00000000
00000000
00000000
00000000
00000000
00000000
00000000
,
00010000
00000000
00000000
00100000
00000000
00000000
00010000
00000000
00000000
00000000
01000000
00000000
00010000
00000000
00000000
00000000
,
01000000
00000000
00000000
00001000
00000000
00000000
00010000
00000000
00000000
00000000
00001000
00000000
00010000
00000000
00000000
00000000
,
00001000
00000000
00000000
00010000
00000000
00000000
00000100
00000000
00001000
00000000
00000000
00000010
00000000
00000000
00000100
00000000
,
00000001
00000000
00000000
00000010
00000000
00000000
00000100
00000000
00001000
00000000
00000000
00000000
00000000
00000000
00000000
00000000
,
00000100
00000000
00000000
00010000
00000000
00000000
00001000
00000000
00100000
00000000
00000000
00000000
00000000
00000000
00000000
00000000
,
00010000
00000000
00000000
01000000
00000000
00000000
00100000
00000000
10000000
00000000
00000000
01000000
00000000
00000000
00100000
00000000
,
00010000
00000000
00000000
10000000
00000000
00000000
10010000
00000000
00000000
00000000
00000000
00000000
00000000
00000000
00000000
00000000
,
10000000
01000000
10000000
00010000
00100000
01000000
00100000
00010000
,
00100000
00000000
00001000
00010000
00001000
00000000
00000000
00000000
,
00010000
00001000
00010000
00000010
00001000
00000100
00001000
00000010
,
00000100
00000000
00000001
00001000
00000001
00000000
00000000
00000000
,
00000001
00000010
00000100
00001000
00000000
00001000
00000100
00010000
,
00001000
00000000
00000000
01000000
00000000
00000000
00010000
00000000
01000000
00000000
00000000
00000000
00100000
00000000
00000000
00000000
,
10000000
00000000
00000000
00010000
00000000
00000000
01000000
00000000
00000000
00000000
00001000
00000000
00010000
00000000
00000010
00000000
,
00001000
00000000
00000000
00000100
00000000
00000000
00000010
00000000
00000001
00000000
00000000
00000000
00000000
00000000
00000000
00000000
,
00000001
00000100
00000001
00001000
00000010
00000100
00000010
00001000
,
00000010
00000000
00010000
00001000
00010000
00000000
00011000
00000000
,
00001000
00010000
00001000
00100000
00010000
01000000
00010000
00100000
,
01000000
00000000
10000000
00010000
10000000
00000000
10010000
00000000
,
10000000
00100000
01000000
00010000
00000000
00010000
01000000
00001000
,
00010000
00000000
00000000
00000100
00000000
00000000
00001000
00000000
00000100
00000000
00000000
00000000
00000010
00000000
00000000
00000000
,
00000001
00000000
00000000
00001000
00000000
00000000
00000100
00000000
00010000
00000000
00000000
00000000
00001000
00000000
00100000
00000000
,
00010000
00000000
00000000
01000000
00000000
00000000
00100000
00000000
10000000
00000000
00000000
01000000
00000000
00000000
00100000
00000000
,
00010000
00000000
00000000
00000000
00000000
00000000
00000000
00000000
10000000
00000000
00000000
00010000
00000000
00000000
01000000
00000000
,
00200000
00000000
00000000
00300000
,
10000000
00000000
00000000
01000000
00000000
00000000
00100000
00000000
01000000
00000000
00000000
00100000
00000000
00000000
00010000
00000000
,
00100000
00000000
00000000
00001000
00000000
00000000
00010000
00000000
00001000
00000000
00000000
00000000
00000000
00000000
00000000
00000000
,
00010000
00000000
00000000
00000010
00000000
00000000
00001000
00000000
00000010
00000000
00000000
00001000
00000000
00000000
00000001
00000000
,
00000010
00000000
00000000
00000100
00000000
00000000
00001000
00000000
00000001
00000000
00000000
00000000
00000000
00000000
00000000
00000000
,
00000002
00000203
00002300
00023000
,
00130000
10000000
00100000
10000000
00010000
00000000
00000000
00000000
,
20000000
32000000
03020000
00030000
,
00002000
00003020
00000032
00000003
,
00002002
00000000
00000000
00003003
,
00000001
00000000
00000000
00001000
00000000
00000000
00000010
00000000
00010000
00000000
00001000
00000000
00010000
00000000
00001000
00000000
,
00000000
00000000
00000000
00000000
;
#NOTES:
     dance-double:
     :
     Hard:
     14:
     :
00000000
00000000
00000000
00000000
,
00000000
00000000
00000000
00000000
,
00000000
00000000
00000000
00000000
,
00000000
00000000
00000000
00000000
,
00000000
00000000
00000000
00000000
,
00002000
00000000
00000000
00000000
,
00023000
00000000
00000000
00000000
,
00230000
00000000
00000000
00000000
,
20300000
00000000
00000000
00000000
,
00020000
00000000
00000000
00000000
,
00000000
00000000
00000000
30030000
,
10000000
00000000
01000000
00100000
00000000
01000000
00100000
00000000
00010000
00100000
00000000
00010000
00100000
00000000
00001000
00000000
,
00010000
00000000
00000100
00010000
00000000
00000100
00010000
00000000
00000100
00001000
00000000
00000100
00001000
00000000
00000100
00000000
,
00000010
00000000
00000001
00001000
00000000
00000001
00001000
00000000
00000001
00000100
00000000
00000001
00000100
00000000
00000010
00000000
,
00001000
00000000
00000010
00010000
00000000
00000010
00010000
00000000
00001000
00010000
00000000
00001000
00010000
00000000
00000000
00000000
,
00001000
00000000
01000000
00001000
00000000
01000000
00001000
00000000
01000000
00010000
00000000
01000000
00010000
00000000
01000000
00000000
,
00100000
00000000
10000000
00100000
00000000
10000000
00100000
00000000
10000000
00010000
00000000
10000000
00010000
00000000
10000000
00000000
,
01000000
00000000
00100000
00010000
00000000
00100000
00010000
00000000
00100000
00001000
00000000
00100000
00001000
00000000
00010000
00000000
,
00000100
00000000
00000000
00001100
00000000
00000000
00001000
00000000
00000000
00001001
00000000
00000000
00000011
00000000
00000000
00000000
,
00000001
00000010
00000100
00001000
00000010
00000100
00000001
00000000
,
00000100
00000001
00000100
00001000
00010000
00100000
10000000
00000000
,
00100000
10000000
01000000
00100000
00010000
01000000
00100000
00000000
,
10000000
01000000
00010000
01000000
00010000
00001000
00000010
00000000
,
00000001
00000010
00001000
00000010
00000001
00000100
00000010
00000000
,
00001000
00000010
00010000
00001000
01000000
00010000
10000000
00000000
,
00010000
01000000
10000000
01000000
00010000
00100000
01000000
00000000
,
10000000
01000000
00100000
00001000
00010000
00010000
00001000
00001000
,
00010000
00000000
00000100
00001000
00000000
00000100
00000010
00000000
00000100
00001000
00000000
00000100
00000010
00000000
00000001
00000000
,
00000100
00000000
00000010
00001000
00000000
00000010
00010000
00000000
00000010
00001000
00000000
00000010
00010000
00000000
00001000
00000000
,
01000000
00000000
00010000
01000000
00000000
00100000
01000000
00000000
00010000
01000000
00000000
00100000
01000000
00000000
00010000
00000000
,
10000000
00000000
01000000
00100000
00000000
00010000
00100000
00000000
01000000
00100000
00000000
00010000
00100000
00000000
00001000
00000000
,
00010000
00000000
00000100
00001000
00000000
00000010
00001000
00000000
00000100
00000010
00000000
00000001
00001000
00000000
00000010
00000000
,
00000100
00000000
00000001
00000100
00000000
00000010
00001000
00000000
00000001
00000100
00000000
00000010
00001000
00000000
00000010
00000000
,
00010000
00000000
00001000
00100000
00000000
00010000
01000000
00000000
00001000
00100000
00000000
00010000
01000000
00000000
00100000
00000000
,
10000000
00000000
00010000
00100000
00000000
01000000
10000000
00000000
01000000
00000000
01000000
00000000
00010000
00000000
00010000
00000000
,
00001000
00000000
00000000
00000010
00000000
00000000
00000011
00000000
00000000
00000000
00000001
00000100
00000010
00000000
00001000
00000100
,
00000010
00000000
00000000
00001000
00000000
00000000
00010000
00000000
01000000
00000000
00000000
00000000
10000000
00000000
00010000
10000000
,
00010000
00000000
00000000
00110000
00000000
00000000
00101000
00000000
00000000
00000000
00001000
00010000
00000010
00000000
00001000
00000010
,
00000100
00000000
00000001
00001000
00000000
00000000
00000100
00000000
00000020
00000000
00000000
00000000
00000030
00000000
00000010
00000000
,
00000001
00000000
00000100
00000001
00000000
00000100
00000001
00000000
00001000
00000010
00000000
00001000
00000010
00000000
00010000
00000000
,
00001000
00000000
01000000
00010000
00000000
01000000
00010000
00000000
10000000
00100000
00000000
10000000
00100000
00000000
01000000
00000000
,
00010000
00000000
10000000
01000000
00000000
10000000
01000000
00000000
00100000
00010000
00000000
00100000
00010000
00000000
00100000
00000000
,
00001000
00000000
00010000
00000100
00000000
00001000
00000100
00000000
00000010
00000100
00000000
00000010
00000001
00000000
00001000
00000000
,
00000001
00000000
00000100
00000010
00000000
00001000
00000010
00000000
00010000
00000010
00000000
00010000
00001000
00000000
00010000
00000000
,
00001000
00000000
00000000
00101000
00000000
00000000
00101000
00000000
00100000
00000000
00000000
00110000
00000000
00000000
00110000
00000000
,
00010000
00000000
00000000
01000000
00000000
00000000
10010000
00000000
00000000
00000000
00000000
00000000
00000000
00000000
00000000
00000000
,
10000000
00000000
01000000
00100000
00000000
00010000
00100000
00000000
01000000
10000000
00000000
00010000
01000000
00000000
00100000
00000000
,
01000000
00000000
00010000
01000000
00000000
00001000
01000000
00000000
00001000
00010000
00000000
00000010
00010000
00000000
00000010
00000000
,
00001000
00000000
00000100
00000010
00000000
00000001
00001000
00000000
00000010
00000100
00000000
00000001
00001000
00000000
00000100
00000000
,
00000010
00000000
00000001
00000100
00000000
00000010
00000100
00000000
00000010
00001000
00000000
00000010
00010000
00000000
00000000
00000000
,
00001000
00000000
00100000
00010000
00000000
00100000
01000000
00000000
00100000
10000000
00000000
00100000
01000000
00000000
00100000
00000000
,
00001000
00000000
01000000
00010000
00000000
01000000
00100000
00000000
01000000
10000000
00000000
01000000
00100000
00000000
01000000
00000000
,
00010000
00000000
00100000
01000000
00000000
00100000
01000000
00000000
10000000
00010000
00000000
10000000
00010000
00000000
01000000
00000000
,
00001000
00000000
00010000
00000100
00000000
00001000
00000100
00000000
00000010
00000001
00000000
00001000
00000001
00000000
00000000
00000000
,
00000001
00000000
00000100
00000010
00000000
00001000
00000010
00000000
00000100
00000001
00000000
00001000
00000100
00000000
00000010
00000000
,
00000100
00000000
00001000
00000100
00000000
00010000
00000100
00000000
00010000
00001000
00000000
00100000
00001000
00000000
00100000
00000000
,
00010000
00000000
01000000
00100000
00000000
10000000
00010000
00000000
00100000
01000000
00000000
10000000
00010000
00000000
01000000
00000000
,
00100000
00000000
10000000
01000000
00000000
00100000
01000000
00000000
00100000
00010000
00000000
00100000
00001000
00000000
00000000
00000000
,
00010000
00000000
00000010
00001000
00000000
00000010
00000100
00000000
00000010
00000001
00000000
00000010
00000100
00000000
00000010
00000000
,
00010000
00000000
00000100
00001000
00000000
00000100
00000010
00000000
00000100
00000001
00000000
00000100
00000010
00000000
00000100
00000000
,
00001000
00000000
00000010
00000100
00000000
00000010
00000100
00000000
00000001
00001000
00000000
00000001
00001000
00000000
00000100
00000000
,
00010000
00000000
00001000
01000000
00000000
00010000
01000000
00000000
00100000
10000000
00000000
00010000
10000000
00000000
00100000
00000000
,
10000000
00000000
01000000
00100000
00000000
00010000
00100000
00000000
00001000
00010000
00000000
00000100
00001000
00000000
00000010
00000000
,
00000220
00000000
00000000
00000330
,
00000100
00000000
00000001
00000100
00000000
00000001
00000100
00000000
00000010
00000000
00001000
00000010
00000000
00001000
00000010
00000000
,
00010000
00000000
00001000
00010000
00000000
00001000
00010000
00000000
00001000
00000000
01000000
00000000
00010000
00000000
00000000
00000000
,
10000000
00000000
01000000
00100000
00000000
01000000
00100000
00000000
00010000
00000000
00100000
00001000
00000000
00100000
00001000
00000000
,
00010000
00000000
00000010
00001000
00000000
00000010
00001000
00000000
00000010
00000000
00000100
00000000
00000001
00000000
00000000
00000000
,
00000002
00000203
00000320
00002030
00023000
02030000
03200000
20300000
,
30010000
00100000
00010000
00100000
01000000
00000000
10000000
00000000
00020000
00000000
00000000
00000000
00030000
00000000
00010000
00100000
,
02000000
00000000
00000000
00000000
03020000
00000000
00000000
00000000
00032000
00000000
00000000
00000000
00003000
00000000
00001000
00000010
,
00000200
00000000
00000000
00000000
00001300
00000000
00000100
00000000
00010000
00000000
00000000
00001000
00000000
00000000
00100000
00000000
,
00020000
00000000
00000000
00030000
,
00010000
00000000
00100000
01000000
00000000
00100000
01000000
00000000
00010000
00000000
00001000
00000000
00010000
00001000
00010000
00000000
,
00000000
00000000
00000000
00000000
;
