
//----- song ID: saib -----//
#TITLE:サインはB -New Arrange Ver.-;
#ARTIST:B小町 ルビー(CV:伊駒ゆりえ)、有馬かな(CV:潘めぐみ)、MEMちょ(CV:大久保瑠美);
#TITLETRANSLIT:Sign wa B -New Arrange Ver.-;
#ARTISTTRANSLIT:B Komachi Ruby (CV\: Yurie Ikoma), Kana Arima (CV\: Megumi Han), MEMcho (CV\: Rumi Okubo);
#BANNER:Sign wa B -New Arrange Ver.-.png;
#BACKGROUND:Sign wa B -New Arrange Ver.--bg.png;
#CDTITLE:./CDTitles/DDR WORLD.png;
#MUSIC:Sign wa B -New Arrange Ver.-.ogg;
#SAMPLESTART:50.719;
#SAMPLELENGTH:15;
#BPMS:0=175;
#NOTES:
     dance-single:
     :
     Beginner:
     2:
     :
0000
0000
0000
0000
,
0000
0000
0000
0000
,
0000
0000
0000
0000
,
0000
0000
0000
0000
,
0000
0000
0000
0000
,
0010
0000
0000
0000
,
0000
0000
0000
0000
,
0100
0000
0000
0000
,
0000
0000
0000
0000
,
0001
0000
0000
0000
,
0001
0000
0000
0000
,
1000
0000
0000
0000
,
1000
0000
0000
0000
,
0001
0000
0000
0000
,
0000
0000
0000
0000
,
0010
0000
0000
0000
,
0000
0000
0000
0000
,
0100
0000
0000
0000
,
0000
0000
0000
0000
,
2000
0000
3000
0000
,
0000
0000
0001
0000
,
1000
0000
0000
0000
,
0000
0000
0000
0000
,
0010
0000
0000
0000
,
0000
0000
0000
0000
,
0100
0000
0000
0000
,
0000
0000
0000
0000
,
0001
0000
0000
0000
,
1000
0000
0000
0000
,
0001
0000
0000
0000
,
0000
0000
0000
0000
,
0001
0000
0000
0000
,
0000
0000
0000
0000
,
0100
0000
0000
0000
,
0000
0000
0000
0000
,
0100
0000
0000
0000
,
0000
0000
0000
0000
,
0010
0000
0000
0000
,
0000
0000
0000
0000
,
1000
0000
0000
0000
,
0000
0000
0000
0000
,
0001
0000
0000
0000
,
1000
0000
0000
0000
,
0001
0000
0000
0000
,
0010
0000
0010
0000
,
0010
0000
0000
0000
,
0000
0000
0000
0000
,
0001
0000
0000
0000
,
0000
0000
0000
0000
,
2000
0000
0000
0000
,
3000
0000
0000
0000
,
0002
0000
0000
0000
,
0003
0000
0000
0000
,
0000
1000
0000
0000
,
0000
1000
0000
0000
,
0001
0000
0000
0000
,
0100
0000
0000
0000
,
0020
0000
0000
0000
,
0030
0000
0000
0000
,
1000
0000
0000
0000
,
0000
0000
0000
0000
,
0100
0000
0000
0000
,
0000
0000
0000
0000
,
1000
0000
0000
0000
,
1000
0000
0000
0000
,
0001
0000
0000
0000
,
0000
0000
0000
0000
,
0001
0000
0000
0000
,
0000
0000
0000
0000
,
0100
0000
0000
0000
,
0000
0000
0000
0000
,
0002
0000
0000
0000
,
0003
0000
0000
0000
,
0002
0000
0000
0000
,
0003
0000
0000
0000
,
2000
0000
0000
0000
,
3000
0000
0000
0000
,
2000
0000
0000
0000
,
3000
0000
0000
0000
,
0000
0010
0000
0000
,
0000
0000
0000
0000
,
1000
0000
0000
0000
,
0001
0000
0000
0000
,
2000
0000
0000
0000
,
3000
0000
0000
0000
,
0001
0000
0000
0000
,
0000
0000
0000
0000
,
1000
0000
0000
0000
,
0000
0000
0000
0000
,
0010
0000
0000
0000
,
0000
0000
0000
0000
,
0000
1000
0000
0000
,
2002
0000
0000
0000
,
3003
0000
0000
0000
,
0000
0000
0000
0000
;
#NOTES:
     dance-single:
     :
     Easy:
     4:
     :
0000
0000
0000
0000
,
0000
0000
0000
0000
,
0000
0000
0000
0000
,
0000
0000
0000
0000
,
0000
0000
0000
0000
,
0001
0000
0000
0000
,
0001
0000
0000
0000
,
1000
0000
0000
0000
,
1000
0000
0000
0000
,
0001
0000
0010
0000
,
0001
0001
0000
0000
,
1000
0000
0010
0000
,
1000
1000
0000
0000
,
0010
0000
0000
0000
,
0100
0000
0000
0000
,
0001
0000
0000
0000
,
1000
0001
1000
0001
,
1000
0000
0000
0000
,
0100
0000
0000
0000
,
0010
0000
0000
0000
,
0000
0001
0001
0000
,
1000
0000
0000
0000
,
0010
0000
0000
0000
,
1000
0000
0000
0000
,
0001
0000
0000
0000
,
0100
0000
0000
0000
,
0010
0000
0000
0000
,
1000
0000
0001
0000
,
1000
0000
0001
0000
,
1000
1000
1000
0000
,
0100
0000
0010
0000
,
0001
0001
0001
0000
,
1000
0000
0001
0001
,
1000
0000
0010
0000
,
0100
0000
0010
0000
,
1000
0000
0001
0000
,
0000
1000
1000
1000
,
0001
0000
1000
0000
,
0010
0010
0010
0000
,
1000
0000
0001
0000
,
0010
0010
0010
0000
,
0002
0000
0003
0000
,
2000
0000
3000
0000
,
0020
0030
0200
0300
,
0010
0010
0010
0010
,
0010
0000
1000
0000
,
0001
0001
0001
0000
,
0010
0000
0001
0000
,
1000
0000
1000
0000
,
0002
0000
0003
0000
,
2000
0000
3000
0000
,
0002
0000
0003
0000
,
2000
0000
3000
0000
,
0000
0100
0100
0100
,
0000
0010
0010
0010
,
0010
0000
0100
0000
,
1000
0000
0001
0000
,
0000
1000
0001
1000
,
0002
0000
0003
0000
,
1000
0000
0000
0000
,
1000
0000
0000
0000
,
0100
0000
0000
0000
,
0100
0000
0000
0000
,
0020
0000
0030
0000
,
0002
0000
0003
0000
,
1000
0000
0001
0000
,
2000
0000
3000
0000
,
1001
0000
0000
0000
,
0001
0000
0000
0000
,
0100
0000
0000
0000
,
0100
0000
0000
0000
,
0020
0000
0030
0000
,
0020
0000
0030
0000
,
0200
0000
0300
0000
,
0200
0000
0300
0000
,
0002
0000
0003
0000
,
2000
0000
3000
0000
,
0002
0000
0003
0000
,
2000
0000
3000
0000
,
0000
0001
0001
0001
,
0000
0010
0010
0010
,
0010
0000
0100
0000
,
1000
0000
0001
0000
,
0000
1000
0001
1000
,
0002
0000
0003
0000
,
1000
0000
1000
0000
,
0010
0000
0010
0000
,
0100
0000
0100
0000
,
0001
0000
0001
0000
,
1000
0000
1000
0000
,
0100
0000
0100
0000
,
0000
0010
0000
0000
,
0220
0000
0000
0000
,
0330
0000
0000
0000
,
0000
0000
0000
0000
;
#NOTES:
     dance-single:
     :
     Medium:
     8:
     :
0000
0000
0000
0000
,
0000
0000
0000
0000
,
0000
0000
0000
0000
,
0000
0000
0000
0000
,
0000
0000
0000
0000
,
0001
0001
0010
0010
,
0100
0100
1000
1000
,
0001
0001
0100
0100
,
0010
0010
1000
1000
,
0001
0001
1000
1000
,
0010
0000
0100
0010
0000
0010
0100
0000
,
0001
0001
1000
1000
,
0100
0000
0010
0100
0000
0100
0010
0000
,
0001
0000
0010
0000
,
0100
0010
0100
0000
,
1000
0000
0001
0000
,
1000
0001
1000
0001
1000
0000
0000
0000
,
0001
0000
0000
0000
0100
0000
0010
0200
,
0000
0000
0000
0300
0000
0000
0010
0000
,
1000
0000
0002
0000
,
0003
1001
1001
0000
,
0001
0000
0010
0000
,
0100
0010
0100
0000
,
0020
0030
0200
0300
,
0010
0001
1000
0001
,
1000
0000
0010
0000
,
0100
0100
0000
0000
,
0002
0003
2000
3000
,
0002
0003
2000
3000
,
0001
0100
0001
0000
,
0100
0010
1000
0000
,
0001
0000
1000
0000
,
0001
0001
0001
0000
,
1000
0100
1000
0000
,
0100
0010
0001
0000
,
1000
0000
0001
0000
,
0000
0100
0100
0100
,
0001
0000
0100
0000
0010
0100
0010
0000
,
1000
0010
0000
2000
0000
0000
0000
3000
,
0001
0000
0010
0000
0100
0010
0100
0000
,
1000
0100
0000
2000
0000
0000
0000
3000
,
0002
0000
0003
0100
,
2000
0000
3000
0100
,
0002
0003
2000
3000
,
1001
1001
1001
1001
,
1000
0000
0010
0000
0100
0010
0100
0000
,
0001
0100
0000
0002
0000
0000
0000
0003
,
1000
0000
0100
0000
0010
0100
0010
0100
,
0000
0010
0000
0001
0000
1000
0000
0000
,
0002
0000
0003
0010
,
2000
0000
3000
0010
,
0002
0000
0003
0100
,
2000
0000
3000
0100
,
0000
0001
0100
0001
,
0000
1000
0100
1000
,
0001
0000
0001
0000
0001
0000
1000
0010
,
0000
0100
0001
0000
2000
0000
0000
0000
,
3000
0000
0001
0000
1000
0100
0000
0020
,
0000
0031
1000
0001
1000
0000
1000
0000
,
0002
0000
0000
0000
,
0203
0000
0000
0000
,
0320
0000
0000
0000
,
2030
0000
0000
0000
,
3001
0000
0001
0000
,
1000
0000
0000
0000
1000
0000
0001
1000
,
0000
0100
0000
0010
0000
0001
0000
0020
,
0000
0000
0000
0000
0000
0030
0000
0000
,
0001
0000
0010
0000
0100
0010
0100
0000
,
1000
0100
0000
2000
0000
0000
0000
3000
,
0001
0000
0100
0000
0010
0100
0010
0100
,
0000
0010
0000
1000
0000
0001
0000
0000
,
2000
0000
3000
0100
,
0002
0000
0003
0100
,
2000
0000
3000
0010
,
0002
0000
0003
0010
,
2000
0000
3100
0100
,
0002
0000
0103
0100
,
2000
0000
3010
0010
,
0002
0000
0013
0010
,
0000
1000
1000
1000
,
0000
0001
0001
0001
,
1000
0000
1000
0000
1000
0000
0001
0010
,
0000
0100
1000
0000
0002
0000
0000
0000
,
0003
0000
1000
0000
0001
0100
0000
0020
,
0000
1030
0001
1000
0001
0000
0001
0000
,
1000
1000
0100
0100
,
0010
0010
0001
0001
,
1000
1000
0010
0010
,
0100
0100
0001
0001
,
1000
0100
0010
0001
,
1000
0010
0100
0001
,
0000
0000
0101
0000
0000
0110
0000
0000
,
2020
0000
0000
0000
,
3030
0000
0000
0000
,
0000
0000
0000
0000
;
#NOTES:
     dance-single:
     :
     Hard:
     12:
     :
0000
0000
0000
0000
,
0000
0000
0000
0000
,
0000
0000
0000
0000
,
0000
0000
0000
0000
,
0000
0000
0000
0000
,
0001
0010
0001
0000
1000
0010
1000
0000
,
0001
0100
0001
0000
1000
0100
1000
0000
,
0001
0010
0001
0000
0010
0100
0010
0000
,
0100
1000
0100
0000
1000
0001
1000
0000
,
0001
0000
0001
0000
1000
0001
1000
0000
,
0001
0100
0010
1000
0000
0001
0001
0000
,
1000
0000
1000
0000
0001
1000
0001
0000
,
1000
0100
0010
0001
0000
1000
1000
0000
,
0001
0000
0100
0000
0010
0100
0000
0010
,
1000
0010
0100
0001
0000
0100
0001
0010
,
0000
0100
1000
0010
0000
1000
0010
1000
,
0001
0000
1000
0001
1000
0000
0001
0000
2000
0000
0000
0000
3100
0000
0010
0000
,
0002
0000
0003
0010
0001
0100
0010
2000
,
0000
0000
0000
3000
0000
0010
0100
0001
,
0200
0000
0300
0001
2000
0000
0000
0000
,
3000
1001
2002
3003
,
1000
0000
0100
0000
0010
0100
0000
0010
,
0001
0010
0100
1000
0000
0100
1000
0010
,
0000
0100
0001
0010
0000
0001
0010
0001
,
1000
0010
1000
0001
2000
0000
3100
0010
,
0002
0000
0003
0010
0001
1000
0010
0200
,
0000
0010
0010
0300
0000
0010
0100
0002
,
0000
0013
0100
2000
0000
3010
0100
0020
,
0000
0130
0010
0100
0001
0000
0001
0000
,
1000
1100
0001
0101
,
0100
0010
0110
0000
,
0001
0101
1000
1100
,
0100
1000
0001
0010
0001
0000
0001
0000
,
1000
1010
0001
0011
,
0010
0100
0110
0000
,
0010
0001
0100
0010
,
0000
1000
1000
1000
,
0001
0010
0100
0010
0001
0100
0010
1000
,
0010
0100
0000
0010
0000
0010
0010
0000
,
1000
0010
0100
0010
1000
0100
0010
0001
,
0010
0100
0000
0010
0000
0010
0010
0000
,
0022
0000
0033
0110
,
0220
0000
0330
1100
,
2000
3000
0002
0003
,
1001
1001
1001
1001
,
0001
0100
0010
0100
0001
0010
0100
1000
,
0100
0010
0000
0100
0000
0100
0100
0000
,
1000
0100
0010
0100
1000
0010
0100
0001
,
0000
0010
0000
0100
0000
1000
0000
0000
,
2020
0000
3030
0110
,
0220
0000
0330
0101
,
0202
0000
0303
1001
,
2002
0000
3003
0011
,
0000
0001
0010
0011
,
0000
1000
0010
1010
,
1000
0000
0010
0000
1000
0000
0010
0100
,
0000
0001
0100
0000
0002
0000
0000
0000
,
0003
0000
1000
0000
0100
0010
0000
0120
,
0000
0130
0010
0100
0010
0000
0001
0000
,
0020
0000
0000
0000
,
0032
0000
0000
0000
,
2003
0000
0000
0000
,
3020
0000
0000
0000
,
1030
0000
1000
0000
,
0001
0000
0000
0000
0001
0000
0000
0001
,
0000
0010
0001
0100
0010
1000
0200
0010
,
0000
0010
0000
0010
0010
0000
0300
0000
,
0010
0001
1000
0100
1000
0010
0100
0001
,
0100
0010
0000
0100
0000
0100
0100
0000
,
0010
1000
0001
0100
0001
0010
0100
1000
,
0000
0010
0000
0100
0000
0001
0000
0000
,
0202
0000
0303
1001
,
2002
0000
3003
1010
,
2020
0000
3030
1001
,
2002
0000
3003
0011
,
0022
0000
0033
1001
,
2200
0000
3300
1001
,
2020
0000
3030
1001
,
0202
0000
0303
1001
,
0000
0001
0010
0011
,
0000
1000
0010
1010
,
1000
0000
0010
0000
1000
0000
0010
0100
,
0000
0001
0100
0000
0002
0000
0000
0000
,
0003
0000
1000
0000
0100
0010
0000
0120
,
0000
0130
0010
0100
0010
0000
0100
0000
,
0010
0001
0010
0000
0100
0010
0100
0000
,
1000
0100
1000
0000
0001
1000
0001
0000
,
1000
0010
0100
0000
0001
0010
0100
0000
,
1000
0100
0010
0000
0001
0100
0010
0000
,
0100
0001
0010
0000
0100
1000
0010
0000
,
1000
0010
0001
0000
1000
0100
0001
0000
,
0000
0000
0110
0000
0000
1001
0000
0000
,
0220
0000
0000
0000
,
0330
0000
0000
0000
,
0000
0000
0000
0000
;
#NOTES:
     dance-double:
     :
     Easy:
     4:
     :
00000000
00000000
00000000
00000000
,
00000000
00000000
00000000
00000000
,
00000000
00000000
00000000
00000000
,
00000000
00000000
00000000
00000000
,
00000000
00000000
00000000
00000000
,
00001000
00000000
00000000
00000000
,
00001000
00000000
00000000
00000000
,
00010000
00000000
00000000
00000000
,
00010000
00000000
00000000
00000000
,
00001000
00000000
00010000
00000000
,
00000010
00000010
00000000
00000000
,
00001000
00000000
00000001
00000000
,
00001000
00001000
00000000
00000000
,
00000100
00000000
00000000
00000000
,
00010000
00000000
00000000
00000000
,
00001000
00000000
00000000
00000000
,
00010000
00001000
00010000
00001000
,
00010000
00000000
00000000
00000000
,
00001000
00000000
00000000
00000000
,
00100000
00000000
00000000
00000000
,
00000000
00010000
00010000
00000000
,
10000000
00000000
00000000
00000000
,
00100000
00000000
00000000
00000000
,
10000000
00000000
00000000
00000000
,
01000000
00000000
00000000
00000000
,
00010000
00000000
00000000
00000000
,
00001000
00000000
00000000
00000000
,
00010000
00000000
00001000
00000000
,
00010000
00000000
00001000
00000000
,
00010000
00000000
00010000
00000000
,
00000010
00000000
00001000
00000000
,
00000001
00000000
00000001
00000000
,
00001000
00000000
00000001
00000001
,
00000100
00000000
00000010
00000000
,
00001000
00000000
00000010
00000000
,
00010000
00000000
00001000
00000000
,
00000000
00010000
00010000
00010000
,
00001000
00000000
01000000
00000000
,
00010000
00000000
00010000
00000000
,
10000000
00000000
00010000
00000000
,
10000000
00000000
10000000
00000000
,
00200000
00000000
00300000
00000000
,
00020000
00000000
00030000
00000000
,
00002000
00003000
00020000
00030000
,
00001000
00010000
00001000
00010000
,
00001000
00000000
00010000
00000000
,
00000100
00000000
00000100
00000000
,
00001000
00000000
00000001
00000000
,
00000100
00000000
00000010
00000000
,
00000200
00000000
00000300
00000000
,
00002000
00000000
00003000
00000000
,
00020000
00000000
00030000
00000000
,
02000000
00000000
03000000
00000000
,
00000000
00100000
01000000
00100000
,
00000000
00010000
10000000
00010000
,
10000000
00000000
00010000
00000000
,
01000000
00000000
00001000
00000000
,
00000000
00010000
00001000
00010000
,
00002000
00000000
00003000
00000000
,
00010000
00000000
00000000
00000000
,
00001000
00000000
00000000
00000000
,
00000010
00000000
00000000
00000000
,
00000001
00000000
00000000
00000000
,
00000200
00000000
00000300
00000000
,
00000020
00000000
00000030
00000000
,
00001000
00000000
00000010
00000000
,
00020000
00000000
00030000
00000000
,
00011000
00000000
00000000
00000000
,
00010000
00000000
00000000
00000000
,
00001000
00000000
00000000
00000000
,
01000000
00000000
00000000
00000000
,
00020000
00000000
00030000
00000000
,
02000000
00000000
03000000
00000000
,
00200000
00000000
00300000
00000000
,
20000000
00000000
30000000
00000000
,
02000000
00000000
03000000
00000000
,
00020000
00000000
00030000
00000000
,
00002000
00000000
00003000
00000000
,
00020000
00000000
00030000
00000000
,
00000000
00001000
00010000
00001000
,
00000000
00010000
00000010
00010000
,
00000010
00000000
00001000
00000000
,
00000001
00000000
00001000
00000000
,
00000000
00000001
00001000
00000001
,
00002000
00000000
00003000
00000000
,
00000001
00000000
00000100
00000000
,
00001000
00000000
00010000
00000000
,
00001000
00000000
00010000
00000000
,
00100000
00000000
10000000
00000000
,
00010000
00000000
10000000
00000000
,
01000000
00000000
00100000
00000000
,
00000000
01000000
00000000
00000000
,
02200000
00000000
00000000
00000000
,
03300000
00000000
00000000
00000000
,
00000000
00000000
00000000
00000000
;
#NOTES:
     dance-double:
     :
     Medium:
     8:
     :
00000000
00000000
00000000
00000000
,
00000000
00000000
00000000
00000000
,
00000000
00000000
00000000
00000000
,
00000000
00000000
00000000
00000000
,
00000000
00000000
00000000
00000000
,
00001000
00010000
00000010
00001000
,
00000001
00000010
00000100
00001000
,
00000100
00010000
00001000
00100000
,
00010000
01000000
00100000
10000000
,
00020000
00030000
20000000
30000000
,
01000000
00000000
00100000
01000000
00000000
00100000
01000000
00000000
,
00200000
00300000
00020000
00030000
,
00100000
00000000
00001000
00010000
00000000
00001000
00010000
00000000
,
00001000
00000000
00010000
00000000
,
00001000
00010000
00000010
00000000
,
00001000
00000000
00000001
00000000
,
00001000
00000001
00001000
00000001
00001000
00000000
00000000
00000000
,
00000001
00000000
00000000
00000000
00001000
00000000
00000010
00002000
,
00000000
00000000
00000000
00003000
00000000
00000000
00000010
00000000
,
00020000
00030000
00002000
00000000
,
00003000
00011000
00011000
00000000
,
00010000
00000000
00001000
00000000
,
00010000
00001000
00100000
00000000
,
00020000
00030000
20000000
30000000
,
01000000
00100000
00010000
01000000
,
00010000
00000000
01000000
00000000
,
00010000
00010000
00000000
00000000
,
00020000
00030000
02000000
03000000
,
00002000
00003000
00020000
00030000
,
00001000
00010000
00000100
00000000
,
00001000
00000000
00000100
00000000
,
00000010
00000000
00000001
00000000
,
00000200
00000000
00000301
00000001
,
00000100
00000000
00000010
00000000
,
00001000
00000000
00000010
00000000
,
00010000
00000000
00001000
00000000
,
00000000
00010000
00010000
00010000
,
00001000
01000000
00010000
01000000
,
00100000
10000000
00000000
00200000
00000000
00000000
00000000
00300000
,
10000000
01000000
00100000
00010000
,
00100000
00010000
00000000
00200000
00000000
00000000
00000000
00300000
,
00002000
00000000
00003000
00010000
,
00000020
00000000
00000030
00001000
,
00000002
00000003
00002000
00003000
,
00001001
00001001
00001001
00001001
,
00000001
00000100
00000010
00001000
,
00000010
00001000
00000000
00000020
00000000
00000000
00000000
00000030
,
00010000
00000000
00001000
00000000
00010000
00000000
00001000
00010000
,
00000000
00001000
00000000
00100000
00000000
00010000
00000000
00000000
,
20000000
00000000
30000000
00100000
,
02000000
00000000
03000000
00010000
,
02000000
00000000
03000000
00001000
,
00020000
00000000
00030000
00001000
,
00000000
00010000
00001000
00010000
,
00000000
00000010
00001000
00000010
,
00001000
00000000
00000001
00000000
00001000
00000000
00000001
00000010
,
00000000
00000001
00000010
00000000
00000002
00000000
00000000
00000000
,
00000003
00000000
00000100
00000000
00000010
00000100
00000000
00000020
,
00000000
00000030
00001000
00000000
00001000
00000000
00001000
00000000
,
00000020
00000000
00000000
00000000
,
00020030
00000000
00000000
00000000
,
00032000
00000000
00000000
00000000
,
00203000
00000000
00000000
00000000
,
00310000
00000000
00010000
00000000
,
10000000
00000000
00000000
00000000
10000000
00000000
00010000
10000000
,
00000000
01000000
00000000
00100000
00000000
01000000
00000000
00200000
,
00000000
00000000
00000000
00000000
00000000
00300000
00000000
00000000
,
00010000
00100000
00001000
00010000
,
00001000
00010000
00000000
00002000
00000000
00000000
00000000
00003000
,
00010000
00000000
00000100
00000000
00001000
00000000
00000100
00001000
,
00000000
00000010
00000000
00000100
00000000
00000001
00000000
00000000
,
00002000
00000000
00003000
00000010
,
00020000
00000000
00030000
00001000
,
02000000
00000000
03000000
00010000
,
20000000
00000000
30000000
00010000
,
00020000
00000000
00030000
00100000
,
00002000
00000000
00003000
00010000
,
00000200
00000000
00000300
00001000
,
00000002
00000000
00000003
00001000
,
00000000
00000001
00000100
00000001
,
00000000
00001000
00000001
00001000
,
00000001
00000000
00000010
00000000
00000100
00000000
00001000
00000100
,
00000000
00001000
00000100
00000000
00002000
00000000
00000000
00000000
,
00003000
00000000
00000100
00000000
00010000
00001000
00000000
00020000
,
00000000
00030000
00001000
00000000
00001000
00000000
00001000
00000000
,
00010000
00001000
00100000
00010000
,
10000000
00100000
01000000
00010000
,
01000000
00001000
00010000
00000010
,
00001000
00000100
00000010
00000001
,
00001000
00000001
00000100
00001000
,
00010000
00001000
00010000
01000000
,
00000000
00000000
01100000
00000000
00000000
10010000
00000000
00000000
,
02200000
00000000
00000000
00000000
,
03300000
00000000
00000000
00000000
,
00000000
00000000
00000000
00000000
;
#NOTES:
     dance-double:
     :
     Hard:
     12:
     :
00000000
00000000
00000000
00000000
,
00000000
00000000
00000000
00000000
,
00000000
00000000
00000000
00000000
,
00000000
00000000
00000000
00000000
,
00000000
00000000
00000000
00000000
,
00001000
00010000
00001000
00000000
00100000
00010000
00100000
00000000
,
00010000
10000000
00010000
00000000
10000000
01000000
10000000
00000000
,
00010000
10000000
00010000
00000000
01000000
00010000
01000000
00000000
,
00001000
00010000
00001000
00000000
00010000
00000010
00010000
00000000
,
00000010
00000000
00000010
00000000
00001000
00000001
00001000
00000000
,
00000001
00000010
00000100
00001000
00000000
00000100
00000100
00000000
,
00010000
00000000
00010000
00000000
00001000
00010000
00001000
00000000
,
00010000
00001000
01000000
00010000
00000000
01000000
01000000
00000000
,
00010000
00000000
10000000
00000000
00010000
00100000
00000000
01000000
,
10000000
01000000
10000000
01000000
00000000
00100000
00010000
01000000
,
00000000
00010000
01000000
00001000
00000000
00010000
00000010
00010000
,
00001000
00000000
00010000
00001000
00010000
00000000
00001000
00000000
00020000
00000000
00000000
00000000
00030000
00000000
00001000
00000000
,
00010000
00000200
00000000
00001300
00000100
00000010
00000001
00000200
,
00000000
00000000
00000000
00000300
00000000
00000001
00000100
00000010
,
00002000
00000000
00003000
00000010
00020000
00000000
00000000
00000000
,
00030000
00011000
00022000
00033000
,
00010000
00000000
00001000
00000000
01000000
00010000
00000000
10000000
,
00100000
10000000
00100000
10000000
00000000
00100000
10000000
01000000
,
00000000
00100000
00010000
01000000
00000000
00010000
01000000
00001000
,
00010000
00000000
00001000
00010000
00000020
00000000
00001030
00000100
,
00000020
00000000
00000030
00000001
00000010
00000100
00001000
00000200
,
00000000
00001000
00001000
00000300
00000000
00001000
00000100
00020000
,
00000000
00031000
00010000
00002000
00000000
00013000
00001000
00200000
,
00000000
00310000
00100000
00010000
10000000
00000000
10010000
00000000
,
10000000
01000000
00010000
00001000
,
00010000
00001000
00000100
00000000
,
00000010
00000100
00000001
00000100
,
00001000
00010000
00011000
00011000
,
00001000
00010000
00100000
10000000
,
01000000
00100000
00010000
00000000
,
00100000
00001000
00010000
00001000
,
00000000
00010000
00010000
00010000
,
00001000
00010000
00000100
00000000
00001000
00000100
00000010
00000000
,
00000001
00000010
00000000
00000002
00000000
00000000
00000003
00000000
,
00000010
00000001
00000100
00000000
00000010
00001000
00000010
00000000
,
00010000
00001000
00000000
00020000
00000000
00000000
00030000
00000000
,
00022000
00000000
00033000
00000000
,
00220000
00000000
00330000
00000000
,
20000000
30000000
00020000
00030000
,
10010000
10010000
10010000
10010000
,
10000000
01000000
10000000
00000000
00010000
00100000
00010000
00000000
,
00100000
00001000
00000000
00020000
00000000
00000000
00030000
00000000
,
00001000
00010000
00000010
00000000
00001000
00000010
00000100
00000001
,
00000000
00000010
00000000
00000100
00000000
00001000
00000000
00000000
,
00020200
00000000
00000000
00030300
,
00022000
00000000
00000000
00033000
,
00202000
00000000
00000000
00303000
,
00220000
00000000
00000000
00330000
,
00000000
00010000
00010000
00010000
,
00000000
10000000
10000000
10000000
,
00100000
00000000
10000000
00000000
00100000
00000000
10000000
01000000
,
00000000
00100000
00010000
00000000
00200000
00000000
00000000
00000000
,
00300000
00000000
00001000
00000000
00010000
00001000
00000000
00012000
,
00000000
00013000
00001000
00010000
00001000
00000000
00010000
00000000
,
00002000
00000000
00000000
00000000
,
00003200
00000000
00000000
00000000
,
00000302
00000000
00000000
00000000
,
00002003
00000000
00000000
00000000
,
00003001
00000000
00000010
00000000
,
00001000
00000000
00000000
00000000
00010000
00000000
00000000
00001000
,
00000000
00010000
00001000
01000000
00010000
10000000
00020000
10000000
,
00000000
10000000
00000000
10000000
10000000
00000000
00030000
00000000
,
00010000
10000000
01000000
00000000
00100000
00010000
01000000
00000000
,
00001000
00010000
00000000
00002000
00000000
00000000
00003000
00000000
,
00010000
00001000
00010000
00000000
00000010
00001000
00000001
00001000
,
00000000
00000100
00000000
00000010
00000000
00000001
00000000
00000000
,
00000022
00000000
00000000
00000033
,
00002020
00000000
00000000
00003030
,
00022000
00000000
00000000
00033000
,
00220000
00000000
00000000
00330000
,
20200000
00000000
00000000
30300000
,
22000000
00000000
00000000
33000000
,
02020000
00000000
00000000
03030000
,
00022000
00000000
00000000
00033000
,
00000000
00010000
00010000
00010000
,
00000000
00001000
00001000
00001000
,
00010000
00000000
00001000
00000000
00000010
00000000
00000100
00000010
,
00000000
00000001
00000010
00000000
00000002
00000000
00000000
00000000
,
00000003
00000000
00001000
00000000
00000010
00010000
00000000
00021000
,
00000000
00031000
00010000
00001000
00010000
00000000
00001000
00000000
,
00010000
00001000
01000000
00000000
00010000
01000000
00100000
00000000
,
10000000
01000000
00100000
00000000
00010000
00100000
00001000
00000000
,
00010000
00001000
00000100
00000000
00001000
00000100
00000001
00000000
,
00000100
00000001
00000010
00000000
00000001
00000010
00001000
00000000
,
00000010
00001000
00010000
00000000
00001000
00010000
00100000
00000000
,
00010000
00100000
10000000
00000000
00100000
10000000
01000000
00000000
,
00000000
00000000
11000000
00000000
00000000
01010000
00000000
00000000
,
00022000
00000000
00000000
00000000
,
00033000
00000000
00000000
00000000
,
00000000
00000000
00000000
00000000
;
