
//----- song ID: shuk -----//
#VERSION:0.83;
#TITLE:粛聖!! ロリ神レクイエム☆;
#ARTIST:しぐれうい (9さい);
#TITLETRANSLIT:Shukusei!! Loli-kami requiem;
#ARTISTTRANSLIT:MARON (9 sai);
#BANNER:Shukusei!! Loli-kami requiem-tn.png;
#BACKGROUND:Shukusei!! Loli-kami requiem-bg.png;
#CDTITLE:./CDTitles/DDR WORLD.png;
#MUSIC:Shukusei!! Loli-kami requiem.ogg;
#SAMPLESTART:65.454;
#SAMPLELENGTH:15;
#BPMS:0=165;

//---------------dance-single - ----------------
#NOTEDATA:;
#STEPSTYPE:dance-single;
#DIFFICULTY:Beginner;
#METER:2;
#NOTES:
0000
0000
0000
0000
,
0000
0000
0000
0000
,
0000
0000
0000
0000
,
0000
0000
0000
0000
,
0000
0000
0000
0000
,
0000
0000
0000
0000
,
0000
0000
0000
0000
,
0001
0000
0000
0000
,
1000
0000
0000
0000
,
0001
0000
0000
0000
,
0000
0000
0000
0000
,
0000
0000
0000
0000
,
0000
0000
0000
0000
,
0001
0000
0000
0000
,
0001
0000
0000
0000
,
0002
0000
0000
0000
,
0003
0000
0000
0000
,
1000
0000
0000
0000
,
1000
0000
0000
0000
,
2000
0000
0000
0000
,
3000
0000
0000
0000
,
0000
0000
0000
0000
,
0001
0000
0000
0000
,
0001
0000
0000
0000
,
0002
0000
0000
0000
,
0003
0000
0000
0000
,
1000
0000
0000
0000
,
1000
0000
0000
0000
,
2000
0000
0000
0000
,
3000
0000
0000
0000
,
0010
0000
0000
0000
,
0010
0000
0000
0000
,
0020
0000
0000
0000
,
0030
0000
0000
0000
,
0100
0000
0000
0000
,
0100
0000
0000
0000
,
0100
0000
0000
0000
,
0002
0000
0000
0000
,
0003
0000
0000
0000
,
0002
0000
0000
0000
,
0003
0000
0000
0000
,
2000
0000
0000
0000
,
3000
0000
0000
0000
,
2000
0000
0000
0000
,
3000
0000
0000
0000
,
0001
0000
0000
0000
,
0002
0000
0003
0000
,
1000
0000
0000
0000
,
2000
0000
3000
0000
,
0010
0000
0000
0000
,
0010
0000
0000
0000
,
0010
0000
0010
0000
,
0010
0000
0000
0000
,
1000
0000
1000
0000
,
2000
0000
3000
0000
,
0001
0000
0001
0000
,
0002
0000
0003
0000
,
1000
0000
0000
0000
,
0001
0000
0000
0000
,
0010
0000
0000
0000
,
0001
0000
0000
0000
,
1000
0000
0000
0000
,
0010
0000
0000
0000
,
1001
0000
0000
0000
,
0000
0000
0000
0000
,
0010
0000
0000
0000
,
0010
0000
0000
0000
,
0000
0000
0010
0000
,
0000
0000
0000
0000
,
0000
0000
0000
0000
,
0000
0000
0000
0000
,
0000
0000
0000
0000
,
0001
0000
0001
0000
,
0001
0000
0000
0000
,
1000
0000
1000
0000
,
1000
0000
0000
0000
,
0010
0000
0010
0000
,
0010
0000
0000
0000
,
0100
0000
0000
0000
,
0200
0000
0000
0300
;

//---------------dance-single - ----------------
#NOTEDATA:;
#STEPSTYPE:dance-single;
#DIFFICULTY:Easy;
#METER:4;
#NOTES:
0000
0000
0000
0000
,
0000
0000
0000
0000
,
0000
0000
0000
0000
,
0000
0000
0000
0000
,
0000
0000
0000
0000
,
0000
0000
0000
0000
,
0000
0000
0000
0000
,
0001
0000
1000
0000
,
0001
0000
0000
0000
,
2002
0000
0000
0000
,
0000
0000
0000
0000
,
0000
3003
0000
0000
,
0000
0000
0000
0000
,
0001
0001
0001
0000
,
1000
1000
1000
0000
,
0001
1000
0001
1000
,
0002
0000
0003
0000
,
1000
0100
1000
0000
,
0001
0100
0001
0000
,
0100
0000
0100
0000
,
0200
0000
0000
0300
,
0000
0000
0000
0000
,
0001
0000
0000
0000
,
0100
0000
0000
0000
,
0010
0000
0000
0000
,
1000
0000
0000
0000
,
0001
0000
0000
0000
,
0010
0000
0000
0000
,
0100
0000
0000
0000
,
1000
0000
0000
0000
,
0001
0000
1000
0000
,
0010
0000
1000
0000
,
0001
0000
0100
0000
,
0001
0000
0000
0000
,
1000
0000
0100
0000
,
1000
0000
0000
0000
,
0100
0100
0100
0000
,
2000
0000
3001
0000
,
0002
0000
1003
0000
,
1001
0000
0110
0000
,
1001
0000
0000
0000
,
0020
0000
0130
0000
,
0200
0000
0310
0000
,
0220
0000
0000
0000
,
0330
0000
0000
0000
,
0001
1000
0001
1000
,
0001
0000
0000
0000
,
1000
0001
1000
0001
,
1000
0000
0000
0000
,
0002
0000
0000
0003
,
2000
0000
0000
3000
,
0010
0000
0100
0000
,
0110
0000
0000
0000
,
0001
0100
0001
0100
,
0001
0000
0000
0000
,
1000
0100
1000
0100
,
1000
0000
0000
0000
,
0002
0000
1003
0000
,
2000
0000
3001
0000
,
0002
0000
0013
0000
,
2000
0000
3010
0000
,
0010
0000
0100
0000
,
0110
0000
0000
0000
,
2002
0000
0000
0000
,
3003
0000
0000
0000
,
2000
0000
3002
0000
,
1003
0000
0000
0000
,
0000
0000
1001
0000
,
0000
0000
0000
0000
,
0000
0000
0000
0000
,
0000
0000
0000
0000
,
0000
0000
0000
0000
,
1000
0100
0010
0000
,
0001
0100
0010
0000
,
1000
0001
1000
0001
,
2000
0000
3000
0000
,
0002
0003
2000
3000
,
0020
0030
0200
0300
,
0001
0100
0001
0100
,
0002
0000
0000
0003
;

//---------------dance-single - ----------------
#NOTEDATA:;
#STEPSTYPE:dance-single;
#DIFFICULTY:Medium;
#METER:9;
#NOTES:
0000
0000
0000
0000
,
0000
0000
0000
0000
,
0000
0000
0000
0000
,
0001
0010
0001
0000
1000
0010
1000
0000
,
1001
0000
0000
0000
,
1000
0100
1000
0000
0001
0100
0001
0000
,
1001
0000
0000
0000
,
0002
0000
0003
1000
2000
0000
3000
0001
,
0001
0000
0000
0000
,
2002
0000
0000
0000
,
0000
0000
0000
0000
,
0000
3003
0000
0000
,
0000
0000
0000
0000
,
0001
1000
0001
1000
0001
0000
0000
0000
,
1000
0001
1000
0001
1000
0000
0000
0000
,
0001
0000
0000
0000
0020
0030
0000
0000
0200
0000
0300
0000
2000
0000
0000
3000
,
0001
1000
0001
1000
0001
0000
0200
0300
,
0001
0100
0001
0000
1000
0100
1000
0000
,
0001
0100
0001
0100
0001
0000
0000
0000
,
1000
0001
0010
0000
0001
1000
0010
0000
,
1000
0010
1000
0010
1000
0000
0000
0000
,
0000
0000
0000
0000
,
0001
0000
0000
1000
0000
0000
0000
0000
,
0001
0000
0000
1000
0000
1000
0000
0000
,
0100
0000
0000
0010
0000
0000
0000
0000
,
0001
0000
0000
0010
0000
0010
0000
0000
,
0001
0000
0000
1000
0000
0000
0000
0000
,
0010
0000
0000
0100
0000
0100
0000
0000
,
0001
0000
0000
0100
0010
0000
0000
0000
,
0110
0000
0000
0000
,
0001
1000
0001
0000
1000
0001
1000
0000
,
0001
1000
0010
0000
1000
0001
0010
0000
,
0001
1000
0100
0000
1000
0001
0100
0000
,
0001
0010
0100
0000
1000
0010
0100
0000
,
0000
0110
0000
1001
,
0001
1000
0100
0000
0020
0000
0130
0000
,
0010
0100
0010
0100
0010
0000
0002
0000
,
0010
0100
0010
0100
,
1000
0010
0103
0000
,
0001
1000
0001
1000
0001
1000
0001
0000
,
1000
0001
1000
0001
1000
0001
2000
0000
,
0010
0100
0010
0100
,
0001
0010
3100
0000
,
0020
0000
0000
0000
0000
0200
0000
0000
,
0000
0000
0000
0330
,
1000
0001
1000
0000
0001
1000
0001
0000
,
1000
0000
1000
0002
0000
0003
0000
0000
,
0001
0010
0001
0000
1000
0010
1000
0000
,
0001
0000
0001
2000
0000
3000
0000
0000
,
0002
0203
2300
3200
,
0302
0000
0000
1003
0000
0000
0000
0000
,
0001
0100
0010
0000
1000
0100
0010
0000
,
0110
0000
0002
0013
,
0001
0010
0001
0010
0001
0010
0001
0010
,
0001
0000
0001
2000
0000
3000
0000
0000
,
1000
0010
1000
0010
1000
0010
1000
0010
,
1000
0000
2000
3000
0000
0000
0000
0000
,
0002
0000
0003
0010
0100
0000
0000
0000
,
2000
0000
3000
0010
0100
0000
0000
0000
,
0002
0000
0003
0100
0010
0000
0000
0000
,
2000
0000
3000
0100
0010
0000
0000
0000
,
0002
0000
0003
0100
0020
0000
0030
1000
,
0100
0000
0000
0000
,
0020
0000
0000
0200
0000
0000
0000
0000
,
0330
0000
0000
0000
0000
0000
0000
0000
1000
0000
0000
0001
0000
0000
1000
0000
,
0002
0000
0003
0010
0200
0000
0300
1000
,
0001
0000
0000
0000
,
0000
0000
0000
0000
0000
0000
0000
0000
0000
0000
0000
0000
1000
0000
0000
0000
0000
0001
0000
0000
0000
0000
1000
0000
,
0000
0001
0000
0000
0000
0000
0000
0000
0000
0000
0000
0200
0000
0000
0000
0020
0000
0000
0000
0000
0000
0000
0000
0000
,
0000
0000
0000
0000
0000
0000
0000
0330
,
0000
0000
0000
0000
,
0000
0000
2002
3003
,
1000
0100
1000
0100
1000
0000
0000
0000
,
0001
0100
0001
0100
0001
0000
0000
0000
,
1000
0000
0000
0000
0200
0300
0000
0000
0020
0000
0030
0000
0002
0000
0000
0003
,
0010
0100
0010
0100
0020
0000
0030
0000
,
0001
1000
0001
1000
0001
1000
0001
0000
,
0100
0001
0100
0001
0100
0000
0000
0000
,
0001
0100
0020
0030
1000
0100
0020
0030
,
0001
1000
0001
1000
0002
0000
0003
0000
;

//---------------dance-single - ----------------
#NOTEDATA:;
#STEPSTYPE:dance-single;
#DIFFICULTY:Hard;
#METER:14;
#NOTES:
0000
0000
0000
0000
,
0000
0000
0000
0000
,
0000
0000
0000
0000
,
1000
0100
0001
0100
1000
0100
0001
0100
,
1000
0000
0000
0000
0000
0001
0001
0001
,
1000
0010
0001
0010
1000
0010
0001
0010
,
1000
0000
0000
0000
0000
0000
0000
0000
0010
0000
0000
0100
0000
0000
0001
0000
,
2000
0000
3000
0100
0002
0000
0003
0100
,
1000
0000
0000
0000
0000
0000
0000
0000
0001
0000
0000
0100
0000
0000
0010
0000
,
2000
0000
3000
0100
0020
0000
0000
0000
,
0000
0000
0000
0000
,
0000
0030
0000
0000
,
0000
0000
0021
1000
,
0031
0000
0010
0000
1000
0000
0010
0000
0100
1000
0002
0000
0003
0000
2000
0000
,
0000
0000
3010
0000
0001
0000
0010
0000
0100
0001
1000
0000
0000
0000
0000
0000
,
1000
0100
1000
0100
0010
0001
0010
0001
,
2000
3020
0230
0302
2003
0000
3002
0003
,
1000
0010
0001
0010
1000
0010
0001
0010
,
1000
0100
0001
0200
0300
2000
0000
3000
,
0100
1000
0020
0000
1030
0100
0010
0001
,
0100
1000
0001
0010
2000
0000
3000
0000
,
0000
0000
0000
0000
,
1001
0000
0010
1001
0000
0000
0010
0000
,
1001
0000
0010
1001
0000
1001
0010
0000
,
1001
0000
0100
1001
0000
0000
0100
0000
,
1001
0000
0000
0000
0100
0000
0010
0100
0010
0100
0010
0000
0110
0000
0000
0000
,
0110
0000
1000
0110
0000
0000
0001
0000
,
0110
0000
1000
0110
0000
0110
0001
0000
,
0110
0000
0000
1001
0110
0000
0000
0000
,
1001
0000
0000
0000
,
0001
0100
0001
0100
1000
0100
1000
0100
,
1000
0010
1000
0010
0001
0010
0001
0010
,
0001
0100
0001
0100
0010
1000
0010
1000
,
0100
0010
0100
0010
0001
1000
0001
1000
,
0000
0110
0000
1001
,
0001
1000
0010
0000
0210
0000
0310
0000
,
0110
0000
0110
0000
0110
0000
0110
0000
0110
0000
0000
0000
0010
0100
0010
0100
,
0020
0100
0001
0100
,
1000
0100
0001
0130
,
0001
1000
0010
0100
1000
0001
0010
0100
,
0001
1000
0100
0010
1000
0001
0010
0001
,
0200
0001
0010
0001
,
1000
0001
1300
1001
,
0001
0100
0001
0100
0010
1000
0010
1000
,
0100
0000
0010
0000
0100
0000
0010
0000
0001
1000
0001
0000
1000
0001
1000
0000
,
0001
0000
0001
0100
0001
0000
0000
0000
1000
0000
1000
0100
1000
0000
0000
0000
,
0020
0000
0100
0130
0000
0000
1001
0000
,
1000
0000
1000
0010
1000
0000
0000
0000
0001
0000
0001
0010
0001
0000
0000
0000
,
0020
0000
0100
0130
0000
0000
2001
0000
,
0010
3002
0010
2003
,
0020
0000
0030
3001
0000
0000
1002
0000
,
0010
2003
0010
3002
0100
2003
0100
3001
,
1001
0000
2000
3100
,
1000
0100
0001
0100
0010
0100
1000
0100
,
0010
0000
0001
0100
0000
0100
0100
0100
,
0001
0100
1000
0100
0010
0100
0001
0100
,
0010
1001
0000
0000
,
1000
0010
0001
0010
1000
0010
0001
0010
,
1000
0100
0001
0100
1000
0100
0001
0100
,
0010
0001
0100
0001
0010
0001
0100
0001
,
1000
0010
1000
0100
1000
0010
1000
0100
,
1000
0010
0100
0001
1000
0010
0100
0001
,
1000
0000
1000
0000
1000
0000
0000
0000
0001
1000
0001
1000
0001
0000
0000
0000
,
1000
0100
0010
0001
1000
0100
0010
0001
,
1001
0000
0000
0000
1000
0001
1000
0001
1000
0001
1000
0001
1000
0000
0000
0000
,
0001
0010
0001
0010
0001
0000
0000
0000
1000
0010
1000
0010
1000
0000
0000
0000
,
0001
1000
0001
1000
0001
0000
0000
0000
0000
0000
0000
0000
0000
0000
0000
0000
,
0000
0000
0000
0000
0000
0000
0000
0000
0000
0000
0000
0000
1000
0000
0000
0000
0000
0010
0000
0000
0000
0000
0001
0000
,
0000
1000
0000
0000
0000
0000
0000
0000
0000
0000
0000
0200
0000
0000
0000
0002
0000
0000
0000
0000
0000
0000
0000
0000
,
0000
0000
0000
0000
0000
0000
0000
0303
,
0000
0000
0000
0000
,
0000
0000
1020
0001
,
1030
0000
0010
0000
0001
0000
0010
0000
0100
0001
0010
0000
0000
0000
0002
0000
,
0000
0000
0013
0000
1000
0000
0010
0000
0100
1000
0010
0000
0000
0000
0000
0000
,
1000
0010
0200
0300
0001
0010
0200
0000
,
1000
0010
0001
0010
2300
0000
3002
0003
,
1000
0100
0001
0100
1000
0100
0001
0100
,
1000
0010
0100
0002
0003
2000
0000
3000
,
0001
0100
0020
0030
1000
0001
0010
0100
,
1000
0010
0001
1000
0200
0000
0300
0000
;

//---------------dance-single - ----------------
#NOTEDATA:;
#STEPSTYPE:dance-single;
#DIFFICULTY:Challenge;
#METER:12;
#BPMS:0=165,185=330,186.3333=247.5,187.3333=165,194=330,195.3333=247.5,196.3333=165,219=330,220.3333=247.5,221.3333=165;
#NOTES:
0000
0000
0000
0000
,
0000
0000
0000
0000
,
0000
0000
0000
0000
2000
3000
0200
0300
,
0010
0100
0001
0100
0010
0100
1000
0100
,
0020
0000
0030
0000
0000
0100
0100
0100
,
0010
0001
0100
0010
0100
1000
0100
0010
,
0200
0000
0000
0000
0300
0000
0000
0000
1000
0000
0000
0100
0000
0000
0001
0000
,
0020
0000
0030
0001
2000
0000
3000
0010
,
0100
0000
0000
0000
0000
0000
0000
0000
0001
0000
0000
0010
0000
0000
1000
0000
,
0020
0000
0030
0001
0200
0000
0000
0000
,
0000
0000
0000
0000
,
0000
0300
0000
0000
,
0000
0000
0002
1003
,
0012
0003
2010
3000
0012
0003
1010
0000
,
0102
0003
2100
3000
0012
0003
MMMM
0000
,
1200
0300
0201
0300
1200
0300
0201
0300
,
0002
0000
1000
0000
1000
0000
2003
3000
,
0002
0000
0100
0000
2000
0003
0100
0000
,
0002
3000
0100
0000
2000
0003
3100
0000
,
1001
0000
2020
0030
0000
3000
0102
0003
,
2000
3000
0021
0000
1000
0000
0000
0000
,
0130
0000
0000
0000
0000
0000
0000
0000
0000
0000
0000
0000
0000
0000
0000
0000
0000
0000
0000
0000
0000
0000
0000
0000
0000
0000
0000
0000
0000
0000
0000
0000
0000
0000
0000
0000
0002
0000
0000
0000
0000
0000
0000
0000
0000
0000
0000
0000
0003
0000
0000
0000
0000
0000
0000
0000
0000
0000
0000
0000
0200
0300
0000
0000
0000
0000
0000
0000
0000
0000
0000
0000
0200
0300
0000
0000
0000
0000
0000
0000
0000
0000
0000
0000
0000
0000
0000
0000
0000
0000
0000
0000
0000
0000
0000
0000
,
1000
0000
0000
0000
0000
0000
0000
0000
0000
0000
0000
0000
0000
0000
0000
0000
0000
0000
0000
0000
0000
0000
0000
0000
0000
0000
0000
0000
0000
0000
0000
0000
0000
0000
0000
0000
0000
0000
0000
0000
0000
0000
0000
0000
0000
0000
0000
0000
1000
0000
0000
0000
0000
0000
0000
0000
0000
0000
0000
0000
0200
0300
0000
0000
0000
0000
0000
0000
0000
0000
0000
0000
0200
0300
0000
0000
0000
0000
0000
0000
0000
0000
0000
0000
0020
0000
0000
0000
0000
0000
0000
0000
0000
0000
0000
0000
,
0030
2000
3000
0100
0000
0000
0000
1000
,
0020
0000
0000
0000
0000
0000
0000
0000
0000
0000
0000
0000
0000
0000
0000
0000
0000
0000
0000
0000
0000
0000
0000
0000
0030
0000
0000
0000
0000
0000
0000
0000
0000
0000
0000
0000
0200
0300
0000
0000
0000
0000
0000
0000
0000
0000
0000
0000
0200
0300
0000
0000
0000
0000
0000
0000
0000
0000
0000
0000
2000
0000
0000
0000
0000
0000
0000
0000
0000
0000
0000
0000
3000
0000
0000
0000
0000
0000
0000
0000
0000
0000
0000
0000
0002
0000
0000
0000
0000
0000
0000
0000
0000
0000
0000
0000
,
0003
0000
0000
0000
0000
0000
0000
0000
0000
0000
0000
0000
0010
0000
0000
0000
0000
0000
0000
0000
0000
0000
0000
0000
0001
0000
0000
0000
0000
0000
0000
0000
0000
0000
0000
0000
0200
0300
0000
0000
0000
0000
0000
0000
0000
0000
0000
0000
0200
0300
0000
0000
0000
0000
0000
0000
0000
0000
0000
0000
1000
0000
0000
0000
0000
0000
0000
0000
0000
0000
0000
0000
0020
0000
0000
0000
0000
0000
0000
0000
0000
0000
0000
0000
0030
0000
0000
0000
0000
0000
0000
0000
0000
0000
0000
0000
,
0001
0000
0000
0000
0000
0000
0000
0000
0000
0000
0000
0000
0000
0000
0000
0000
0000
0000
0000
0000
0000
0000
0000
0000
0000
0000
0000
0000
0000
0000
0000
0000
0000
0000
0000
0000
0000
0000
0000
0000
0000
0000
0000
0000
0000
0000
0000
0000
0020
0030
0000
0000
0000
0000
0000
0000
0000
0000
0000
0000
0020
0030
0000
0000
0000
0000
0000
0000
0000
0000
0000
0000
0001
0000
0000
0000
0000
0000
0000
0000
0000
0000
0000
0000
0010
0000
0000
0000
0000
0000
0000
0000
0000
0000
0000
0000
,
0000
0010
0000
0010
0000
0000
0000
0001
,
0010
0000
0010
0000
0010
0002
0000
0013
,
0000
0110
0000
0001
,
0200
0000
0300
0000
1000
0100
0001
0010
,
0000
0001
0000
0001
0000
0000
0000
1000
,
0020
0000
0000
0031
0010
2000
0000
3001
,
0000
0000
0000
0001
0100
0000
0001
0000
,
1000
0000
0000
0000
0000
0000
0000
0000
0000
0000
0000
0000
0000
0000
0000
0000
0000
0000
0000
0000
0000
0000
0000
0000
0000
0000
0000
0000
0000
0000
0000
0000
0000
0000
0000
0000
0001
0000
0000
0000
0000
0000
0000
0000
0000
0000
0000
0000
0010
0000
0000
0000
0000
0000
0000
0000
0000
0000
0000
0000
0000
0000
0000
0000
0000
0000
0000
0000
0000
0000
0000
0000
0000
0000
0000
0000
0000
0000
0000
0000
0000
0000
0000
0000
0200
0300
0000
0000
0000
0000
0000
0000
0000
0000
0000
0000
,
0200
0300
0000
0000
0000
0000
0000
0000
0000
0000
0000
0000
0010
0000
0000
0000
0000
0000
0000
0000
0000
0000
0000
0000
0100
0000
0000
0000
0000
0000
0000
0000
0000
0000
0000
0000
0000
0000
0000
0000
0000
0000
0000
0000
0000
0000
0000
0000
0002
0000
0000
0000
0000
0000
0000
0000
0000
0000
0000
0000
0000
0000
0000
0000
0000
0000
0000
0000
0000
0000
0000
0000
0003
0000
0000
0000
0000
0000
0000
0000
0000
0000
0000
0000
0000
0000
0000
0000
0000
0000
0000
0000
0000
0000
0000
0000
,
1000
0010
1000
0100
1000
0000
0020
0000
,
0130
0000
0000
0000
,
0000
0000
0000
0000
,
0100
0100
0100
0100
0100
0100
0100
0100
,
0100
0100
0100
0100
0100
0100
0200
0000
,
0300
0000
0000
0000
,
0000
0000
0000
0000
0000
0000
0020
0030
,
0000
0001
0010
1000
0020
0000
0030
0000
0100
0100
0100
0100
,
0100
0100
0200
0000
0000
0300
0000
0000
0000
0000
0000
0000
,
0012
0003
2010
3000
0012
0003
2010
3000
,
0011
0000
2200
0000
0000
0000
0000
3300
,
MMMM
0000
0102
0003
2100
3000
0102
0003
,
2100
3000
0101
0000
2002
0000
0000
0000
,
0000
3003
MMMM
0000
0012
0003
2010
3000
,
0012
0003
2010
3000
0012
0003
2010
3000
,
0012
0003
0110
0000
1001
0000
0110
0000
,
1001
0220
0000
0330
,
0011
0000
MMMM
0000
0012
0003
2010
3000
,
0012
0003
2010
3000
0011
0000
2200
0000
,
0000
0000
0000
3300
MMMM
0000
0102
0003
,
2100
3000
0102
0003
2100
3000
0101
0000
,
2001
0000
3000
0000
0002
0000
0000
0023
0000
0000
1030
0000
0020
0000
0000
0000
,
0000
0130
0002
0000
0103
0020
0000
0030
,
0000
0002
0203
2300
,
0000
0000
3100
0000
0020
0000
0000
0230
0000
0000
0301
0000
2000
0000
3000
0000
,
0000
0200
0302
2003
,
0000
3010
0002
0000
0000
0103
1000
0000
,
0000
0000
0001
0010
0001
0000
0020
0000
,
0000
2030
0000
0000
0000
0000
3000
0000
,
0000
0000
0000
0000
2000
0000
0000
3020
0000
0000
0031
0000
2000
0000
0000
0000
,
0000
3100
0002
0000
0000
0013
2000
0000
,
3000
0000
0000
0000
,
0000
0000
0000
0000
0000
0000
2000
0000
0000
0000
0000
3020
0000
0000
0000
0000
0032
0000
0000
0203
0000
0000
0000
0000
,
0000
0000
0000
0000
0000
0320
0000
0000
0000
0200
0000
0000
0000
0000
0000
0000
0000
0000
0000
0000
0000
0000
0000
0000
,
0000
0000
0000
0000
0000
0330
0000
0000
,
0000
0000
0000
0000
,
0000
0000
0002
0000
1003
0000
0012
0003
,
2010
3000
0012
0003
1010
0000
0102
0003
,
2100
3000
0012
0003
MMMM
0000
1200
0300
,
0201
0300
1200
0300
0201
0300
0002
0000
,
1000
0000
1000
0000
2003
3000
0002
0000
,
0100
0000
2000
0003
0100
0000
0002
3000
,
0100
0000
2000
0003
3100
0000
1001
0000
,
2020
0030
0000
3000
0102
0003
2000
3000
,
0021
1000
0000
0130
,
0000
0000
0000
0100
0100
0000
0000
0000
0200
0000
0300
0100
,
0100
0100
0100
0100
0100
0000
0000
0000
0000
0000
0000
0000
,
0000
0000
0000
0000
;

//---------------dance-double - ----------------
#NOTEDATA:;
#STEPSTYPE:dance-double;
#DIFFICULTY:Easy;
#METER:5;
#NOTES:
00000000
00000000
00000000
00000000
,
00000000
00000000
00000000
00000000
,
00000000
00000000
00000000
00000000
,
00000000
00000000
00000000
00000000
,
00000000
00000000
00000000
00000000
,
00000000
00000000
00000000
00000000
,
00000000
00000000
00000000
00000000
,
00001000
00000000
00010000
00000000
,
00001000
00000000
00000000
00000000
,
00022000
00000000
00000000
00000000
,
00000000
00000000
00000000
00000000
,
00000000
00033000
00000000
00000000
,
00000000
00000000
00000000
00000000
,
00001000
01000000
00010000
00000000
,
01000000
00010000
10000000
00000000
,
01000000
00010000
00001000
00000010
,
00000002
00000000
00001003
00000000
,
00000001
00000100
00001000
00000000
,
00010000
00001000
00100000
00000000
,
00110000
00000000
00101000
00000000
,
00022000
00000000
00000000
00033000
,
00000000
00000000
00000000
00000000
,
00001000
00000000
00001000
00000000
,
00000100
00000000
00000100
00000000
,
00000001
00000000
00000001
00000000
,
00000010
00000000
00000010
00000000
,
00001000
00000000
00001000
00000000
,
00010000
00000000
00010000
00000000
,
01000000
00000000
01000000
00000000
,
10000000
00000000
00000000
00000000
,
00010000
00000000
10000000
00000000
,
01000000
00000000
00010000
00000000
,
00001000
00000000
00000010
00000000
,
00000001
00000000
00000100
00000000
,
00001000
00000000
00010000
00000000
,
00002000
00000000
00003000
00000000
,
00100000
00010000
00100000
00000000
,
02200000
00000000
03300000
00000000
,
20020000
00000000
30030000
00000000
,
10000000
00100000
00010000
00000000
,
00001000
00000010
00000001
00000000
,
00002002
00000000
00003003
00000000
,
00000220
00000000
00000330
00000000
,
00002002
00000000
00000000
00000000
,
00003003
00000000
00000000
00000000
,
00000001
00001000
00000100
00010000
,
00001000
00000000
00000000
00000000
,
00010000
00001000
00100000
00010000
,
10000000
00000000
00000000
00000000
,
10000000
00000000
01000000
00000000
,
00010000
00000000
00001000
00000000
,
00000010
00000000
00000100
00000000
,
00000110
00000000
00000000
00000000
,
00000001
00000010
00001000
00010000
,
00001000
00000000
00000000
00000000
,
00001000
00010000
01000000
10000000
,
00010000
00000000
00000000
00000000
,
20000000
00000000
31000000
00000000
,
00020000
00000000
00031000
00000000
,
00000020
00000000
00000031
00000000
,
00000200
00000000
00001300
00000000
,
00020000
00000000
00130000
00000000
,
10000000
00000000
00010000
10000000
,
00020000
00000000
00000000
00000000
,
00030000
00000000
00000000
00000000
,
00200000
00000000
00302000
00000000
,
00013000
00000000
00000000
00000000
,
00000000
00000000
00011000
00000000
,
00000000
00000000
00000000
00000000
,
00000000
00000000
00000000
00000000
,
00000000
00000000
00000000
00000000
,
00000000
00000000
00000000
00000000
,
00010000
00001000
00100000
00000000
,
00001000
00010000
00000010
00000000
,
00010000
00001000
00010000
00001000
,
00020000
00000000
00030000
00000000
,
00000100
00001000
00000001
00000100
,
00001000
00010000
00001000
00000000
,
00100000
00010000
01000000
00100000
,
02000000
00000000
00000000
03000000
;

//---------------dance-double - ----------------
#NOTEDATA:;
#STEPSTYPE:dance-double;
#DIFFICULTY:Medium;
#METER:10;
#NOTES:
00000000
00000000
00000000
00000000
,
00000000
00000000
00000000
00000000
,
00000000
00000000
00000000
00000000
,
00020000
00230000
20300000
32000000
,
03010000
00000000
00000000
00000000
,
00002000
00003020
00000032
00000203
,
00001300
00000000
00000000
00000000
,
00020000
00000000
00030000
01000000
20000000
00000000
30000000
00100000
,
00010000
00000000
00000000
00000000
,
00022000
00000000
00000000
00000000
,
00000000
00000000
00000000
00000000
,
00000000
00033000
00000000
00000000
,
00000000
00000000
00000000
00000000
,
00001000
00010000
00001000
00010000
00001000
00000000
00000000
00000000
,
00100000
00010000
00100000
00010000
00100000
00000000
00000000
00000000
,
01000000
00000000
00000000
00000000
00020000
00030000
00000000
00000000
00002000
00000000
00003000
00000000
00000020
00000000
00000000
00000030
,
00000100
00000010
00000100
00000010
00000100
00000000
00002000
00003000
,
00000001
00000100
00000010
00000000
00001000
00000100
00000010
00000000
,
00000100
00000010
00001000
00020000
00030000
00000000
00000000
00000000
,
00001000
00010000
01000000
00000000
01000000
00010000
00001000
00000000
,
00010000
00001000
00010000
00001000
00010000
00000000
00000000
00000000
,
00000000
00000000
00000000
00000000
,
00000010
00000000
00000000
00011000
00000000
00000000
00000000
00000000
,
00100000
00000000
00000000
01000000
00000000
01000000
00000000
00000000
,
00100000
00000000
00000000
00011000
00000000
00000000
00000000
00000000
,
00000010
00000000
00000000
00000100
00000000
00000100
00000000
00000000
,
00000010
00000000
00000000
00011000
00000000
00000000
00000000
00000000
,
00100000
00000000
00000000
01000000
00000000
01000000
00000000
00000000
,
01100000
00000000
00000000
10000000
00010000
00000000
00000000
00000000
,
10010000
00000000
00000000
00000000
,
20000000
30020000
00230000
00302000
,
00023000
00030200
00002300
00003002
,
00002003
00003020
00020030
00032000
,
02003000
03020000
10030000
00000000
,
00000000
10010000
00000000
00101000
,
00000000
00010100
00000000
00001001
,
00000001
00001000
00000010
00010000
00001000
00000000
00020000
00000000
,
00000010
00000100
00000010
00000100
,
00001000
00000010
00030100
00000000
,
00020000
00032000
00003200
00002300
,
00023000
02030000
03020000
00032000
,
00100000
01000000
00100000
01000000
,
00010000
00100000
01003000
00000000
,
00002000
00000000
00000000
00000000
00000000
00020000
00000000
00000000
,
00000000
00000000
00000000
00033000
,
00001000
01000000
00001000
01000000
00001000
01000000
00001000
01000000
,
00001000
00000000
00001000
00020000
00000000
00030000
00000000
00000000
,
00010000
00000100
00010000
00000100
00010000
00000100
00010000
00000100
,
00010000
00000000
00010000
00002000
00000000
00003000
00000000
00000000
,
00002000
00023000
02030000
23000000
,
30020000
00000000
00000000
01030000
00000000
00000000
00000000
00000000
,
00001000
01000000
00001000
00000000
00010000
00000100
00010000
00000000
,
00011000
00000000
00020000
00030010
,
00010000
00000010
00010000
00000010
00010000
00000010
00010000
00000010
,
00010000
00000000
00010000
00002000
00000000
00003000
00000000
00000000
,
00001000
00100000
00001000
00100000
00001000
00100000
00001000
00100000
,
00001000
00000000
00002000
00003000
00000000
00000000
00000000
00000000
,
00020000
00000000
00030000
00000100
00001000
00000000
00000000
00000000
,
00000002
00000000
00000003
00000100
00000010
00000000
00000000
00000000
,
00002000
00000000
00003000
00000010
00010000
00000000
00000000
00000000
,
00002000
00000000
00003000
00100000
00010000
00000000
00000000
00000000
,
20000000
00000000
30000000
00010000
02000000
00000000
03000000
00100000
,
01000000
00000000
00200000
00320000
,
00032000
00000000
00000000
00003200
00000000
00000000
00000000
00000000
,
00000300
00000000
00000000
00000000
00000000
00000000
00000000
00000000
00000001
00000000
00000000
00001000
00000000
00000000
00000001
00000000
,
00002000
00000000
00000000
00003100
00000020
00000000
00000000
00001030
,
00010000
00000000
00000000
00000000
,
00000000
00000000
00000000
00000000
00000000
00000000
00000000
00000000
00000000
00000000
00000000
00000000
00001000
00000000
00000000
00000000
00000000
00010000
00000000
00000000
00000000
00000000
01000000
00000000
,
00000000
00010000
00000000
00000000
00000000
00000000
00000000
00000000
00000000
00000000
00000000
00002000
00000000
00000000
00000000
00020000
00000000
00000000
00000000
00000000
00000000
00000000
00000000
00000000
,
00000000
00000000
00000000
00000000
00000000
00000000
00000000
00033000
,
00000000
00000000
00000000
00000000
,
00000000
00000000
00010010
00001001
,
00000001
00000100
00001000
00010000
00100000
10000000
00020000
00030000
,
10000000
01000000
00010000
00001000
00000010
00000001
00002000
00003000
,
00001001
00010010
01001000
10010000
,
10000000
01000000
00010000
01000000
20000000
00000000
30000000
00000000
,
00020000
02030000
03200000
00320000
,
00032000
00003020
00000230
00000302
,
00000103
00000010
00002000
00000000
01003000
00100000
00020000
00000000
,
00031000
00010000
00001000
00010000
00002000
00000000
00003000
00000000
;

//---------------dance-double - ----------------
#NOTEDATA:;
#STEPSTYPE:dance-double;
#DIFFICULTY:Hard;
#METER:14;
#NOTES:
00000000
00000000
00000000
00000000
,
00000000
00000000
00000000
00000000
,
00000000
00000000
00000000
00000000
,
00001000
00010000
01000000
00010000
00001000
00010000
01000000
00010000
,
00001000
00000000
00000000
00000000
00000000
00001000
00001000
00001000
,
00010000
00001000
00000100
00001000
00010000
00001000
00000100
00001000
,
00010000
00000000
00000000
00000000
00000000
00000000
00000000
00000000
00001000
00000000
00000000
00010000
00000000
00000000
00000100
00000000
,
00002000
00000000
00003000
00000001
00002000
00000000
00003000
00000001
,
00000100
00000000
00000000
00000000
00000000
00000000
00000000
00000000
00000001
00000000
00000000
00000100
00000000
00000000
00001000
00000000
,
00020000
00000000
00030000
00100000
20000000
00000000
00000000
00000000
,
00000000
00000000
00000000
00000000
,
00000000
30000000
00000000
00000000
,
00000000
00000000
10200000
00010000
,
10300000
00000000
00100000
00000000
00010000
00000000
00001000
00000000
00000100
00000010
00000100
00000000
00000000
00000000
00000002
00000000
,
00000000
00000000
00000013
00000000
00001000
00000000
00010000
00000000
01000000
00100000
01000000
00000000
00000000
00000000
00000000
00000000
,
10000000
01000000
00100000
00010000
00001000
00000100
00000010
00000001
,
00002000
00003020
00020030
00032000
00203000
00000000
00320000
00030000
,
10000000
01000000
00010000
00001000
00000010
00000001
00000100
00000000
,
00001000
00010000
00100000
20000000
30000000
20020000
00000000
30030000
,
00010000
01000000
00200000
00000000
01300000
00100000
00010000
00001000
,
00000010
00000001
00000100
00001000
00020000
00000000
00030000
00000000
,
00000000
00000000
00000000
00000000
,
00010000
00000000
00010000
00100000
00000000
00000000
00100000
00000000
,
10000000
00000000
10000000
01000000
00000000
01000000
00010000
00000000
,
00001000
00000000
00001000
00000010
00000000
00000000
00000010
00000000
,
00000001
00000000
00000000
00000000
00000001
00000000
00001000
00000001
00001000
00000001
00001000
00000000
00001001
00000000
00000000
00000000
,
00000001
00000000
00000001
00000100
00000000
00000000
00000100
00000000
,
00001000
00000000
00001000
00010000
00000000
00010000
00100000
00000000
,
01100000
00000000
01010000
00000000
,
00011000
00000000
00000000
00000000
,
00001000
00010000
00100000
00010000
00001000
00010000
01000000
00010000
,
00001000
00000010
00001000
00010000
00001000
00000100
00001000
00010000
,
00100000
10000000
01000000
00010000
01000000
10000000
00100000
00010000
,
00001000
00000100
00001000
00010000
01000000
00010000
00001000
00000010
,
00000000
00001001
00000000
00001010
,
00000010
00010000
00001000
00000000
00012000
00000000
00013000
00000000
,
00011000
00000000
00011000
00000000
00011000
00000000
00011000
00000000
00011000
00000000
00000000
00000000
00010000
00001000
00010000
00001000
,
00020000
00001000
00000010
00001000
,
00000100
00001000
01000000
00031000
,
00001000
00010000
00100000
10000000
01000000
00010000
00001000
00000010
,
00000001
00000100
00001000
00010000
01000000
00010000
00001000
00000100
,
00002000
00010000
00100000
00010000
,
01000000
00010000
00003100
00000110
,
00000010
00000100
00000010
00000100
00001000
00010000
00001000
00010000
,
01000000
00000000
00100000
00000000
01000000
00000000
00100000
00000000
00010000
10000000
00010000
00000000
10000000
00010000
10000000
00000000
,
00010000
00000000
00010000
01000000
00010000
00000000
00000000
00000000
10000000
00000000
10000000
01000000
10000000
00000000
00000000
00000000
,
00020000
00000000
00001000
00031000
00000000
00000000
00001001
00000000
,
00000001
00000000
00000001
00000010
00000001
00000000
00000000
00000000
00001000
00000000
00001000
00000010
00001000
00000000
00000000
00000000
,
00000020
00000000
00000100
00000130
00000000
00000000
00001010
00000000
,
00000020
00000030
00002000
00003000
00020000
00030000
00002000
00003000
,
00000020
00000000
00000000
00000130
00000000
00000000
00000110
00000000
,
00000100
00001000
00010000
00000000
00010000
00001000
00000010
00000000
,
00000110
00000000
00000002
00000013
,
00000001
00000100
00000010
00000100
00001000
00010000
00001000
00010000
,
00001000
00000000
00001000
00010000
00000000
00010000
00010000
00010000
,
00001000
00010000
01000000
00100000
01000000
10000000
00010000
01000000
,
00100000
10010000
00000000
00000000
,
10010000
10010000
00101000
00101000
,
00010010
00010010
00001001
00001001
,
00010100
00010100
01001000
01001000
,
10010000
00000000
00000000
00000000
10000000
00010000
10000000
00010000
10000000
00010000
10000000
00010000
10000000
00000000
00000000
00000000
,
10010000
00101000
00010010
00001001
,
00001001
00000000
00001001
00000000
00001001
00000000
00000000
00000000
00000001
00001000
00000001
00001000
00000001
00000000
00000000
00000000
,
00001001
00010100
01001000
10010000
,
00110000
00011000
00001010
00011000
,
00001000
00100000
00001000
00100000
00001000
00000000
00000000
00000000
00010000
00000010
00010000
00000010
00010000
00000000
00000000
00000000
,
00001000
00010000
00001000
00010000
00001000
00000000
00000000
00000000
00000000
00000000
00000000
00000000
00000000
00000000
00000000
00000000
,
00000000
00000000
00000000
00000000
00000000
00000000
00000000
00000000
00000000
00000000
00000000
00000000
00010000
00000000
00000000
00000000
00000000
00001000
00000000
00000000
00000000
00000000
00000100
00000000
,
00000000
00000001
00000000
00000000
00000000
00000000
00000000
00000000
00000000
00000000
00000000
00000020
00000000
00000000
00000000
00000200
00000000
00000000
00000000
00000000
00000000
00000000
00000000
00000000
,
00000000
00000000
00000000
00000000
00000000
00000000
00000000
00000330
,
00000000
00000000
00000000
00000000
,
00000000
00000000
00000021
00001000
,
00000031
00000000
00000010
00000000
00001000
00000000
00010000
00000000
00100000
01000000
00100000
00000000
00000000
00000000
02000000
00000000
,
00000000
00000000
03100000
00000000
00010000
00000000
00001000
00000000
00000010
00000100
00000010
00000000
00000000
00000000
00000000
00000000
,
00000100
00000010
00002000
00003000
00010000
00100000
02000000
03000000
,
00010000
01000000
00100000
01000000
20000000
00000000
32000000
03000000
,
00010000
10000000
01000000
00010000
00001000
00000100
00000001
00000010
,
00001000
00010000
01000000
00200000
00300000
00002000
00000000
00003000
,
00010000
00000100
00000020
00000000
00001030
01000000
00200000
00000000
,
00310000
00001000
00000010
00001000
00020000
00000000
00030000
00000000
;

//---------------dance-double - ----------------
#NOTEDATA:;
#STEPSTYPE:dance-double;
#DIFFICULTY:Challenge;
#METER:12;
#BPMS:0=165,185=330,186.3333=247.5,187.3333=165,194=330,195.3333=247.5,196.3333=165,219=330,220.3333=247.5,221.3333=165;
#NOTES:
00000000
00000000
00000000
00000000
,
00000000
00000000
00000000
00000000
,
00000000
00000000
00000000
00000000
00020000
00030000
00200000
00300000
,
10000000
01000000
00100000
00010000
00001000
00000100
00000010
00000001
,
00000020
00000000
00000030
00000000
00000000
00000010
00000010
00000010
,
00000001
00000100
00000010
00001000
00010000
01000000
00100000
10000000
,
00020000
00000000
00000000
00000000
00030000
00000000
00000000
00000000
10000000
00000000
00000000
00100000
00000000
00000000
00010000
00000000
,
00200000
00000000
00300000
10000000
00020000
00000000
00030000
00100000
,
01000000
00000000
00000000
00000000
00000000
00000000
00000000
00000000
10000000
00000000
00000000
01000000
00000000
00000000
00010000
00000000
,
00002000
00000000
00003000
00010000
00002000
00000000
00000000
00000000
,
00000000
00000000
00000000
00000000
,
00000000
00003000
00000000
00000000
,
00000000
00000000
00020000
00031000
,
00010020
00000030
00201000
00300000
00010020
00000030
00101000
00000000
,
01002000
00003000
10020000
00000000
00030200
00000300
MMMMMMMM
00000000
,
00001200
00000300
00000201
00000300
00001200
00000300
00000201
00000300
,
00000002
00000000
00001000
00000000
00001000
00000000
00002003
00003000
,
00000002
00000100
00002003
00000100
,
00000002
00003000
00000100
00000000
00002000
00000003
00003100
00000000
,
00001001
00000000
00000000
00000000
00020020
00000000
00000030
00000000
00000000
0000MMMM
00030000
00000000
00001002
MMMM0000
00000003
00000000
,
00020000
0000MMMM
00030000
00000000
00002010
00000000
00000000
00000000
00010000
00000000
00000000
00000000
00000000
00000000
00000000
00000000
,
00003100
00000000
00000000
00000000
00000000
00000000
00000000
00000000
00000000
00000000
00000000
00000000
00000000
00000000
00000000
00000000
00000000
00000000
00000000
00000000
00000000
00000000
00000000
00000000
00000000
00000000
00000000
00000000
00000000
00000000
00000000
00000000
00000000
00000000
00000000
00000000
00000002
00000000
00000000
00000000
00000000
00000000
00000000
00000000
00000000
00000000
00000000
00000000
00000003
00000000
00000000
00000000
00000000
00000000
00000000
00000000
00000000
00000000
00000000
00000000
00000200
00000300
00000000
00000000
00000000
00000000
00000000
00000000
00000000
00000000
00000000
00000000
00000200
00000300
00000000
00000000
00000000
00000000
00000000
00000000
00000000
00000000
00000000
00000000
00000000
00000000
00000000
00000000
00000000
00000000
00000000
00000000
00000000
00000000
00000000
00000000
,
00001000
00000000
00000000
00000000
00000000
00000000
00000000
00000000
00000000
00000000
00000000
00000000
00000000
00000000
00000000
00000000
00000000
00000000
00000000
00000000
00000000
00000000
00000000
00000000
00000000
00000000
00000000
00000000
00000000
00000000
00000000
00000000
00000000
00000000
00000000
00000000
00000000
00000000
00000000
00000000
00000000
00000000
00000000
00000000
00000000
00000000
00000000
00000000
00000010
00000000
00000000
00000000
00000000
00000000
00000000
00000000
00000000
00000000
00000000
00000000
00000200
00000300
00000000
00000000
00000000
00000000
00000000
00000000
00000000
00000000
00000000
00000000
00000200
00000300
00000000
00000000
00000000
00000000
00000000
00000000
00000000
00000000
00000000
00000000
00000020
00000000
00000000
00000000
00000000
00000000
00000000
00000000
00000000
00000000
00000000
00000000
,
00000030
00002000
00003000
00010000
00000000
00000000
00000000
01000000
,
00200000
00000000
00000000
00000000
00000000
00000000
00000000
00000000
00000000
00000000
00000000
00000000
00000000
00000000
00000000
00000000
00000000
00000000
00000000
00000000
00000000
00000000
00000000
00000000
00300000
00000000
00000000
00000000
00000000
00000000
00000000
00000000
00000000
00000000
00000000
00000000
00020000
00030000
00000000
00000000
00000000
00000000
00000000
00000000
00000000
00000000
00000000
00000000
00020000
00030000
00000000
00000000
00000000
00000000
00000000
00000000
00000000
00000000
00000000
00000000
00200000
00000000
00000000
00000000
00000000
00000000
00000000
00000000
00000000
00000000
00000000
00000000
00300000
00000000
00000000
00000000
00000000
00000000
00000000
00000000
00000000
00000000
00000000
00000000
00020000
00000000
00000000
00000000
00000000
00000000
00000000
00000000
00000000
00000000
00000000
00000000
,
00030000
00000000
00000000
00000000
00000000
00000000
00000000
00000000
00000000
00000000
00000000
00000000
00001000
00000000
00000000
00000000
00000000
00000000
00000000
00000000
00000000
00000000
00000000
00000000
00000010
00000000
00000000
00000000
00000000
00000000
00000000
00000000
00000000
00000000
00000000
00000000
00002000
00003000
00000000
00000000
00000000
00000000
00000000
00000000
00000000
00000000
00000000
00000000
00002000
00003000
00000000
00000000
00000000
00000000
00000000
00000000
00000000
00000000
00000000
00000000
00000010
00000000
00000000
00000000
00000000
00000000
00000000
00000000
00000000
00000000
00000000
00000000
00000200
00000000
00000000
00000000
00000000
00000000
00000000
00000000
00000000
00000000
00000000
00000000
00000300
00000000
00000000
00000000
00000000
00000000
00000000
00000000
00000000
00000000
00000000
00000000
,
00001000
00000000
00000000
00000000
00000000
00000000
00000000
00000000
00000000
00000000
00000000
00000000
00000000
00000000
00000000
00000000
00000000
00000000
00000000
00000000
00000000
00000000
00000000
00000000
00000000
00000000
00000000
00000000
00000000
00000000
00000000
00000000
00000000
00000000
00000000
00000000
00000000
00000000
00000000
00000000
00000000
00000000
00000000
00000000
00000000
00000000
00000000
00000000
00020000
00030000
00000000
00000000
00000000
00000000
00000000
00000000
00000000
00000000
00000000
00000000
00020000
00030000
00000000
00000000
00000000
00000000
00000000
00000000
00000000
00000000
00000000
00000000
10000000
00000000
00000000
00000000
00000000
00000000
00000000
00000000
00000000
00000000
00000000
00000000
00100000
00000000
00000000
00000000
00000000
00000000
00000000
00000000
00000000
00000000
00000000
00000000
,
00000000
00010000
00000000
00001000
00000000
00000000
00000000
00001000
,
00000010
00000000
00001000
00000000
00010000
00200000
00000000
10300000
,
00000000
01100000
00000000
10000000
,
00200000
00000000
00300000
00000000
00010000
00100000
10000000
01000000
,
00000000
00010000
00000000
00001000
00000000
00000000
00000000
00010000
,
00000020
00000000
00000000
00001030
00000010
00000200
00000000
00000310
,
00000000
00000000
00000000
00000010
00000100
00000000
00000001
00000000
,
00000100
00000000
00000000
00000000
00000000
00000000
00000000
00000000
00000000
00000000
00000000
00000000
00000000
00000000
00000000
00000000
00000000
00000000
00000000
00000000
00000000
00000000
00000000
00000000
00000000
00000000
00000000
00000000
00000000
00000000
00000000
00000000
00000000
00000000
00000000
00000000
00001000
00000000
00000000
00000000
00000000
00000000
00000000
00000000
00000000
00000000
00000000
00000000
00000100
00000000
00000000
00000000
00000000
00000000
00000000
00000000
00000000
00000000
00000000
00000000
00000000
00000000
00000000
00000000
00000000
00000000
00000000
00000000
00000000
00000000
00000000
00000000
00000000
00000000
00000000
00000000
00000000
00000000
00000000
00000000
00000000
00000000
00000000
00000000
00002000
00003000
00000000
00000000
00000000
00000000
00000000
00000000
00000000
00000000
00000000
00000000
,
00002000
00003000
00000000
00000000
00000000
00000000
00000000
00000000
00000000
00000000
00000000
00000000
00000010
00000000
00000000
00000000
00000000
00000000
00000000
00000000
00000000
00000000
00000000
00000000
00010000
00000000
00000000
00000000
00000000
00000000
00000000
00000000
00000000
00000000
00000000
00000000
00000000
00000000
00000000
00000000
00000000
00000000
00000000
00000000
00000000
00000000
00000000
00000000
00002000
00000000
00000000
00000000
00000000
00000000
00000000
00000000
00000000
00000000
00000000
00000000
00000000
00000000
00000000
00000000
00000000
00000000
00000000
00000000
00000000
00000000
00000000
00000000
00003000
00000000
00000000
00000000
00000000
00000000
00000000
00000000
00000000
00000000
00000000
00000000
00000000
00000000
00000000
00000000
00000000
00000000
00000000
00000000
00000000
00000000
00000000
00000000
,
00010000
00001000
00000010
00000001
00000100
00000000
00000020
00000000
,
MMMM0130
MMMM0000
MMMM0000
MMMM0000
,
0000MMMM
0000MMMM
0000MMMM
0000MMMM
,
01000000
01000000
01000000
01000000
01000000
01000000
01000000
01000000
,
01000000
01000000
01000000
01000000
01000000
01000000
02000000
00000000
,
0300MMMM
MMMM0000
0000MMMM
MMMM0000
,
MMMMMMMM
00000000
MMMMMMMM
00000000
MMMMMMMM
00000000
00022000
00033000
,
00000000
00000010
00000010
00000010
00000020
00000000
00000030
00000000
00000100
00000100
00000100
00000100
,
00000100
00000100
00000200
00000000
00000000
00000300
00000000
00000000
00000000
00000000
00000000
00000000
,
00010020
00000030
00201000
00300000
00010020
00000030
00201000
00300000
,
00010010
00000000
00020200
00000000
00000000
00000000
00000000
00030300
,
MMMMMMMM
00000000
00010200
00000300
02001000
03000000
00010200
00000300
,
02001000
03000000
00010100
00000000
00020020
00000000
00000000
00000000
,
00000000
00030030
MMMMMMMM
00000000
00010020
00000030
00201000
00300000
,
00010020
00000030
00201000
00300000
00010020
00000030
00201000
00300000
,
00010020
00000030
00011000
00000000
00010010
00000000
00011000
00000000
,
01001000
00022000
00000000
00033000
,
00010100
00000000
MMMMMMMM
00000000
00010020
00000030
00201000
00300000
,
00010020
00000030
00201000
00300000
00010010
00000000
00020200
00000000
,
00000000
00000000
00000000
00030300
MMMMMMMM
00000000
00010200
00000300
,
02001000
03000000
00010200
00000300
02001000
03000000
00010100
00000000
,
00002001
00000000
00003000
00000000
00000002
00000000
00000000
00000023
00000000
00000000
00001030
00000000
00000020
00000000
00000000
00000000
,
00000000
00000031
00000200
00000000
00001300
00020000
00000000
00030000
,
00000000
00002000
00023000
00230000
,
00000000
00000000
00000000
01300000
00000000
00000000
00200000
00000000
00000000
00000000
20300000
00000000
00000000
00000000
00000000
31000000
00000000
00000000
00200000
00000000
00000000
00300000
00000000
00000000
,
00000000
02000000
03200000
00320000
,
00000000
00130000
00002000
00000000
00000000
00013000
00001000
00000000
,
00000000
00000000
00010000
00000100
00020000
00000000
00030200
00000000
,
00000000
00002300
00000000
00000000
00000000
00000000
00003000
00000000
,
00000000
00000000
00000000
00000000
00000002
00000000
00000000
00000200
00000003
00000000
00001300
00000000
00020000
00000000
00000000
00000000
,
00000000
00031000
02000000
00000000
00000000
03010000
02000000
00000000
,
03000000
00000000
00000000
00000000
,
00000000
00000000
00000000
00000000
00000000
00000000
00200000
00000000
00000000
00000000
00000000
00320000
00000000
00000000
00000000
00000000
00032000
00000000
00000000
00003200
00000000
00000000
00000000
00000000
,
00000000
00000000
00000000
00000000
00000000
00000320
00000000
00000000
00000000
00000200
00000000
00000000
00000000
00000000
00000000
00000000
00000000
00000000
00000000
00000000
00000000
00000000
00000000
00000000
,
00000000
00000000
00000000
00000000
00000000
00000330
00000000
00000000
,
00000000
00000000
00000000
00000000
,
00000000
00000000
00000020
00000000
00001030
00000000
00010020
00000030
,
00201000
00300000
00010020
00000030
00101000
00000000
01002000
00003000
,
10020000
00000000
00030200
00000300
MMMMMMMM
00000000
00001200
00000300
,
00000201
00000300
00001200
00000300
00000201
00000300
00000002
00000000
,
00001000
00000000
00001000
00000000
00002003
00003000
00000002
00000000
,
00000100
00000000
00002000
00000003
00000100
00000000
00000002
00003000
,
00000100
00000000
00002000
00000003
00003100
00000000
00001001
00000000
,
00020020
00000000
00000030
00000000
00000000
0000MMMM
00030000
00000000
00001002
MMMM0000
00000003
00000000
00020000
0000MMMM
00030000
00000000
,
00002010
00010000
00000000
00003100
,
00000000
00000000
00000000
00000100
00000100
00000000
00000000
00000000
00000200
00000000
00000300
00000100
,
00000100
00000100
00000100
00000100
00000100
00000000
00000000
00000000
00000000
00000000
00000000
00000000
,
00000000
00000000
00000000
00000000
;
