
//----- song ID: syou -----//
#TITLE:唱;
#ARTIST:Covered by 滝沢玻琉;
#TITLETRANSLIT:Show;
#ARTISTTRANSLIT:Covered by Haru Takizawa;
#BANNER:Show.png;
#BACKGROUND:Show-bg.png;
#CDTITLE:./CDTitles/DDR WORLD.png;
#MUSIC:Show.ogg;
#SAMPLESTART:67.268;
#SAMPLELENGTH:15;
#BPMS:0=132;
#NOTES:
     dance-single:
     :
     Beginner:
     1:
     :
0000
0000
0000
0000
,
0000
0000
0000
0000
,
0000
0000
0000
0000
,
0000
0000
0000
0000
,
0000
0000
0000
0000
,
0001
0000
0000
0000
,
0000
0000
0000
0000
,
0001
0000
0000
0000
,
0000
0000
0000
0000
,
0010
0000
0000
0000
,
0000
0000
0000
0000
,
1000
0000
0000
0000
,
1000
0000
0000
0000
,
1000
0000
0000
0000
,
0000
0000
0000
0000
,
0010
0000
0000
0000
,
0000
0000
0000
0000
,
1000
0000
0000
0000
,
1000
0000
0000
0000
,
0010
0000
0000
0000
,
0000
0000
0000
0000
,
0001
0000
0000
0000
,
0000
0000
0000
0000
,
0010
0000
0000
0000
,
0000
0000
0000
0000
,
0001
0000
0000
0000
,
0001
0000
0000
0000
,
0010
0000
0000
0000
,
0000
0000
0000
0000
,
0001
0000
0000
0000
,
0010
0000
0000
0000
,
0010
0000
0000
0000
,
1000
0000
0000
0000
,
1000
0000
0000
0000
,
0000
0000
0000
0000
,
0001
0000
0000
0000
,
0000
0000
0000
0000
,
1000
0000
0000
0000
,
0010
0000
0000
0000
,
1000
0000
0000
0000
,
0000
0000
0000
0000
,
0001
0000
0000
0000
,
0010
0000
0000
0000
,
0001
0000
0000
0000
,
0000
0000
0000
0000
,
0001
0000
0000
0000
,
0000
0000
0000
0000
,
0001
0000
0000
0000
,
0001
0000
0000
0000
,
0010
0000
0000
0000
,
0000
0000
0000
0000
,
0010
0000
0000
0000
,
0010
0000
0000
0000
,
1000
0000
0000
0000
,
0000
0000
0000
0000
,
0100
0000
0000
0000
,
0000
0000
0000
0000
;
#NOTES:
     dance-single:
     :
     Easy:
     4:
     :
0000
0000
0000
0000
,
0000
0000
0000
0000
,
0000
0000
0000
0000
,
0000
0000
0000
0000
,
0000
0000
0000
0000
,
0001
0000
0001
0000
,
0010
0000
0000
0000
,
0110
0000
0000
0000
,
1001
0000
0000
0000
,
0000
0000
0000
0000
,
0000
0000
0000
0000
,
1000
0000
0000
0000
,
0001
0000
0000
0000
,
1000
0001
1000
0000
,
0001
0000
0000
0000
,
0001
1000
0001
0000
,
1000
0000
0000
0000
,
0010
0100
0010
0000
,
0100
0000
0000
0000
,
0100
0010
0100
0000
,
0110
0000
0000
0000
,
0001
1000
0001
1000
,
0010
0000
0000
0000
,
1000
0001
1000
0001
,
0010
0000
0000
0000
,
0001
0000
0100
0000
,
0010
0000
1000
0000
,
1000
0000
0100
0000
,
0010
0000
0001
0000
,
2000
0000
0000
0000
,
3000
0000
0000
0000
,
0002
0000
0000
0000
,
0003
0000
0000
0000
,
0100
0000
0010
0000
,
0100
0010
0100
0000
,
0001
0000
1000
0000
,
1001
0000
0000
0000
,
1000
0000
0001
0000
,
0100
0010
0100
0000
,
0002
0000
0000
0003
,
1000
0000
1000
0000
,
1000
0000
0001
0000
,
0010
0100
0010
0000
,
0002
0000
0000
0003
,
1001
0000
0000
0000
,
1000
0100
0010
0000
,
0001
0000
0000
0000
,
0001
0001
0010
0000
,
0001
1000
0001
0000
,
1000
1000
0010
0000
,
1000
0001
1000
0000
,
0001
1000
0100
0000
,
1000
0001
0010
0000
,
0001
0100
0010
0000
,
1000
0000
0001
0000
,
1000
0000
0000
0000
,
0000
0000
0000
0000
;
#NOTES:
     dance-single:
     :
     Medium:
     7:
     :
0000
0000
0000
0000
,
0000
0000
0000
0000
,
0000
0000
0000
0000
,
0000
0000
0000
0000
,
0000
0000
0000
0000
,
1000
0000
0001
0000
,
0100
0010
0100
0000
,
0110
0000
0000
0000
,
1001
0000
0000
0000
,
2000
0000
0000
0000
,
3000
0000
0000
0000
,
0002
0000
0000
0000
,
0003
0000
0000
0000
,
1000
0000
0010
0000
0100
0010
0100
0000
,
0001
0001
1000
0000
,
0001
0000
0010
0000
0100
0010
0100
0000
,
1000
1000
0001
0000
,
1000
0100
1000
0000
0100
0000
0010
0000
,
0001
0000
0000
0100
0000
0000
0001
0000
0100
0000
0000
0000
0010
0000
0000
0000
,
1000
0001
0010
0100
,
1001
0000
0000
1000
0001
0000
0000
0000
,
1000
0000
0000
0000
0001
0000
0000
0000
0100
0000
0000
0010
0000
0000
0100
0000
,
0001
0000
0000
0000
1000
0000
0000
0000
0100
0000
0000
0010
0000
0000
0100
0000
,
1000
1000
0100
0100
,
0010
0001
0010
0000
0001
0000
0000
0000
,
0001
0100
0001
0101
,
1000
0010
1000
1010
,
0001
1000
0001
1000
,
2002
0000
0000
3003
,
0001
0000
0001
0000
0010
0001
0010
0001
,
0010
0010
0100
0110
,
1000
0000
1000
0000
0010
1000
0010
1000
,
0010
0010
0100
0110
,
0001
0010
1000
0000
,
1000
0010
0001
0000
,
1000
0010
0001
0000
,
0001
0010
1000
0000
,
1000
1000
0001
0001
,
0100
0010
0110
0000
,
1000
0010
0100
0000
0001
0010
0100
0000
,
2000
0001
3001
0000
,
1000
1000
0001
0001
,
0100
0010
0110
0000
,
0001
0010
0100
0000
1000
0010
0100
0000
,
0002
0000
0000
0003
,
0001
0000
0010
0000
0001
0100
0010
0000
,
2000
0000
0000
3000
,
1000
0000
0100
0000
0001
0100
1000
0000
,
0001
1000
0001
0000
,
0001
0000
0100
0000
1000
0100
0001
0000
,
1000
0001
1000
0000
,
0001
0000
0010
0000
1000
0010
0001
0000
,
1000
0000
0000
0001
0000
0000
1000
0000
0000
0000
0000
0000
1001
0000
0000
0000
,
1000
0000
0010
0000
0001
0010
1000
0000
,
0002
0000
0000
0003
,
1000
0000
0000
0000
,
0000
0000
0000
0000
;
#NOTES:
     dance-single:
     :
     Hard:
     12:
     :
0000
0000
0000
0000
,
0000
0000
0000
0000
,
0000
0000
0000
0000
,
0000
0000
0000
0000
,
0000
0000
0000
0000
,
1000
0000
0001
0000
,
0100
0010
1001
0000
,
2002
0000
0000
0000
,
3003
0000
0000
0000
,
2000
0000
0000
3000
,
0002
0000
0000
0003
,
0200
0000
0000
0300
,
0020
0000
0000
0030
,
1000
0010
1000
0100
1000
0010
0100
0001
,
0010
0000
0000
0010
0000
0000
0001
0000
1000
0000
0001
0000
1000
0000
0000
0000
,
0001
0010
0001
0100
0001
0010
0100
1000
,
0010
0000
0000
0010
0000
0000
1000
0000
0001
0000
1000
0000
0001
0000
0000
0000
,
1000
0100
0001
0100
1000
0100
0001
0100
,
0010
0000
0100
0010
0000
0100
0010
0000
0001
0000
0000
0000
0001
0000
0100
0000
,
0010
1000
0000
1000
0000
0000
0100
0000
0010
0001
0000
0001
0000
0000
0100
0000
,
0110
0000
0000
0100
0010
0000
1001
0000
,
0001
0000
0010
0000
1000
0000
0010
0000
0001
0010
0000
0001
0000
0000
0001
0000
,
1000
0000
0010
0000
0001
0000
0010
0000
1000
0010
0000
1000
0000
0000
1000
0000
,
0001
0100
1000
0100
0001
0100
1000
0100
,
0001
0000
1000
0100
0010
0000
0001
0000
1000
0000
1000
0000
0002
0000
0000
0000
,
1003
0000
0000
1000
0010
0000
0100
0000
0001
0000
0000
0001
0010
0000
0100
0000
,
1000
0000
0000
1000
0100
0000
0010
0000
0001
0000
0000
0001
0100
0000
0010
0000
,
1000
0000
0000
1100
0000
0000
0110
0000
0001
0000
0000
0101
0000
0000
0110
0000
,
1000
0001
1000
0001
1001
0000
0110
0000
,
1000
0010
0100
0001
1000
0100
0001
0100
,
1000
0001
0100
0020
1000
0000
1030
0000
,
0001
0010
0100
1000
0001
0100
1000
0100
,
0001
1000
0100
0020
0001
0000
0031
0000
,
1000
0010
0110
0000
0001
0010
0110
0000
,
2000
0000
0000
0002
0000
0000
0000
0000
3003
0000
1000
0000
0010
0000
0100
0000
,
0001
0100
0020
0000
0001
0000
1030
0000
,
1001
0000
0000
0000
,
1000
0010
0001
0010
1000
0010
1000
0010
,
0100
0010
0010
0100
0100
0000
0110
0000
,
1000
0000
0010
0000
0100
0000
0001
1000
0001
0000
0010
0000
0100
0000
1000
0001
,
1000
0100
0001
0000
0001
0100
1000
0000
,
1000
0010
0001
0010
1000
0010
1000
0010
,
0100
0010
0010
0100
0100
0000
0110
0000
,
0001
0000
0010
0000
0100
0000
1000
0001
1000
0000
0010
0000
0100
0000
0001
0000
,
0200
2300
3200
0302
,
1003
0100
0010
0001
1000
0010
0100
0001
,
1000
0010
0002
0000
0000
0000
0003
0000
,
0010
0000
0100
0000
0010
0000
0100
0000
0010
0000
0010
0100
0010
0000
0000
0000
,
0100
0010
0100
0010
0010
0000
0110
0000
,
1000
0000
0001
0000
1000
0000
0001
0000
1000
0000
1000
0001
1000
0000
0000
0000
,
0001
1000
0001
1000
1000
0000
1001
0000
,
0001
0000
0010
0000
0100
1000
0000
0001
1000
0000
0010
0000
0100
0000
0010
0000
,
1010
0000
0000
1001
0000
0000
1100
0000
0000
0000
1000
0100
0010
0000
0001
0000
,
1000
0000
0010
0000
0100
0001
0000
1000
0001
0000
0010
0000
0100
0000
0010
0000
,
0001
0010
1000
0000
1000
0010
0001
0000
,
1000
0000
0000
0000
,
0000
0000
0000
0000
;
#NOTES:
     dance-double:
     :
     Easy:
     4:
     :
00000000
00000000
00000000
00000000
,
00000000
00000000
00000000
00000000
,
00000000
00000000
00000000
00000000
,
00000000
00000000
00000000
00000000
,
00000000
00000000
00000000
00000000
,
00001000
00000000
00010000
00000000
,
00001000
00000000
00000000
00000000
,
00022000
00000000
00000000
00000000
,
00033000
00000000
00000000
00000000
,
00000000
00000000
00000000
00000000
,
00000000
00000000
00000000
00000000
,
00001000
00000000
00000000
00000000
,
00010000
00000000
00000000
00000000
,
00001000
01000000
00001000
00000000
,
01000000
00000000
00000000
00000000
,
01000000
00100000
01000000
00000000
,
00100000
00000000
00000000
00000000
,
10000000
00010000
10000000
00000000
,
00010000
00000000
00000000
00000000
,
00010000
00100000
00010000
00000000
,
00100000
00000000
00000000
00000000
,
00100000
00010000
00100000
00001000
,
00010000
00000000
00000000
00000000
,
00010000
00001000
00010000
00000010
,
00001000
00000000
00000000
00000000
,
00000001
00000000
00000100
00000000
,
00000010
00000000
00010000
00000000
,
00001000
00000000
00001000
00000000
,
00010000
00000000
00000000
00000000
,
00002000
00000000
00000000
00000000
,
00003000
00000000
00000000
00000000
,
00020000
00000000
00000000
00000000
,
00030000
00000000
00000000
00000000
,
00001000
00000000
01000000
00000000
,
00010000
00000000
00000000
00000000
,
01000000
00100000
01000000
00000000
,
01100000
00000000
00000000
00000000
,
10000000
00000000
00010000
00000000
,
01000000
00100000
01000000
00000000
,
00001000
00000000
00010000
00000000
,
00000010
00000000
00000000
00000000
,
00001000
00000000
00000001
00000000
,
00000010
00000100
00000010
00000000
,
00000001
00000000
00001000
00000000
,
00000100
00000000
00000000
00000000
,
00010000
00001000
00010000
00000000
,
00010000
00000000
00000000
00000000
,
00010000
00001000
00100000
00000000
,
00100000
00000000
00100000
00000000
,
00010000
10000000
01000000
00000000
,
01000000
00000000
01000000
00000000
,
10000000
01000000
00100000
00000000
,
00010000
00100000
00001000
00000000
,
00010000
00001000
00010000
00000000
,
00000100
00001000
00000100
00000000
,
00000010
00000000
00000000
00000000
,
00000000
00000000
00000000
00000000
;
#NOTES:
     dance-double:
     :
     Medium:
     7:
     :
00000000
00000000
00000000
00000000
,
00000000
00000000
00000000
00000000
,
00000000
00000000
00000000
00000000
,
00000000
00000000
00000000
00000000
,
00000000
00000000
00000000
00000000
,
00010000
00000000
00001000
00000000
,
00010000
00001000
00010000
00000000
,
00022000
00000000
00000000
00000000
,
00033000
00000000
00000000
00000000
,
00001000
00000000
00010000
00000000
,
00000010
00000000
00000000
00000000
,
00000010
00000000
00001000
00000000
,
00000001
00000000
00000000
00000000
,
00000001
00000000
00000010
00000000
00000100
00000010
00000100
00000000
,
00000010
00000001
00001000
00000000
,
00001000
00000000
00000100
00000000
00010000
00001000
00010000
00000000
,
00001000
00010000
00001000
00000000
,
00010000
00001000
00100000
00010000
,
01000000
00000000
00000000
00100000
00000000
00000000
01000000
00000000
00100000
00000000
00000000
00000000
10000000
00000000
00000000
00000000
,
00010000
01000000
10000000
01000000
,
00010000
00000000
00000000
00010000
10000000
00000000
00000000
00000000
,
10000000
00000000
00000000
00000000
01000000
00000000
00000000
00000000
00100000
00000000
00000000
00010000
00000000
00000000
00100000
00000000
,
00001000
00000000
00000000
00000000
00010000
00000000
00000000
00000000
00001000
00000000
00000000
00010000
00000000
00000000
00000010
00000000
,
00001000
00000000
00000100
00000000
00000010
00000001
00000010
00000000
,
00000001
00001000
00000001
00000000
00001000
00000000
00000000
00000000
,
00000001
00000001
00000100
00001000
,
00010000
00010000
00100000
10000000
,
00100000
01000000
00010000
10000000
,
20020000
00000000
00000000
30030000
,
10000000
00000000
00100000
00000000
01000000
00010000
01000000
00001000
,
00010000
00010000
00001000
00011000
,
00010000
00000000
00000010
00000000
00010000
00000010
00001000
00000010
,
00001000
00001000
00000100
00000110
,
00000001
00000010
00000100
00000000
,
00000100
00010000
00001000
00000000
,
00001000
00100000
00010000
00000000
,
01100000
00000000
00000000
00000000
,
10000000
10000000
00010000
00010000
,
01000000
00100000
01100000
00000000
,
10000000
00000000
01000000
00000000
00010000
00001000
00010000
00000000
,
00001000
00000010
00000001
00000000
,
00001000
00001000
00000001
00000001
,
00000100
00000010
00000110
00000000
,
00000001
00000000
00000100
00000000
00001000
00010000
00001000
00000000
,
00010000
00100000
10000000
00000000
,
10000000
00000000
01000000
00000000
00100000
00010000
00100000
00000000
,
02000000
00000000
00000000
03000000
,
10000000
01000000
00010000
00010000
,
00001000
00010000
00001000
00000000
00010000
00000000
00000000
00000000
,
00010000
00001000
00000010
00000010
,
00000001
00001000
00000001
00000000
00001000
00000000
00000000
00000000
,
00000001
00000000
00000100
00000000
00000010
00001000
00000100
00000000
,
00010000
00000000
00000000
00001000
00000000
00000000
00010000
00000000
00000000
00000000
00000000
00000000
00011000
00000000
00000000
00000000
,
00001000
00000000
00100000
00000000
00010000
01000000
00100000
00000000
,
20000000
00000000
00000000
30000000
,
00010000
00000000
00000000
00000000
,
00000000
00000000
00000000
00000000
;
#NOTES:
     dance-double:
     :
     Hard:
     12:
     :
00000000
00000000
00000000
00000000
,
00000000
00000000
00000000
00000000
,
00000000
00000000
00000000
00000000
,
00000000
00000000
00000000
00000000
,
00000000
00000000
00000000
00000000
,
00010000
00000000
00001000
00000000
,
00010000
00000100
00001000
00000000
,
00000220
00000000
00000000
00000000
,
00000330
00000000
00000000
00000000
,
00000001
00000100
00001000
00000000
,
00010000
00100000
10000000
00000000
,
10000000
01000000
00010000
00000000
,
00001000
00000010
00000001
00000000
,
00000001
00000010
00000001
00000100
00000001
00000010
00000100
00001000
,
00000100
00000000
00000000
00000100
00000000
00000000
00010000
00000000
00001000
00000000
00010000
00000000
00001000
00000000
00000000
00000000
,
00010000
00001000
00100000
00001000
00010000
00100000
10000000
00010000
,
01000000
00000000
00000000
01000000
00000000
00000000
00100000
00000000
10000000
00000000
00010000
00000000
10000000
00000000
00000000
00000000
,
10000000
01000000
00010000
01000000
00010000
00001000
00010000
00001000
,
00000010
00000000
00000001
00000010
00000000
00000001
00000010
00000000
00000001
00000000
00000000
00000000
00000001
00000000
00000100
00000000
,
00000010
00001000
00000000
00001000
00000000
00000000
00000100
00000000
00010000
00001000
00000000
00001000
00000000
00000000
00010000
00000000
,
00011000
00000000
00000000
00001000
00010000
00000000
00011000
00000000
,
00001000
00000000
00010000
00000000
00100000
00000000
10000000
00000000
00100000
01000000
00000000
01000000
00000000
00000000
00010000
00000000
,
10000000
00000000
01000000
00000000
00100000
00000000
00010000
00000000
00100000
00001000
00000000
00001000
00000000
00000000
00010000
00000000
,
00001000
00000010
00000001
00000010
00001000
00010000
00001000
00010000
,
01000000
00000000
00100000
01000000
00100000
00000000
00010000
00000000
10000000
00000000
10000000
00000000
00020000
00000000
00000000
00000000
,
10030000
00000000
00000000
10000000
00100000
00000000
01000000
00000000
00010000
00000000
00000000
00010000
00100000
00000000
00001000
00000000
,
00010000
00000000
00000000
00010000
00000010
00000000
00001000
00000000
00000100
00000000
00000000
00000100
00000010
00000000
00000001
00000000
,
00001000
00000000
00000000
00001100
00000000
00000000
00010100
00000000
00010000
00000000
00000000
00011000
00000000
00000000
00101000
00000000
,
00100000
00010000
01000000
00010000
00100000
00000000
01100000
00000000
,
10000000
01000000
10000000
01000000
00100000
00010000
00100000
00010000
,
00001000
00000100
00000010
00000002
00000010
00000000
00000013
00000000
,
00000001
00000100
00000001
00000100
00000010
00001000
00000010
00001000
,
00010000
01000000
00100000
20000000
00100000
00000000
30100000
00000000
,
10000000
00100000
00010000
00010000
00001000
00000100
00000001
00000001
,
00002000
00000000
00000000
00000002
00000000
00000000
00000000
00000000
00003003
00000000
00000001
00000000
00001000
00000000
00000001
00000000
,
00000100
00000010
00002000
00000000
00003010
00010000
00002000
00000000
,
00013000
00000000
00000000
00000000
,
00010000
00001000
00000010
00001000
00010000
00001000
00010000
00001000
,
00100000
01000000
01000000
00100000
00100000
00000000
01100000
00000000
,
10000000
00000000
00100000
00000000
01000000
00000000
00010000
00100000
00010000
00000000
01000000
00000000
00100000
00000000
00010000
00001000
,
00010000
00000100
00010000
00000000
00010000
00000010
00010000
00000000
,
00010000
00001000
00000100
00001000
00010000
00001000
00010000
00001000
,
01000000
00100000
00100000
01000000
01000000
00000000
01100000
00000000
,
10000000
00000000
01000000
00000000
00100000
00000000
00010000
01000000
00010000
00000000
00100000
00000000
01000000
00000000
00010000
00001000
,
00020000
00030020
00002030
00003002
,
00001003
00000100
00000010
00000100
00001000
00000100
00010000
00001000
,
00010000
00100000
00020000
00000000
00000000
00000000
00030000
00000000
,
00001000
00000000
00010000
00000000
01000000
00000000
00010000
00000000
00001000
00000000
00010000
00001000
00010000
00000000
00000000
00000000
,
00010000
00001000
00000100
00001000
00010000
00000000
00011000
00000000
,
00010000
00000000
00001000
00000000
00000100
00000000
00001000
00000000
00010000
00000000
00001000
00010000
00001000
00000000
00000000
00000000
,
00001000
00010000
01000000
00010000
00001000
00000000
00011000
00000000
,
00001000
00000000
00100000
00000000
00010000
01000000
00000000
00010000
00100000
00000000
01000000
00000000
10000000
00000000
00100000
00000000
,
10100000
00000000
00000000
10010000
00000000
00000000
00110000
00000000
00000000
00000000
00100000
00000000
00001000
00000000
00010000
00000000
,
00000100
00000000
00001000
00000000
00000010
00000100
00000000
00000001
00000100
00000000
00000010
00000000
00001000
00000000
00000100
00000000
,
00000010
00000001
00000100
00000000
00000100
00001000
00010000
00000000
,
00001000
00000000
00000000
00000000
,
00000000
00000000
00000000
00000000
;
