
//----- song ID: shoj -----//
#TITLE:少女、摩天楼へ;
#ARTIST:BEMANI Sound Team "U1 overground";
#TITLETRANSLIT:Shoujo, matenrou e;
#BANNER:Shoujo, matenrou e.png;
#BACKGROUND:Shoujo, matenrou e-bg.png;
#CDTITLE:./CDTitles/jubeat festo.png;
#MUSIC:Shoujo, matenrou e.ogg;
#SAMPLESTART:14.4;
#SAMPLELENGTH:15;
#BPMS:0=150;
#NOTES:
     dance-single:
     :
     Beginner:
     3:
     :
0000
0000
0000
0000
,
0000
0000
0000
0000
,
0000
0000
0000
0000
,
0000
0000
0000
0000
,
0000
0000
0000
0000
,
0002
0000
0000
0000
,
0003
0000
0000
0000
,
2000
0000
0000
0000
,
3000
0000
0000
0000
,
0001
0000
0001
0000
,
0001
0000
0000
0000
,
1000
0000
1000
0000
,
1000
0000
0000
0000
,
0001
0000
1000
0000
,
0001
0000
0000
0000
,
1000
0000
0001
0000
,
1000
0000
0000
0000
,
0001
0000
0001
0000
,
1000
0000
0001
0000
,
1000
0000
1000
0000
,
0001
0000
0000
0000
,
1000
0000
0001
0000
,
1000
0000
0001
0000
,
1000
0000
0000
0000
,
1000
1000
1000
0000
,
1000
0000
0000
0000
,
2000
0000
3000
0000
,
0001
0000
0000
0000
,
0002
0000
0003
0000
,
1000
0000
0000
0000
,
0100
0000
0000
0000
,
0010
0000
0000
0000
,
0001
0000
0000
0000
,
1000
0000
1000
0000
,
0100
0000
0100
0000
,
0010
0000
0010
0000
,
0001
0000
0000
0000
,
1000
0000
0000
0000
,
1000
0000
0000
0000
,
0001
0000
0000
0000
,
0001
0000
0000
0000
,
0010
0000
0000
0000
,
0010
0000
0000
0000
,
0100
0000
0000
0000
,
0100
0000
0000
0000
,
2000
0000
3000
0000
,
0002
0000
0003
0000
,
2000
0000
3000
0000
,
0002
0000
0003
0000
,
1000
0000
1000
0000
,
0001
0000
0001
0000
,
1000
0000
1000
0000
,
0001
0000
0001
0000
,
1000
0000
0000
0000
,
1000
0000
0000
0000
,
0001
0000
0000
0000
,
0001
0000
0000
0000
,
1000
0000
0001
0000
,
1000
0000
0001
0000
,
1000
0000
0100
0000
,
1000
0000
0000
0000
,
0001
0000
1000
0000
,
0001
0000
1000
0000
,
0001
0000
0010
0000
,
0001
0000
0000
0000
,
1000
1000
1000
0000
,
1000
0000
0001
0000
,
0001
0001
0001
0000
,
0001
0000
1000
0000
,
1000
1000
1000
0000
,
1000
0000
0010
0000
,
0010
0010
0010
0000
,
0010
0000
0100
0000
,
1001
0000
0000
0000
,
0000
0000
0000
0000
;
#NOTES:
     dance-single:
     :
     Easy:
     6:
     :
0000
0000
0000
0000
,
0000
0000
0000
0000
,
0000
0000
0000
0000
,
0000
0000
0000
0000
,
0000
0000
0000
0000
,
0002
0000
0000
0000
,
2003
0000
3002
0000
,
2003
0000
0000
0000
,
0000
0000
3000
0000
,
0001
1000
0001
1000
,
0001
0100
0001
0100
,
0001
1000
0001
1000
,
0100
1000
0100
0000
,
1000
0001
0010
0001
,
1000
0100
1000
0001
,
0100
0001
0100
0001
,
1000
0100
1000
0000
,
0001
0100
0010
1000
,
0001
0100
0010
1000
,
0001
0010
0100
1000
,
0001
0010
0100
0000
,
1000
0001
0100
0010
,
1000
0001
0010
0100
,
1000
0001
1000
0000
,
0002
0000
2003
0000
,
3001
0100
0001
0100
,
0010
1000
0010
1000
,
0001
0010
0001
0010
,
0100
1000
0100
1000
,
0002
0000
0023
0000
,
0230
0000
2300
0000
,
3002
0000
0203
0000
,
0320
0000
2030
0000
,
3001
0100
0010
1000
,
0001
0010
0100
1000
,
0001
0001
1000
1000
,
1001
1001
2002
3003
,
0001
0001
0001
0000
,
1000
1000
1000
0000
,
0010
0010
0010
0000
,
0100
0100
0100
0000
,
0001
0001
0001
0001
,
1000
1000
1000
1000
,
0100
0100
0100
0100
,
0010
0010
0010
0010
,
0002
0000
0003
0000
,
2000
0000
3000
0000
,
0002
0000
0003
0000
,
2000
0000
3000
0000
,
0020
0000
0030
0000
,
0200
0000
0300
0000
,
0020
0000
0030
0000
,
0200
0000
0300
0000
,
0001
1000
0001
1000
,
0001
0000
0001
0000
,
1000
0100
1000
0001
,
0100
0001
1000
0000
,
0100
1000
0100
1000
,
0001
0100
0001
0100
,
0010
1000
0010
1000
,
0001
0010
0001
0010
,
0100
0010
0100
0010
,
0001
1000
0001
1000
,
0010
0100
0010
0100
,
0001
1000
0001
0000
,
1000
0100
0010
0001
,
1000
0010
0100
0001
,
1000
0100
0001
0100
,
1000
0010
0001
0010
,
1000
0100
0010
0100
,
1000
0010
0100
0010
,
0100
0001
0010
0100
,
1000
0010
0100
0001
,
1000
0000
0000
0000
,
0000
0000
0000
0000
;
#NOTES:
     dance-single:
     :
     Medium:
     11:
     :
0000
0000
0000
0000
,
0000
0000
0000
0000
,
0000
0000
0000
0000
,
0000
0000
0000
0000
,
0000
0000
0000
0000
,
0002
0000
0000
0000
,
0203
0000
0320
2030
,
3002
0000
0000
0000
,
0000
0000
0000
0003
,
1000
0000
0000
0001
1000
0000
0000
0000
0010
0000
0000
0000
0100
0000
0000
0000
,
0001
0000
0000
1000
0001
0000
0000
0000
0010
0000
0000
0000
0100
0000
0000
0000
,
1000
0000
0000
0100
1000
0000
0000
0000
0001
0000
0000
0000
0010
0000
0000
0000
,
0001
0000
0000
0010
0001
0000
0000
0000
1000
0000
0000
0000
0100
0000
0000
0000
,
1100
1010
0101
0011
,
1001
1100
1001
0101
,
1001
1010
1001
0011
,
1001
0000
1001
0000
0001
1000
0001
0000
,
1000
0100
1000
0100
0010
0001
0010
0001
,
1000
0010
1000
0010
0100
0001
0100
0000
,
0010
1000
0010
1000
0001
0010
0001
0010
,
0100
1000
0100
1000
0001
0100
0001
0000
,
1000
0000
0000
0001
1000
0000
0000
0000
0001
0000
0000
1000
0001
0000
0000
0000
,
1000
0000
0000
0010
1000
0000
0000
0000
0001
0000
0000
0010
0001
0000
0000
0000
,
1000
0000
0000
0100
1000
0000
0000
0000
0001
0000
0001
0000
0000
0000
0000
0000
,
1000
0000
0000
1000
0000
0000
1000
0001
1000
0001
1000
0001
,
1000
0000
0000
1000
0001
0000
0000
0000
0001
0000
0000
0001
1000
0000
0000
0000
,
1000
0000
0000
1000
0010
0000
0000
0000
0010
0000
0000
0010
1000
0000
0000
0000
,
1000
0000
0000
1000
0001
0000
0000
0000
0001
0000
0000
0001
0010
0000
0000
0000
,
0010
0000
0000
0010
0001
0000
0000
0000
0001
0000
0000
0001
1000
0000
0000
0000
,
0002
0203
0320
2030
,
3002
0023
0230
2300
,
3020
0230
0320
2030
,
3200
0320
0230
2300
,
3001
0001
0101
0101
,
1000
1000
1100
1100
,
0001
0001
1000
1000
,
1001
0000
1001
0000
0001
1000
1001
0000
,
1000
1000
1000
1000
,
0001
0001
0001
0001
,
0010
0010
0010
0010
,
0100
0100
0100
0100
,
1000
0000
0000
0100
1000
0000
0000
0000
1000
0000
0000
0000
1000
0000
0000
0000
,
0001
0000
0000
0100
0001
0000
0000
0000
0001
0000
0000
0000
0001
0000
0000
0000
,
0010
0000
0000
0001
0010
0000
0000
0000
0010
0000
0000
0000
0010
0000
0000
0000
,
0100
0000
0000
1000
0100
0000
0000
0000
0100
0000
0000
0000
0100
0000
0000
0000
,
1000
0000
0001
0000
1000
0001
0000
0000
,
0010
0000
0001
0000
0010
0001
0000
0000
,
1000
0000
0010
0000
1000
0010
0000
0000
,
0100
0000
0001
0000
0100
0001
0000
0000
,
1000
0000
0100
0000
1000
0100
0000
0000
,
0010
0000
0100
0000
0010
0100
0000
0000
,
0010
0000
0001
0000
0010
0001
0000
0000
,
1000
0000
0001
0000
1000
0001
0000
0000
,
2000
3002
0203
0310
,
1000
0001
0000
0000
0100
0000
0010
0100
,
0000
0000
0002
0203
,
0320
2030
3001
0000
,
2001
0001
0100
3001
,
1002
1000
0100
1003
,
2001
0100
0001
3100
,
1002
0010
1000
0013
,
1001
1000
1010
0010
,
0110
0100
0101
0001
,
1001
1000
1001
0001
,
1000
0001
1000
0001
1000
0010
0100
0001
,
1000
0100
1000
0100
0010
0001
0010
0001
,
1000
0010
1000
0010
0100
0001
0100
0001
,
1000
0100
0010
0001
1000
0100
0010
0001
,
1000
0010
0100
0001
1000
0010
0100
0001
,
1000
0100
0010
0100
1000
0010
0100
0010
,
1000
0001
0010
0100
0010
0001
0100
0010
,
0100
0001
1000
0100
0010
0001
1000
0010
,
0100
0001
0010
0100
1000
0010
0100
0001
,
1000
0000
0000
0000
,
0000
0000
0000
0000
;
#NOTES:
     dance-single:
     :
     Hard:
     15:
     :
0000
0000
0000
0000
,
0000
0000
0000
0000
,
0000
0000
0000
0000
,
0000
0000
0000
0000
,
0000
0000
0000
0000
,
0002
0000
0000
0000
,
2003
0000
3020
0230
,
0302
0000
0000
0000
,
0000
0000
0000
0003
,
1001
0000
0000
1000
0001
0000
0000
0001
1000
0000
0000
1000
0001
0000
0000
0001
,
0100
0000
0000
0100
0001
0000
0000
0001
1000
0000
0000
1000
0100
0000
0000
0100
,
0010
0000
0000
0010
0001
0000
0000
0001
1000
0000
0000
1000
0010
0000
0000
0010
,
0100
0000
0000
0100
0001
0000
0000
0001
1000
0000
0000
1000
0010
0000
0000
0010
,
0100
0000
0000
0010
1000
0000
0000
0001
1000
0000
0000
0001
0010
0000
0000
0100
,
0010
0000
0000
0100
1000
0000
0000
0001
1000
0000
0000
0001
0100
0000
0000
0100
,
0001
0000
0000
1000
0001
0000
0000
1000
0100
0000
0000
0010
0100
0000
0000
0010
,
0001
0000
0000
1000
0001
0000
0000
1000
0010
0000
0000
0100
0010
0000
0000
0000
,
0100
0001
0100
0001
1000
0100
1000
0100
,
0010
0001
0010
0001
1000
0010
1000
0010
,
0100
0001
0100
0001
1000
0010
1000
0010
,
1000
0100
1000
0100
0010
0001
0010
0001
,
1000
0010
1000
0000
0001
0010
0001
0000
1000
0100
1000
0000
0001
0100
0001
0000
,
0100
0010
0100
0000
0001
1000
0001
0000
0010
0100
0010
0000
0001
1000
0001
0000
,
1000
0100
1000
0100
1000
0000
0100
0000
0010
0001
0010
0001
0010
0000
0001
0000
,
0010
0000
0000
0010
0000
0000
0010
0010
0010
0100
0100
0100
,
1000
0000
0000
1000
0001
0000
0000
0001
0100
0000
0000
0100
0001
0000
0000
0001
,
1000
0000
0000
1000
0100
0000
0000
0100
1000
0000
0000
1000
0001
0000
0000
0001
,
0010
0000
0000
0010
0100
0000
0000
0100
1000
0000
0000
1000
0001
0000
0000
0001
,
0100
0000
0000
0100
0010
0000
0000
0010
1000
0000
0000
1000
0001
0000
0002
0000
,
0023
0230
0320
0032
0203
0320
2030
3002
,
0023
0230
2300
3020
0230
0302
2003
3200
,
0320
0032
0023
2030
3002
0203
2300
3002
,
0203
2300
3200
0302
2003
3020
0032
0023
,
1030
1000
1010
1010
,
0001
0001
0011
0011
,
0110
0110
1001
1001
,
0001
1000
0001
1000
0001
1000
0001
0000
1000
0000
1000
0000
0001
1000
0001
0000
,
1000
0000
0000
0001
1000
0000
0000
0001
1000
0000
0000
0001
1000
0000
0000
0001
,
0001
0000
1000
0000
0001
1000
0100
0010
0001
1000
0001
0100
0010
0100
0002
0000
,
0103
0000
0000
0010
0100
0000
0000
0010
0100
0000
0000
0010
0100
0000
0000
0100
,
0010
0000
0000
0100
0010
0000
0000
0100
0010
0000
0000
0100
0010
0100
0010
0100
,
0001
0000
0000
1000
0001
0000
0000
1000
0001
0000
0000
1000
0001
0000
0000
1000
,
1000
0000
0001
0000
1000
0001
0100
0010
1000
0001
1000
0100
0010
0100
2000
0000
,
3100
0000
0000
0010
0100
0000
0000
0010
0100
0000
0000
0010
0100
0000
0000
0100
,
0010
0000
0000
0100
0010
0000
0000
0100
0010
0000
0000
0100
0010
0000
0000
0000
,
0001
0000
0000
0000
0001
0000
0000
0000
0001
0000
0001
1000
0100
0000
1000
0000
,
0010
0000
0000
0000
0010
0000
0000
0000
0010
0000
0010
1000
0001
0000
1000
0000
,
0100
0000
0000
0000
0100
0000
0000
0000
0100
0000
0100
1000
0001
0000
1000
0000
,
0001
1000
0001
1000
0001
0000
1000
0100
0010
0001
0100
0010
0000
1000
0001
0000
,
0010
0000
0000
0000
0000
0000
0000
0000
0000
0000
0001
1000
0001
1000
0010
0100
,
0010
0000
0000
0000
0000
0000
0000
0000
0000
0000
1000
0001
1000
0001
1000
0001
,
0010
0000
0001
1000
0100
0000
1000
0001
0010
0000
0100
0000
0000
0000
0000
0000
,
1000
0000
0100
0000
1000
0000
0001
0000
1000
0001
0100
0001
0000
1000
0001
0000
,
2000
3002
0203
0320
,
1030
2000
0000
0000
3002
0000
0203
0320
,
0000
0030
2000
3200
,
0320
0032
1003
0000
,
1001
1001
1100
1001
,
0101
0101
1001
1100
,
0110
0011
1001
1010
,
0101
1001
1100
0110
,
0010
0001
0010
0001
1000
0100
1000
0100
,
1000
0010
1000
0010
0100
0001
0100
0001
,
1000
0100
1000
0000
0100
1000
0100
0000
0010
0001
0010
0000
0001
0010
0001
0000
,
1000
0010
1000
0000
0010
1000
0010
0000
0100
0001
0100
0000
0001
0100
0001
0000
,
1000
0100
1000
0100
0010
0001
0010
0000
0001
0100
0001
0100
0010
1000
0010
0000
,
0010
0100
0010
0100
0001
1000
0001
0000
0010
0001
0010
0001
1000
0001
1000
0000
,
1000
0010
0200
0000
0310
0100
0010
0100
0010
1000
0010
1000
0001
1000
0001
0000
,
0010
0001
0010
0001
1000
0100
1000
0100
0010
0100
0010
0100
0010
0001
1000
0000
,
0001
0100
0010
0000
0100
0010
1000
0000
0001
0010
0100
0000
0010
0100
1000
0000
,
1000
0010
0100
0000
0010
0100
0001
0000
1000
0100
0010
0000
0100
0010
0001
0000
,
1000
0010
0100
0001
1000
0010
0100
0000
0001
0010
0100
1000
0001
0010
0100
0000
,
1000
0010
0100
0001
0010
0100
1000
0000
0001
0100
0010
0100
0001
0010
0100
0010
,
0001
0000
0000
0000
,
0000
0000
0000
0000
;
#NOTES:
     dance-double:
     :
     Easy:
     6:
     :
00000000
00000000
00000000
00000000
,
00000000
00000000
00000000
00000000
,
00000000
00000000
00000000
00000000
,
00000000
00000000
00000000
00000000
,
00000000
00000000
00000000
00000000
,
00002000
00000000
00000000
00000000
,
00023000
00000000
00032000
00000000
,
00023000
00000000
00000000
00000000
,
00000000
00000000
00030000
00000000
,
00001000
00010000
00001000
00010000
,
00000100
00001000
00000100
00001000
,
00000001
00000100
00000001
00000100
,
00000010
00001000
00000001
00000000
,
00000010
00000001
00000010
00000001
,
00001000
00000010
00001000
00000010
,
00010000
00001000
00010000
00001000
,
01000000
00010000
01000000
00000000
,
00010000
10000000
00010000
10000000
,
01000000
10000000
01000000
10000000
,
00010000
00100000
00010000
00100000
,
00001000
00010000
00001000
00000000
,
00010000
00000100
00010000
00000100
,
00001000
00000001
00001000
00000001
,
00000100
00000001
00000100
00000000
,
00000020
00000000
00002030
00000000
,
00003010
00010000
00000010
00010000
,
00001000
00100000
00001000
00100000
,
00010000
01000000
00010000
01000000
,
00100000
10000000
00100000
00000000
,
20000000
00000000
30000000
00000000
,
00020000
00000000
00030000
00000000
,
00200000
00000000
00300000
00000000
,
02000000
00000000
03000000
00000000
,
10000000
00010000
00100000
01000000
,
00100000
00001000
00010000
00001000
,
00010000
00010000
00001000
00001000
,
00011000
00011000
00022000
00033000
,
00010000
00001000
00010000
00000000
,
00000010
00001000
00000010
00000000
,
00010000
00001000
00010000
00000000
,
00000100
00001000
00000100
00000000
,
00010000
00001000
00010000
00001000
,
00100000
00010000
00100000
00000000
,
01000000
10000000
01000000
10000000
,
00010000
01000000
00010000
00000000
,
20000000
00000000
30000000
00000000
,
00200000
00000000
00300000
00000000
,
00020000
00000000
00030000
00000000
,
00002000
00000000
00003000
00000000
,
00020000
00000000
00030000
00000000
,
02000000
00000000
03000000
00000000
,
20000000
00000000
30000000
00000000
,
00020000
00000000
00030000
00000000
,
10000000
00100000
01000000
00001000
,
00010000
00000000
00010000
00000000
,
00001000
00010000
00000100
00001000
,
00000001
00000100
00000010
00000000
,
00001000
00000010
00001000
00000010
,
00010000
00001000
00010000
00001000
,
00100000
00010000
00100000
00010000
,
10000000
00100000
10000000
00000000
,
01000000
10000000
01000000
10000000
,
00010000
00100000
00010000
00100000
,
00001000
00010000
00001000
00010000
,
00000100
00001000
00000100
00000000
,
00000010
00000001
00001000
00000010
,
00000100
00000001
00001000
00000100
,
00010000
00001000
01000000
00010000
,
10000000
01000000
00100000
00010000
,
10000000
00100000
01000000
00001000
,
00010000
00000100
00001000
00000001
,
00000010
00000100
00010000
00001000
,
01000000
00100000
10000000
01000000
,
00100000
00000000
00000000
00000000
,
00000000
00000000
00000000
00000000
;
#NOTES:
     dance-double:
     :
     Medium:
     11:
     :
00000000
00000000
00000000
00000000
,
00000000
00000000
00000000
00000000
,
00000000
00000000
00000000
00000000
,
00000000
00000000
00000000
00000000
,
00000000
00000000
00000000
00000000
,
00002000
00000000
00000000
00000000
,
02003000
00000000
03200000
20300000
,
30020000
00000000
00000000
00000000
,
00000000
00000000
00000000
00030000
,
10000000
00000000
00000000
00010000
10000000
00000000
00000000
00000000
00010000
00000000
00000000
00000000
01000000
00000000
00000000
00000000
,
00001000
00000000
00000000
00010000
00001000
00000000
00000000
00000000
00010000
00000000
00000000
00000000
00000100
00000000
00000000
00000000
,
00001000
00000000
00000000
00000001
00001000
00000000
00000000
00000000
00000001
00000000
00000000
00000000
00000100
00000000
00000000
00000000
,
00000010
00000000
00000000
00001000
00000010
00000000
00000000
00000000
00010000
00000000
00000000
00000000
00001000
00000000
00000000
00000000
,
00100000
00000000
00000000
00010000
00100000
00000000
00000000
00000000
01000000
00000000
00000000
00000000
10000000
00000000
00000000
00000000
,
00010000
00000000
00000000
01000000
00010000
00000000
00000000
00000000
01000000
00000000
00000000
00000000
00001000
00000000
00000000
00000000
,
00010000
00000000
00000000
00000100
00010000
00000000
00000000
00000000
00000100
00000000
00000000
00000000
00001000
00000000
00000000
00000000
,
00000001
00000000
00000000
00000100
00000001
00000000
00000000
00000000
00001000
00000000
00000000
00000000
00000000
00000000
00000000
00000000
,
00000001
00000100
00000001
00000100
00000010
00001000
00000010
00000000
,
00010000
00001000
00010000
00001000
00100000
00010000
00100000
00000000
,
01000000
10000000
01000000
10000000
00010000
01000000
00010000
01000000
,
00001000
00010000
00001000
00010000
00000100
00001000
00000100
00000000
,
00000010
00000001
00000010
00000001
00001000
00000100
00001000
00000100
,
00010000
00001000
00010000
00001000
01000000
00010000
01000000
00010000
,
10000000
01000000
00100000
00001000
00010000
00001000
00000000
00000000
,
00010000
00000000
00000000
00010000
00000000
00000000
00010000
00001000
00010000
00001000
00010000
00001000
,
00010000
00000000
00000000
00010000
00001000
00000000
00000000
00000000
00001000
00000000
00000000
00001000
00010000
00000000
00000000
00000000
,
00010000
00000000
00000000
00010000
00000010
00000000
00000000
00000000
00000010
00000000
00000000
00000010
00001000
00000000
00000000
00000000
,
00001000
00000000
00000000
00001000
00000001
00000000
00000000
00000000
00000001
00000000
00000000
00000001
00000010
00000000
00000000
00000000
,
00000010
00000000
00000000
00000010
00000100
00000000
00000000
00000000
00000100
00000000
00000000
00000100
00010000
00000000
00000000
00000000
,
00002000
02003000
03020000
20030000
,
32000000
03200000
00302000
00023000
,
00030020
00002030
00003002
00000023
,
00000230
00020300
00032000
00013000
,
00011000
00011000
01001000
01001000
,
10100000
10100000
10010000
10010000
,
00101000
00101000
00011000
00011000
,
00010000
00000000
00010000
00000000
00001000
00010000
00011000
00000000
,
00010000
00010000
00010000
00010000
,
00000100
00000100
00000100
00000100
,
00001000
00001000
00001000
00001000
,
00000010
00000010
00000010
00000010
,
00000100
00000001
00000010
00001000
,
00010000
01000000
10000000
00100000
,
00010000
00100000
10000000
01000000
,
00010000
00001000
00000010
00000001
,
00001000
00000000
00000001
00000000
00001000
00000001
00000000
00000000
,
00000010
00000000
00000001
00000000
00000010
00000001
00000000
00000000
,
00001000
00000000
00000100
00000000
00001000
00000100
00000000
00000000
,
00010000
00000000
00001000
00000000
00010000
00001000
00000000
00000000
,
01000000
00000000
00010000
00000000
01000000
00010000
00000000
00000000
,
10000000
00000000
01000000
00000000
10000000
01000000
00000000
00000000
,
00100000
00000000
00010000
00000000
00100000
00010000
00000000
00000000
,
10000000
00000000
00010000
00000000
10000000
00010000
00000000
00000000
,
20000000
30020000
02030000
03001000
,
00010000
00001000
00000000
00000000
01000000
00000000
00100000
01000000
,
00000000
00000000
00002000
00023000
,
00030020
00000230
00000301
00000000
,
00001000
00000100
00000010
00001000
,
00010000
00100000
01000000
00010000
,
00100000
01000000
00010000
00001000
,
00000100
00000010
00010000
00001000
,
00021000
01000000
10000000
01000000
,
00032000
00000100
00000001
00000100
,
00013000
00010000
00001000
00001000
,
00010000
00001000
00010000
00001000
00100000
00010000
10000000
00100000
,
01000000
00010000
01000000
00010000
01000000
00001000
01000000
00001000
,
00010000
00001000
00010000
00001000
00010000
00000100
00010000
00000100
,
00001000
00000001
00000100
00000010
00001000
00000001
00000010
00000100
,
00001000
00000100
00001000
00000100
00010000
00001000
00010000
00001000
,
00100000
00010000
01000000
00100000
01000000
00001000
00010000
00001000
,
00010000
01000000
00100000
00010000
01000000
00001000
00010000
00001000
,
00010000
00000100
00000010
00000100
00010000
00000010
00000100
00000010
,
00001000
00000001
00000010
00000100
00010000
00001000
00100000
01000000
,
10000000
00000000
00000000
00000000
,
00000000
00000000
00000000
00000000
;
#NOTES:
     dance-double:
     :
     Hard:
     15:
     :
00000000
00000000
00000000
00000000
,
00000000
00000000
00000000
00000000
,
00000000
00000000
00000000
00000000
,
00000000
00000000
00000000
00000000
,
00000000
00000000
00000000
00000000
,
00200000
00000000
00000000
00000000
,
00302000
00000000
00023000
02030000
,
23000000
00000000
00000000
00000000
,
00000000
00000000
00000000
30000000
,
10010000
00000000
00000000
10000000
00010000
00000000
00000000
00010000
10000000
00000000
00000000
10000000
00010000
00000000
00000000
00010000
,
01000000
00000000
00000000
01000000
00001000
00000000
00000000
00001000
00010000
00000000
00000000
00010000
00001000
00000000
00000000
00001000
,
00100000
00000000
00000000
00100000
00010000
00000000
00000000
00010000
10000000
00000000
00000000
10000000
01000000
00000000
00000000
01000000
,
00100000
00000000
00000000
00100000
00001000
00000000
00000000
00001000
00010000
00000000
00000000
00010000
00000010
00000000
00000000
00000010
,
00001000
00000000
00000000
00001000
00000001
00000000
00000000
00000001
00000010
00000000
00000000
00000010
00001000
00000000
00000000
00001000
,
00010000
00000000
00000000
00010000
01000000
00000000
00000000
01000000
10000000
00000000
00000000
10000000
00100000
00000000
00000000
00100000
,
01000000
00000000
00000000
01000000
00010000
00000000
00000000
00010000
10000000
00000000
00000000
10000000
01000000
00000000
00000000
01000000
,
00010000
00000000
00000000
00010000
00001000
00000000
00000000
00001000
00000010
00000000
00000000
00000010
00000001
00000000
00000000
00000000
,
00000001
00000100
00001000
00000100
00000001
00000010
00001000
00010000
,
00001000
00000100
00000001
00000100
00001000
00010000
00100000
10000000
,
00010000
00100000
10000000
00100000
00010000
01000000
10000000
01000000
,
00010000
10000000
01000000
00010000
00001000
00000010
00000001
00001000
,
00000001
00000100
00000010
00000000
00000100
00000001
00001000
00000000
00000010
00010000
00001000
00000000
00010000
00001000
00100000
00000000
,
00010000
00100000
01000000
00000000
00100000
00010000
10000000
00000000
00010000
01000000
00100000
00000000
01000000
00001000
00010000
00000000
,
00000100
00001000
00000100
00001000
00000100
00000000
00010000
00000000
00000010
00001000
00000010
00001000
00000010
00000000
00010000
00000000
,
00001000
00000000
00000000
00001000
00000000
00000000
00001000
00001000
00001000
00010000
00010000
00010000
,
00001000
00000000
00000000
00001000
00010000
00000000
00000000
00010000
00000010
00000000
00000000
00000010
00001000
00000000
00000000
00001000
,
00000001
00000000
00000000
00000001
00000010
00000000
00000000
00000010
00000100
00000000
00000000
00000100
00010000
00000000
00000000
00010000
,
00001000
00000000
00000000
00001000
00100000
00000000
00000000
00100000
00010000
00000000
00000000
00010000
10000000
00000000
00000000
10000000
,
00100000
00000000
00000000
00100000
01000000
00000000
00000000
01000000
00001000
00000000
00000000
00001000
00010000
00000000
00002000
00000000
,
00203000
00320000
20030000
30200000
02300000
03002000
00023000
00030200
,
00002300
00003002
00000203
00000320
00020030
00032000
00203000
00320000
,
20030000
32000000
03020000
00032000
02003000
03200000
00320000
00032000
,
00023000
00030200
00000320
00002030
00023000
00030020
00000230
00002300
,
00013000
00010000
00110000
00110000
,
00011000
00011000
00001010
00001010
,
00011000
00110000
10100000
10010000
,
00010000
10000000
00010000
10000000
00010000
10000000
00010000
00000000
10000000
00000000
10000000
00000000
00010000
10000000
00010000
00000000
,
10000000
00000000
00000000
00010000
10000000
00000000
00000000
00010000
10000000
00000000
00000000
00010000
10000000
00000000
00000000
00010000
,
00010000
00000000
01000000
00000000
00010000
01000000
00001000
00010000
00000010
00001000
00000001
00000100
00000010
00001000
00000002
00000000
,
00000013
00000000
00000000
00000100
00000010
00000000
00000000
00000100
00000010
00000000
00000000
00000100
00000010
00000000
00000000
00000010
,
00000100
00000000
00000000
00000010
00000100
00000000
00000000
00000010
00000100
00000000
00000000
00000010
00000100
00000010
00000100
00000010
,
00000001
00000000
00000000
00001000
00000001
00000000
00000000
00001000
00000001
00000000
00000000
00001000
00000001
00000000
00000000
00001000
,
00001000
00000000
00000100
00000000
00001000
00000100
00010000
00001000
00100000
00010000
10000000
01000000
00100000
00010000
20000000
00000000
,
30100000
00000000
00000000
01000000
00100000
00000000
00000000
01000000
00100000
00000000
00000000
01000000
00100000
00000000
00000000
00100000
,
01000000
00000000
00000000
00100000
01000000
00000000
00000000
00100000
01000000
00000000
00000000
00100000
01000000
00000000
00000000
00000000
,
00010000
00000000
00000000
00000000
00010000
00000000
00000000
00000000
00010000
00000000
00010000
10000000
01000000
00000000
00100000
00000000
,
00001000
00000000
00000000
00000000
00001000
00000000
00000000
00000000
00001000
00000000
00001000
00010000
00000100
00000000
00001000
00000000
,
00000001
00000000
00000000
00000000
00000001
00000000
00000000
00000000
00000001
00000000
00000001
00001000
00000010
00000000
00000100
00000000
,
00000001
00000100
00000001
00000100
00000001
00000000
00001000
00000100
00010000
00001000
01000000
00010000
00000000
10000000
01000000
00000000
,
00100000
00000000
00000000
00000000
00000000
00000000
00000000
00000000
00000000
00000000
00010000
00100000
00010000
00100000
00001000
00010000
,
00001000
00000000
00000000
00000000
00000000
00000000
00000000
00000000
00000000
00000000
01000000
00010000
01000000
00010000
01000000
00010000
,
10000000
00000000
00010000
00100000
00001000
00000000
00010000
00000010
00001000
00000000
00000001
00000000
00000000
00000000
00000000
00000000
,
00000001
00000000
00000010
00000000
00000001
00000000
00001000
00000000
00000010
00001000
00000010
00010000
00000000
00001000
00010000
00000000
,
00002000
02003000
03020000
20030000
,
31000000
02000000
00000000
00000000
03200000
00000000
00302000
00023000
,
00000000
00030000
00002000
00023000
,
00230000
00320000
00031000
00000000
,
00011000
00110000
01100000
00110000
,
00011000
00001010
00000110
00001001
,
00000101
00001010
01010000
10100000
,
11000000
00110000
00001100
00000011
,
00000001
00000100
00000001
00000100
00000010
00001000
00000010
00001000
,
00010000
01000000
00010000
01000000
00100000
10000000
00100000
10000000
,
10000000
01000000
10000000
01000000
00100000
00010000
00100000
00010000
,
00001000
00000100
00001000
00000100
00000010
00000001
00000010
00000001
,
00001000
00000100
00001000
00000000
00000001
00000100
00000001
00000000
00001000
00000100
00001000
00000100
00010000
00001000
00010000
00000000
,
00000010
00001000
00000010
00001000
00000010
00000000
00010000
00000000
00000100
00001000
00000100
00001000
00000100
00000000
00010000
00000000
,
00001000
00100000
00020000
00000000
00130000
01000000
00100000
01000000
10000000
01000000
10000000
01000000
10000000
00010000
10000000
00000000
,
00010000
01000000
00010000
01000000
00001000
00010000
00001000
00010000
00000100
00001000
00000100
00001000
00000001
00000100
00000001
00000000
,
00001000
00000100
00000010
00000000
00000100
00010000
00001000
00000000
00010000
00000010
00001000
00000000
00000010
00010000
00001000
00000000
,
00100000
00001000
00010000
00000000
00001000
01000000
00010000
00000000
01000000
00001000
00010000
00000000
00001000
00100000
00010000
00000000
,
10000000
01000000
10000000
01000000
00100000
00001000
00010000
00000000
00001000
00010000
00001000
00010000
00000010
00001000
00000001
00000000
,
00000100
00000001
00001000
00000100
00010000
00001000
01000000
00000000
00100000
10000000
00010000
00100000
00001000
00010000
00000010
00000000
,
00000101
00000000
00000000
00000000
,
00000000
00000000
00000000
00000000
;
