
//----- song ID: shos -----//
#TITLE:Shooting Star;
#ARTIST:ReGLOSS;
#BANNER:Shooting Star.png;
#BACKGROUND:Shooting Star-bg.png;
#CDTITLE:./CDTitles/DDR WORLD.png;
#MUSIC:Shooting Star.ogg;
#SAMPLESTART:80.751;
#SAMPLELENGTH:15;
#BPMS:0=170;
#NOTES:
     dance-single:
     :
     Beginner:
     2:
     :
0000
0000
0000
0000
,
0000
0000
0000
0000
,
0000
0000
0000
0000
,
0000
0000
0000
0000
,
0000
0000
0000
0000
,
0000
0000
0000
0000
,
0001
0000
0000
0000
,
0000
0000
0000
0000
,
1000
0000
0000
0000
,
0000
0000
0000
0000
,
0001
0000
0000
0000
,
0000
0000
0000
0000
,
0001
0000
0000
0000
,
0000
0000
0000
0000
,
1000
0000
0000
0000
,
0000
0000
0000
0000
,
1000
0000
0000
0000
,
0000
0000
0000
0000
,
0001
0000
0000
0000
,
0000
0000
0000
0000
,
0001
0000
0000
0000
,
0000
0000
0000
0000
,
0010
0000
0000
0000
,
0000
0000
0000
0000
,
0010
0000
0000
0000
,
0000
0000
0000
0000
,
0001
0000
0000
0000
,
0000
0000
0000
0000
,
1000
0000
0000
0000
,
0000
0000
0000
0000
,
0001
0000
0000
0000
,
0000
0000
0000
0000
,
0010
0000
0000
0000
,
0000
0000
0000
0000
,
0001
0000
0000
0000
,
0001
0000
0000
0000
,
0001
0000
0000
0000
,
0001
0000
0000
0000
,
1000
0000
0000
0000
,
1000
0000
0000
0000
,
1000
0000
0000
0000
,
1000
0000
0000
0000
,
0002
0000
0000
0000
,
0003
0000
0000
0000
,
2000
0000
0000
0000
,
3000
0000
0000
0000
,
0002
0000
0000
0000
,
0003
0000
0000
0000
,
0020
0000
0000
0000
,
0030
0000
0000
0000
,
0001
0000
0000
0000
,
0001
0000
0000
0000
,
1000
0000
0000
0000
,
1000
0000
0000
0000
,
0002
0000
0000
0000
,
0003
0000
0000
0000
,
2000
0000
0000
0000
,
3000
0000
0000
0000
,
0001
0000
0000
0000
,
0001
0000
0000
0000
,
0001
0000
0000
0000
,
0000
0000
0000
0000
,
1000
0000
0000
0000
,
1000
0000
0000
0000
,
1000
0000
0000
0000
,
0000
0000
0000
0000
,
0001
0000
0000
0000
,
0001
0000
0000
0000
,
0001
0000
0000
0000
,
0000
0000
0000
0000
,
0010
0000
0000
0000
,
0010
0000
0000
0000
,
0010
0000
0000
0000
,
0000
0000
0000
0000
,
0002
0000
0000
0000
,
0003
0000
0000
0000
,
0000
0000
0000
0000
,
2000
0000
0000
0000
,
3000
0000
0000
0000
,
0000
0000
0000
0000
,
0100
0000
0000
0000
,
0000
0000
0000
0000
,
1001
0000
0000
0000
,
0000
0000
0000
0000
;
#NOTES:
     dance-single:
     :
     Easy:
     7:
     :
0000
0000
0000
0000
,
0000
0000
0000
0000
,
0000
0000
0000
0000
,
0000
0000
0000
0000
,
0000
0000
0000
0000
,
0000
0000
0000
0000
,
2000
0000
0000
3000
,
0002
0000
0000
0003
,
2000
0000
0000
0000
,
3000
0000
0000
0000
,
1000
0001
1000
0000
,
0001
1000
0001
0000
,
0100
0010
0100
0000
,
0010
0100
0010
0000
,
1000
0100
0010
0000
,
0100
0010
0001
0000
,
0001
0100
0010
0000
,
0100
0010
1000
0000
,
0001
0100
0010
1000
,
0001
0100
0010
0000
,
1000
0100
0010
0001
,
1000
0100
0010
0000
,
0001
1000
0100
1000
,
0001
0010
0001
0000
,
1000
0010
1000
0001
,
0100
0001
1000
0000
,
0001
0000
0100
0000
0010
0100
0010
0000
,
1000
0010
1000
0000
,
1000
0000
0100
0000
0010
0100
0010
0000
,
0001
0010
0001
0000
,
0001
0100
0010
0110
,
1000
0100
0010
0110
,
0001
1000
0001
1000
,
0001
1000
0001
0000
1000
0000
0000
0000
,
0001
0001
0100
0100
,
0010
1000
1001
0000
,
1000
1000
0100
0100
,
0010
0001
1001
0000
,
0001
0001
0010
0010
,
0100
1000
1001
0000
,
1000
1000
0010
0010
,
0100
0001
1001
0000
,
1000
0100
0001
0000
,
0001
0100
1000
0000
,
0001
0100
1000
0000
,
1000
0100
0001
0000
,
1000
0010
0001
0000
,
0001
0010
1000
0000
,
0001
0010
1000
0000
,
1000
0010
0001
0000
,
1000
0001
1000
0000
0010
0000
0100
0000
,
0001
1000
0001
0000
0010
0000
0100
0000
,
1000
1000
0001
0001
,
0000
0110
1001
0000
,
2000
0000
0000
3000
,
0020
0000
0000
0030
,
0200
0000
0000
0300
,
0002
0000
0000
0003
,
0001
0100
0010
0100
,
0001
0010
0100
0000
,
1000
0100
0010
0100
,
1000
0010
0100
0000
,
0001
0001
1001
0000
,
1000
1000
1001
0000
,
1000
0000
0100
0000
0010
0001
0000
0001
,
0000
1000
0001
1000
,
0001
0010
0100
1000
,
0010
0100
0001
0000
,
1000
0100
0010
0001
,
0100
0010
1000
0000
,
0001
0001
1001
0000
,
1000
1000
1001
0000
,
0001
0010
1000
0010
,
0001
0000
1000
0000
,
0001
0000
0100
0000
0001
1000
0001
0000
,
0010
0000
0100
0000
1000
0001
1000
0000
,
0020
0000
0000
0030
,
0200
0000
0000
0300
,
0001
0000
0100
0000
0010
1000
0010
0000
,
1000
0000
0100
0000
0010
0001
0010
0000
,
0001
0000
1000
0000
0100
0010
0100
0000
,
2000
0000
0000
3000
,
1001
0000
0000
0000
,
0000
0000
0000
0000
;
#NOTES:
     dance-single:
     :
     Medium:
     11:
     :
0000
0000
0000
0000
,
0000
0000
0000
0000
,
0000
0000
0000
0000
,
0000
0000
0000
0000
,
0000
0000
0000
0000
,
0000
0000
0000
0000
,
2000
0000
0000
3000
,
0002
0000
0000
0003
,
0200
0000
0000
0000
,
0000
0000
0000
0300
,
0001
0000
0000
0100
0000
0000
0001
0000
0200
0000
0000
0000
0300
0000
0000
0000
,
0010
0000
0000
1000
0000
0000
0010
0000
2000
0000
0000
0000
3000
0000
0000
0000
,
1000
0000
0000
0100
0000
0000
1000
0000
0100
0000
0000
0000
0010
0000
0000
0000
,
0001
0000
0000
1000
0000
0000
0001
0000
2000
0000
0000
0000
3000
0000
0000
0000
,
0001
0100
1000
0000
,
1000
0000
0000
0100
0000
0000
0001
0000
1000
0000
0000
0000
0000
0000
0000
0000
,
1000
0100
0001
0000
0100
1000
0000
0001
,
0000
2000
3020
0230
,
0301
0000
0000
0010
0000
0000
0100
0000
2000
0000
0000
0000
3000
0000
0000
0000
,
1000
0000
0000
0010
0000
0000
0100
0000
0002
0000
0000
0000
0003
0000
0000
0000
,
0001
0000
0000
1000
0000
0000
0100
0000
0010
0000
0000
0000
0001
0000
0000
0000
,
0100
0000
0000
0010
0000
0000
1000
0000
0002
0000
0000
0000
0003
0000
0000
0000
,
1000
0010
0001
0000
,
0001
0000
0000
0010
0000
0000
1000
0000
0002
0000
0000
0000
0003
0000
0000
0000
,
1000
0000
0000
0100
0000
0000
1000
0000
0001
0000
0000
0000
0100
0000
0000
0000
,
0020
0000
0200
0330
,
0001
0100
0001
0000
0100
0010
1000
0000
,
0100
1000
0100
0000
1000
0100
0010
0000
,
0001
1000
0010
0000
0100
0001
0010
0000
,
0001
1000
0100
0000
0010
0001
0100
0000
,
0001
0011
0001
0101
,
1000
1010
1000
1100
,
1000
0100
0010
0000
0001
0100
0010
0000
,
1000
0001
1000
0001
1000
0001
1000
0000
,
0001
0100
0001
0000
1000
0100
1000
0000
,
1100
0110
0011
0000
,
1000
0010
1000
0000
0001
0010
0001
0000
,
0011
0110
1100
0000
,
1000
0001
0010
0000
0001
1000
0100
0000
,
1010
0110
0101
0000
,
0001
0000
0010
0000
1000
0010
0001
0000
,
1000
0100
0010
0000
0001
0000
1001
0000
,
1000
0010
0100
0010
1000
0100
0010
0000
,
0011
0001
1001
0000
,
0001
0010
0100
0010
0001
0100
0010
0000
,
1010
1000
1001
0000
,
1000
0100
0001
0000
0100
1000
0000
0001
,
0000
0010
0100
0000
0110
0000
0000
0000
,
0001
0110
1000
0110
,
0001
1000
0001
0000
1001
0000
1001
0000
,
1000
0100
0010
0100
1000
0001
0010
0000
,
0001
0100
0010
0100
0001
1000
0010
0000
,
1000
0100
0010
0000
0001
0100
0010
1000
,
0000
2010
0001
3001
,
1000
0100
0110
0000
,
0001
0100
0110
0000
,
1000
0010
0110
0000
,
0001
0020
0230
2300
,
3001
0000
0000
0100
0000
0000
0001
0000
0100
0000
0000
0000
1001
0000
0000
0000
,
1000
0000
0000
0100
0000
0000
1000
0000
0100
0000
0000
0000
1001
0000
0000
0000
,
0001
0000
0000
0010
0000
0000
1000
0000
0010
0000
0000
0000
0001
0000
0000
0000
,
1000
0000
0000
0100
0000
0000
0010
0000
0002
0000
0000
0000
0003
0000
0000
0000
,
1000
1010
1000
1100
,
0100
0000
0000
1000
0000
0000
0010
0000
0200
0000
0000
0000
0300
0000
0000
0000
,
0001
0100
1000
0100
0001
1000
0000
0001
,
0000
0002
2003
3002
,
1003
0000
0000
0010
0000
0000
1000
0000
0010
0000
0000
0000
1001
0000
0000
0000
,
0001
0000
0000
0010
0000
0000
0001
0000
0010
0000
0000
0000
1001
0000
0000
0000
,
1000
0000
0000
0100
0000
0000
0001
0000
0100
0000
0000
0000
1000
0000
0000
0000
,
0001
0000
0000
0010
0000
0000
0100
0000
2000
0000
0000
0000
3000
0000
0000
0000
,
0001
0101
0001
0011
,
0010
0000
0000
0001
0000
0000
0100
0000
0020
0000
0000
0000
0030
0000
0000
0000
,
1000
0000
0000
0010
0000
0000
0001
0000
0010
0000
0000
0000
1000
0000
0000
0000
,
0020
0000
0200
0330
,
0010
0000
1001
0000
1000
0001
0100
0000
,
0010
0000
1001
0000
0001
1000
0100
0000
,
0010
0000
1001
0000
1000
0010
0100
0000
,
0001
0000
0100
1000
0000
0100
0000
0001
,
1000
0000
0110
0000
0001
0010
0100
0000
,
1000
0000
0110
0000
1000
0001
0100
0000
,
0010
0000
1001
0000
0001
0100
0010
0000
,
1000
0000
0010
0001
0000
0010
0000
1000
,
0002
0000
0000
0000
,
0000
0000
0000
0000
,
0000
0000
0000
0000
,
0000
0000
0000
0000
,
0000
0000
0000
0000
,
0000
0000
0003
0000
,
0000
0000
0000
0000
;
#NOTES:
     dance-single:
     :
     Hard:
     14:
     :
0000
0000
0000
0000
,
0000
0000
0000
0000
,
0000
0000
0000
0000
,
0000
0000
0000
0000
,
0000
0000
0000
0000
,
0000
0000
0000
0000
,
2000
0000
0000
3000
,
0002
0000
0000
0003
,
0020
0000
0000
0000
,
0030
0010
0001
1000
,
0010
0000
0000
1000
0000
0000
0010
0000
2000
0000
0000
0000
3000
0000
1000
0000
,
0100
0000
0000
0010
0000
0000
0001
0000
0020
0000
0000
0000
0030
0000
0010
0000
,
0001
0000
0000
0100
0000
0000
1000
0000
0100
0000
0000
0000
0100
0000
0001
0000
,
1000
0000
0000
0010
0000
0000
1000
0000
0002
0000
0000
0000
0003
0000
0001
0000
,
1000
0000
1010
0000
1001
0000
0001
0100
,
0001
0000
0000
0010
0000
0000
1000
0000
0020
0000
0000
0000
0030
0000
0000
0000
,
0001
0010
0100
1000
0010
0100
0000
0010
,
0000
2000
3002
0203
,
0301
0000
0000
0100
0000
0000
1000
0000
0200
0000
0000
0000
0300
0000
0100
0000
,
0001
0000
0000
0010
0000
0000
1000
0000
0020
0000
0000
0000
0000
0000
0030
0000
,
0010
0000
0000
0001
0000
0000
1000
0000
0100
0000
0000
0000
1000
0000
0010
0000
,
1000
0000
0000
0001
0000
0000
0100
0000
0020
0000
0000
0000
0030
0000
0010
0000
,
1000
1100
1001
0000
,
0001
0000
0000
0100
0000
0000
0010
0000
2000
0000
0000
0000
3000
0000
0000
0000
,
1000
0000
0000
0010
0000
0000
0001
0000
1000
0000
0000
0000
0100
0000
0000
0000
,
0002
0000
2000
3003
,
1000
0100
1000
0100
0010
0001
0010
0001
,
0100
0001
0100
0001
1000
0010
1000
0010
,
1000
0100
0010
0001
1000
0100
0010
0001
,
0100
0001
1000
0010
0100
0001
1000
0010
,
1000
0001
0011
0000
0001
1000
1010
0000
,
0010
1000
1100
0000
0100
0010
0011
0000
,
0001
0100
0000
0001
0100
0000
0001
0100
0010
1000
0000
0010
1000
0000
0010
1000
,
0001
0010
0001
0000
1000
0010
1000
0000
0001
1000
0001
1000
0001
0000
0000
0000
,
1000
0010
0100
0001
0010
0100
1000
0010
,
0100
0000
0010
0000
0100
0000
0000
0000
0010
0000
0000
0000
1001
0000
1000
0010
,
0100
0001
0010
0001
0100
0010
1000
0100
,
1100
0000
0000
0000
0011
0000
0000
0000
1001
0000
0000
0000
1000
0000
0001
0010
,
0100
1000
0010
0100
0001
0100
0010
1000
,
1100
0000
0011
0000
1001
0000
1000
0001
,
0001
0100
0100
0010
1000
0010
0100
1000
,
0100
0000
0000
0101
0000
0000
1001
0000
1000
0100
0010
0001
1000
0000
0000
0000
,
0001
0100
0001
0100
0001
0000
0010
0000
0100
0000
1000
0000
0100
0000
0010
0000
,
1000
0010
0001
0000
2000
0000
3000
0000
,
1000
0010
1000
0010
1000
0000
0001
0100
0001
0000
1000
0000
0010
0000
0001
0000
,
0010
0000
0000
0000
0110
0000
0000
0000
0001
0000
1000
0000
1001
0000
0001
0100
,
0001
0010
0100
0010
0001
0100
0000
0110
,
0000
0010
1000
0000
1010
0000
1001
0000
,
0010
0100
1001
0000
0100
0010
1001
0000
,
1000
0100
0011
0000
1002
0000
1003
0000
,
1000
0100
0010
0000
0100
0010
0001
0000
1000
0000
0010
0000
0100
0000
0010
1000
,
0001
0000
0010
0000
0100
0000
0010
0000
0001
0000
0100
0010
0100
0000
0010
0000
,
1000
0000
0001
0100
0010
0000
1000
0100
0010
0000
0001
0000
1000
0000
0100
0000
,
0000
0110
0011
1001
,
1000
0000
0000
0001
0100
0001
1000
0100
1000
0001
0100
0000
,
0000
0000
0000
0001
0010
0001
1000
0010
1000
0010
0000
0000
,
0000
0000
0000
1000
0100
0010
0001
0010
0100
1000
0001
0010
,
0100
2000
3002
0203
,
0301
1000
0000
0100
0010
0000
0001
0000
0100
0000
0010
0100
0010
0000
0100
0000
,
0001
0010
0000
0100
1000
0000
0001
0000
0100
0000
0010
0100
0010
0000
0100
0000
,
0001
0100
0000
0010
1000
0000
0001
0000
1000
0100
1000
0000
0001
0010
0001
0000
,
1000
0010
0000
1000
0100
0000
0010
0000
0002
0000
0000
0000
0003
0000
0001
0000
,
0011
0101
0220
0330
,
0010
1000
0000
1000
0100
0000
0010
0000
0220
0000
0000
0000
0330
0000
0000
0000
,
1000
0100
0001
1000
0010
0001
0000
1000
,
0010
0000
0000
0110
0000
0000
1001
0000
0001
1000
0010
0100
0001
0000
0000
0000
,
1000
0001
0000
0010
0100
0000
1000
0000
0010
0000
0100
0010
0100
0000
0010
0000
,
1000
0100
0000
0010
0001
0000
1000
0000
0010
0000
0100
0010
0100
0000
0010
0000
,
1000
0010
0000
0100
0001
0000
1000
0000
0001
0010
0001
0000
1000
0100
1000
0000
,
0001
0100
0000
0001
0010
0000
0100
0000
2000
0000
0000
0000
3000
0000
1000
0000
,
1100
1010
0220
0330
,
0100
0001
0000
0001
0010
0000
0100
0000
0220
0000
0000
0000
0330
0000
0000
0000
,
0001
0010
0000
0100
1000
0000
0001
0000
1000
0010
0000
0100
0001
0000
1000
0000
,
0200
0000
0020
0330
,
0001
0000
0100
0010
1000
0000
0100
0000
0010
0000
0100
0000
1000
0000
0001
0000
,
0100
0000
0010
1000
0001
0000
0010
0000
0100
0000
0010
0000
0001
0000
0100
0000
,
0010
0000
1000
0001
0100
0000
0010
0000
0100
0000
0001
0000
1000
0000
0100
0000
,
0010
0000
0001
1000
0010
0000
0100
0000
0001
0100
0001
0000
1000
0100
1000
0000
,
0010
0000
0100
0001
0010
0000
0100
0000
1000
0000
0001
0000
0010
0000
0001
0000
,
0100
0000
0010
1000
0100
0000
0010
0000
0001
0000
1000
0000
0010
0000
0100
0000
,
0001
0000
0010
0001
0100
0000
0010
0000
1000
0000
0100
0000
1000
0000
0001
0000
,
0010
0001
0000
0100
0010
0000
1000
0100
0000
0010
0001
0000
1000
0001
1000
0000
,
0002
0000
0000
0000
,
0000
0000
0000
0000
,
0000
0000
0000
0000
,
0000
0000
0000
0000
,
0000
0000
0000
0000
,
0000
0000
0003
0000
,
0000
0000
0000
0000
;
#NOTES:
     dance-double:
     :
     Easy:
     7:
     :
00000000
00000000
00000000
00000000
,
00000000
00000000
00000000
00000000
,
00000000
00000000
00000000
00000000
,
00000000
00000000
00000000
00000000
,
00000000
00000000
00000000
00000000
,
00000000
00000000
00000000
00000000
,
00002000
00000000
00000000
00003000
,
00020000
00000000
00000000
00030000
,
00002000
00000000
00000000
00000000
,
00003000
00000000
00000000
00000000
,
00001000
00010000
00001000
00000000
,
00010000
00001000
01000000
00000000
,
00010000
01000000
00010000
00000000
,
01000000
00100000
10000000
00000000
,
10000000
01000000
00100000
00000000
,
01000000
00100000
00010000
00000000
,
00100000
00001000
00010000
00000000
,
00001000
00010000
00001000
00000000
,
00010000
00000100
00001000
00000000
,
00000100
00000010
00000001
00000000
,
00001000
00000001
00001000
00000100
,
00010000
00001000
00010000
00000000
,
00001000
01000000
00001000
00000000
,
00010000
00001000
00100000
00000000
,
00010000
00100000
01000000
10000000
,
00020000
00000000
00000000
00030000
,
10000000
00000000
00100000
00000000
01000000
00010000
01000000
00000000
,
00010000
00100000
00001000
00010000
,
00000100
00000000
00001000
00000000
00000010
00001000
00000010
00000000
,
00000100
00000001
00001000
00000000
,
00000001
00000000
00000010
00000000
00000100
00001000
00000100
00000000
,
00001000
00000010
00010000
00001000
,
01000000
00000000
00010000
00000000
00100000
00010000
00100000
00000000
,
01000000
10000000
00010000
00000000
,
10000000
01000000
00010000
00000000
,
00010000
00001000
00010000
00000000
,
00001000
00000010
00000001
00000000
,
00001000
00000001
00001000
00000000
,
00000001
00000100
00001000
00000000
,
00001000
00010000
00001000
00000000
,
00010000
00100000
10000000
00000000
,
00010000
10000000
00010000
00000000
,
10000000
01000000
00100000
01000000
,
10000000
00000000
10010000
00000000
,
00010000
00100000
00001000
00000000
,
00011000
00000000
00000000
00000000
,
00001000
00010000
00000010
00001000
,
00000010
00000000
00000110
00000000
,
00000001
00001000
00000001
00000000
,
00001001
00000000
00000000
00000000
,
00000001
00000010
00000001
00000000
00000100
00000000
00000010
00000000
,
00001000
00000100
00001000
00000000
00000100
00000000
00010000
00000000
,
00001000
00100000
00010000
01000000
,
00000000
00000000
01100000
00000000
,
20000000
00000000
00000000
30000000
,
00020000
00000000
00000000
00030000
,
00200000
00000000
00000000
00300000
,
00002000
00000000
00000000
00003000
,
00001000
00010000
00000010
00000000
,
00000100
00000001
00001000
00000000
,
00000001
00000010
00000100
00010000
,
00001000
00100000
01000000
00000000
,
01100000
00000000
10010000
00000000
,
10000000
01000000
00100000
00000000
,
00100000
00000000
00001000
00000000
00010000
00001000
00000000
00001000
,
00000000
00000000
00000000
00000000
,
00010000
00001000
00100000
00000000
,
01000000
10000000
00010000
00000000
,
10000000
00100000
01000000
00001000
,
00010000
00000010
00000100
00000000
,
00000110
00000000
00001001
00000000
,
00000001
00000100
00000010
00000000
,
00000010
00010000
00001000
00010000
,
00002000
00000000
00000000
00003000
,
00001000
00100000
00010000
01000000
,
00100000
00000000
10000000
00000000
01000000
00100000
01000000
00000000
,
20000000
00000000
00000000
30000000
,
00020000
00000000
00000000
00030000
,
00100000
00010000
00100000
00001000
,
00010000
00000000
00000100
00000000
00001000
00000010
00001000
00000000
,
00000100
00000010
00000001
00001000
,
00000002
00000000
00000000
00000003
,
00001001
00000000
00000000
00000000
,
00000000
00000000
00000000
00000000
;
#NOTES:
     dance-double:
     :
     Medium:
     11:
     :
00000000
00000000
00000000
00000000
,
00000000
00000000
00000000
00000000
,
00000000
00000000
00000000
00000000
,
00000000
00000000
00000000
00000000
,
00000000
00000000
00000000
00000000
,
00000000
00000000
00000000
00000000
,
00002000
00000000
00000000
00003000
,
00020000
00000000
00000000
00030000
,
02000000
00000000
00000000
00000000
,
00000000
00000000
00000000
03000000
,
10000000
00000000
00000000
01000000
00000000
00000000
10000000
00000000
02000000
00000000
00000000
00000000
03000000
00000000
00000000
00000000
,
00100000
00000000
00000000
00010000
00000000
00000000
00100000
00000000
00020000
00000000
00000000
00000000
00030000
00000000
00000000
00000000
,
00100000
00000000
00000000
00001000
00000000
00000000
00010000
00000000
00001000
00000000
00000000
00000000
00010000
00000000
00000000
00000000
,
00000100
00000000
00000000
00001000
00000000
00000000
00000100
00000000
00000020
00000000
00000000
00000000
00000030
00000000
00000000
00000000
,
00000001
00001000
00000001
00000000
,
00000001
00000000
00000000
00000100
00000000
00000000
00000010
00000000
00001000
00000000
00000000
00000000
00000000
00000000
00000000
00000000
,
00001000
00000000
00000010
00010000
00001000
00010000
00000000
00001000
,
00000000
00002000
02003000
03020000
,
01030000
00000000
00000000
00100000
00000000
00000000
01000000
00000000
00200000
00000000
00000000
00000000
00300000
00000000
00000000
00000000
,
10000000
00000000
00000000
00010000
00000000
00000000
10000000
00000000
00020000
00000000
00000000
00000000
00030000
00000000
00000000
00000000
,
10000000
00000000
00000000
00010000
00000000
00000000
00100000
00000000
00010000
00000000
00000000
00000000
01000000
00000000
00000000
00000000
,
00001000
00000000
00000000
00010000
00000000
00000000
00001000
00000000
00020000
00000000
00000000
00000000
00030000
00000000
00000000
00000000
,
00010000
00001000
00000010
00000000
,
00000010
00000000
00000000
00000001
00000000
00000000
00000010
00000000
00000002
00000000
00000000
00000000
00000003
00000000
00000000
00000000
,
00000001
00000000
00000000
00001000
00000000
00000000
00000010
00000000
00001000
00000000
00000000
00000000
00000100
00000000
00000000
00000000
,
00020000
00000000
00002000
00033000
,
00001000
00010000
00001000
00000000
00100000
00010000
00100000
00000000
,
00010000
01000000
00010000
00000000
01000000
00100000
10000000
00000000
,
00010000
01000000
00010000
00000000
00100000
00010000
00100000
00000000
,
00001000
00010000
00000100
00000000
00001000
00000100
00000010
00000000
,
00000001
00000011
00000010
00000100
,
00001000
00001100
00000100
00010000
,
00001000
00011000
00010000
00001000
,
00100000
00010000
00100000
00000000
00010000
01000000
00010000
00000000
,
01000000
00100000
10000000
00000000
01000000
00100000
00010000
00000000
,
10000000
11000000
01100000
00000000
,
00100000
00010000
00100000
00000000
00001000
00010000
00001000
00000000
,
00010000
00010010
00001010
00000000
,
00001000
00000010
00000100
00000000
00000001
00001000
00000001
00000000
,
00000010
00000110
00001100
00000000
,
00001000
00000000
00000001
00000000
00000100
00000010
00000100
00000000
,
00001000
00010000
00001000
00011000
,
00010000
00001000
01000000
00010000
01000000
00001000
00010000
00000000
,
00001000
00100000
01000000
00000000
,
10000000
01000000
00100000
01000000
10000000
00010000
00100000
00000000
,
00010000
00100000
01100000
00000000
,
01000000
00100000
00001000
00000000
00010000
00001000
00000000
00010000
,
00000000
00000100
00000010
00000000
00000001
00000000
00000000
00000000
,
00000001
00000100
00001000
00010000
,
00100000
01000000
00100000
00000000
10010000
00000000
00000000
00000000
,
10000000
00100000
01000000
00010000
00100000
00001000
00010000
00000000
,
00001000
00010000
00000100
00001000
00000010
00000100
00000001
00000000
,
00000001
00000010
00000100
00000000
00001000
00000100
00010000
00001000
,
00000000
00012000
00010000
00013000
,
00001000
00010000
00100000
00100000
,
10000000
01000000
00010000
00010000
,
00001000
00000010
00000001
00000001
,
00001001
00002000
00003200
00020300
,
00031000
00000000
00000000
00100000
00000000
00000000
00001000
00000000
00200000
00000000
00000000
00000000
00310000
00000000
00000000
00000000
,
01000000
00000000
00000000
00100000
00000000
00000000
01000000
00000000
00200000
00000000
00000000
00000000
10300000
00000000
00000000
00000000
,
00010000
00000000
00000000
01000000
00000000
00000000
00001000
00000000
00010000
00000000
00000000
00000000
00000100
00000000
00000000
00000000
,
00001000
00000000
00000000
00000010
00000000
00000000
00000100
00000000
00000002
00000000
00000000
00000000
00000003
00000000
00000000
00000000
,
00000001
00000010
00002000
00003000
,
00001000
00000000
00000000
00010000
00000000
00000000
01000000
00000000
20000000
00000000
00000000
00000000
30000000
00000000
00000000
00000000
,
10000000
00100000
01000000
00000000
00010000
00100000
00000000
00001000
,
00000000
00002000
00023000
00032000
,
00013000
00000000
00000000
00000010
00000000
00000000
00010000
00000000
00000020
00000000
00000000
00000000
00001030
00000000
00000000
00000000
,
00000100
00000000
00000000
00000010
00000000
00000000
00000100
00000000
00000020
00000000
00000000
00000000
00000031
00000000
00000000
00000000
,
00001000
00000000
00000000
00000100
00000000
00000000
00010000
00000000
00001000
00000000
00000000
00000000
01000000
00000000
00000000
00000000
,
00010000
00000000
00000000
00100000
00000000
00000000
01000000
00000000
20000000
00000000
00000000
00000000
30000000
00000000
00000000
00000000
,
10000000
00100000
00020000
00030000
,
00010000
00000000
00000000
00001000
00000000
00000000
00000100
00000000
00000002
00000000
00000000
00000000
00000003
00000000
00000000
00000000
,
00000001
00000000
00000000
00000010
00000000
00000000
00000100
00000000
00001000
00000000
00000000
00000000
00000100
00000000
00000000
00000000
,
00020000
00000000
00002000
00033000
,
00001000
00000000
01000000
00000000
00010000
00100000
00010000
00000000
,
10000000
00000000
01000000
00000000
00100000
00010000
00100000
00000000
,
00010000
00000000
10000000
00000000
00100000
01000000
00100000
00000000
,
00010000
00000000
00001000
00000100
00000000
00000001
00000000
00001000
,
00000100
00000000
00000010
00000000
00000001
00001000
00000001
00000000
,
00000100
00000000
00000010
00000000
00010000
00001000
00010000
00000000
,
00001000
00000000
00100000
00000000
00010000
01000000
00010000
00000000
,
10000000
00000000
00100000
00010000
00000000
00001000
00000000
00010000
,
00002000
00000000
00000000
00000000
,
00000000
00000000
00000000
00000000
,
00000000
00000000
00000000
00000000
,
00000000
00000000
00000000
00000000
,
00000000
00000000
00000000
00000000
,
00000000
00000000
00003000
00000000
,
00000000
00000000
00000000
00000000
;
#NOTES:
     dance-double:
     :
     Hard:
     14:
     :
00000000
00000000
00000000
00000000
,
00000000
00000000
00000000
00000000
,
00000000
00000000
00000000
00000000
,
00000000
00000000
00000000
00000000
,
00000000
00000000
00000000
00000000
,
00000000
00000000
00000000
00000000
,
00002000
00000000
00000000
00003000
,
00020000
00000000
00000000
00030000
,
00002000
00000000
00000000
00000000
,
00003000
00001000
00100000
00010000
,
01000000
00000000
00000000
00100000
00000000
00000000
10000000
00000000
00200000
00000000
00000000
00000000
00300000
00000000
00100000
00000000
,
10000000
00000000
00000000
01000000
00000000
00000000
00100000
00000000
02000000
00000000
00000000
00000000
03000000
00000000
01000000
00000000
,
00010000
00000000
00000000
00001000
00000000
00000000
00010000
00000000
00001000
00000000
00000000
00000000
00001000
00000000
00010000
00000000
,
00000100
00000000
00000000
00001000
00000000
00000000
00000100
00000000
00000020
00000000
00000000
00000000
00000030
00000000
00000010
00000000
,
00000001
00000011
00002002
00003003
,
00000001
00000000
00000000
00000100
00000000
00000000
00001000
00000000
00020000
00000000
00000000
00000000
00030000
00000000
00000000
00000000
,
00010000
00001000
00100000
00010000
01000000
00100000
00000000
10000000
,
00000000
20000000
30200000
02300000
,
03010000
00000000
00000000
00100000
00000000
00000000
00010000
00000000
02000000
00000000
00000000
00000000
03000000
00000000
01000000
00000000
,
00100000
00000000
00000000
00010000
00000000
00000000
00001000
00000000
00020000
00000000
00000000
00000000
00000000
00000000
00030000
00000000
,
00010000
00000000
00000000
00000010
00000000
00000000
00001000
00000000
00000010
00000000
00000000
00000000
00000100
00000000
00000001
00000000
,
00000100
00000000
00000000
00000010
00000000
00000000
00001000
00000000
00000002
00000000
00000000
00000000
00000003
00000000
00000001
00000000
,
00000010
00000110
00001100
00000000
,
00001000
00000000
00000000
00000100
00000000
00000000
00010000
00000000
00002000
00000000
00000000
00000000
00003000
00000000
00000000
00000000
,
00001000
00000000
00000000
01000000
00000000
00000000
00010000
00000000
00100000
00000000
00000000
00000000
01000000
00000000
00000000
00000000
,
20000000
00000000
00020000
30030000
,
10000000
00100000
10000000
00100000
01000000
00010000
01000000
00010000
,
00100000
00001000
00100000
00001000
00010000
00000100
00010000
00000100
,
00001000
00000100
00001000
00000100
00000010
00000001
00000010
00000001
,
00000100
00000010
00000100
00000010
00000100
00001000
00000100
00001000
,
00010000
00011000
00001000
01001000
,
01000000
01010000
00010000
10010000
,
10000000
01000000
00000000
10000000
01000000
00000000
00100000
00000000
00010000
01000000
00000000
00010000
01000000
00000000
00010000
00000000
,
00100000
00000000
00001000
00000000
00010000
00000000
00000100
00000000
00001000
00000000
00000100
00000010
00000001
00000000
00000000
00000000
,
00000001
00000010
00000100
00001000
00000010
00000100
00001000
00010000
,
00001000
00000000
00010000
00000000
00001000
00000000
00000000
00000000
00010000
00000000
00000000
00000000
00011000
00000000
00001000
00100000
,
00001000
00100000
00010000
01000000
00001000
00100000
00010000
01000000
,
01100000
00000000
00000000
00000000
10100000
00000000
00000000
00000000
10010000
00000000
00000000
00000000
00010000
00000000
10000000
01000000
,
00100000
00010000
00100000
00001000
00010000
00000100
00001000
00000100
,
00001100
00000000
00000011
00000000
00001001
00000000
00000001
00000100
,
00000100
00001000
00001000
00010000
00100000
01000000
00100000
10000000
,
00010000
00000000
01000000
00000000
10000000
00000000
01000000
00000000
00100000
01000000
00100000
01000000
00100000
00000000
00000000
00000000
,
10000000
00100000
10000000
00100000
10000000
00000000
00010000
00000000
00100000
00000000
01000000
00000000
00100000
00000000
00001000
00000000
,
00010000
00000100
00001000
00000000
00000200
00000000
00000300
00000000
,
00000010
00000001
00000010
00000001
00000010
00000000
00000001
00001000
00000001
00000000
00000100
00000000
00000010
00000000
00000100
00000000
,
00001000
00000000
00000000
00000000
00011000
00000000
00000000
00000000
00001000
00000000
00010000
00000000
01000000
00000000
00100000
00010000
,
00100000
00010000
01000000
10000000
01000000
00010000
00000000
10010000
,
00000000
10000000
01000000
00000000
01100000
00000000
00110000
00000000
,
00010000
00100000
00101000
00001000
00010000
00000010
00001010
00001000
,
00000100
00000010
00000110
00000000
00002002
00000000
00003003
00000000
,
00000001
00000100
00000001
00000000
00001000
00000100
00001000
00000000
00000001
00000000
00000010
00000000
00001000
00000000
00010000
00001000
,
00010000
00000000
01000000
00000000
00100000
00000000
00010000
00000000
01000000
00000000
00100000
01000000
00100000
00000000
10000000
00000000
,
00100000
00000000
01000000
00010000
01000000
00000000
00010000
00100000
00010000
00000000
10000000
00000000
01000000
00000000
00100000
00000000
,
00000000
01100000
00110000
00101000
,
00011000
00000000
00000000
00010000
00001000
00010000
00000010
00001000
00000010
00001000
00000001
00000000
,
00000000
00000000
00000000
00000001
00000010
00000001
00001000
00000100
00001000
00000100
00000000
00000000
,
00000000
00000000
00000000
00000100
00010000
00000100
00010000
00001000
00010000
00001000
00100000
00001000
,
00100000
00020000
02030000
03200000
,
10300000
00010000
00000000
10000000
00010000
00000000
00100000
00000000
01000000
00000000
00010000
00000000
01000000
00000000
10000000
00000000
,
00010000
00100000
00000000
00010000
00100000
00000000
01000000
00000000
00010000
00000000
00001000
00000000
00000010
00000000
00000001
00000000
,
00001000
00000001
00000000
00001000
00000001
00000000
00000100
00000000
00000010
00001000
00000010
00000000
00000100
00000001
00000100
00000000
,
00000001
00000010
00000000
00000100
00001000
00000000
00000001
00000000
00000200
00000000
00000000
00000000
00000300
00000000
00000100
00000000
,
00000110
00001010
00002002
00003003
,
00000001
00000010
00000000
00000010
00000100
00000000
00010000
00000000
00002000
00000000
00000000
00000000
00003000
00000000
00000000
00000000
,
00001000
00010000
00001000
00000000
00100000
00000000
01000000
00000000
00010000
00000000
01000000
00000000
00000000
00000000
01100000
00000000
,
00000000
00100000
00002000
00000000
00023000
00000000
00030100
00000010
,
00000001
00001000
00000000
00000001
00001000
00000000
00000010
00000000
00000100
00000000
00001000
00000000
00000100
00000000
00000001
00000000
,
00001000
00000010
00000000
00001000
00000010
00000000
00000100
00000000
00001000
00000000
00010000
00000000
00100000
00000000
10000000
00000000
,
00010000
10000000
00000000
00010000
10000000
00000000
01000000
00000000
00100000
00010000
00100000
00000000
01000000
10000000
01000000
00000000
,
10000000
00100000
00000000
01000000
00010000
00000000
10000000
00000000
02000000
00000000
00000000
00000000
03000000
00000000
01000000
00000000
,
01100000
00110000
20020000
30030000
,
10000000
00100000
00000000
00100000
01000000
00000000
00001000
00000000
00020000
00000000
00000000
00000000
00030000
00000000
00000000
00000000
,
00010000
00001000
00000000
00010000
00000010
00000000
00001000
00000000
00000010
00000100
00000000
00000001
00000100
00000000
00000010
00000000
,
00001000
00000100
00010000
00001000
01000000
00010000
10000000
00000000
,
00010000
00000000
00100000
01000000
00100000
00000000
00010000
00000000
10000000
00000000
00100000
00000000
01000000
00000000
00001000
00000000
,
00010000
00000000
00000100
00001000
00000100
00000000
00000010
00000000
00000001
00000000
00000100
00000000
00001000
00000000
00000100
00000000
,
00000001
00000000
00000010
00000100
00000010
00000000
00000001
00000000
00001000
00000000
00000100
00000000
00010000
00000000
00001000
00000000
,
00100000
00000000
00010000
00000000
01000000
00000000
01010000
00000000
00010000
00000000
10000000
00100000
10000000
00000000
01000000
00000000
,
10000000
00000000
00100000
01000000
00010000
00000000
10000000
00000000
01000000
00000000
00010000
00000000
00001000
00000000
00000010
00000000
,
00000001
00000000
00001000
00000100
00000010
00000000
00000001
00000000
00000100
00000000
00000001
00000000
00000010
00000000
00000100
00000000
,
00001000
00000000
00000010
00010000
00001000
00000000
00010000
00000000
00001000
00000000
00100000
00000000
00010000
00000000
01000000
00000000
,
00010000
00100000
00000000
01000000
10000000
00000000
00100000
01000000
00000000
00010000
00100000
00000000
00001000
00010000
00001000
00000000
,
00020000
00000000
00000000
00000000
,
00000000
00000000
00000000
00000000
,
00000000
00000000
00000000
00000000
,
00000000
00000000
00000000
00000000
,
00000000
00000000
00000000
00000000
,
00000000
00000000
00030000
00000000
,
00000000
00000000
00000000
00000000
;
