
//----- song ID: sipp -----//
#VERSION:0.83;
#TITLE:疾風迅雷;
#ARTIST:KUMOKIRI;
#TITLETRANSLIT:Shippuujinrai;
#BANNER:Shippuujinrai.png;
#BACKGROUND:Shippuujinrai-bg.png;
#CDTITLE:./CDTitles/bm IIDX 21 SPADA.png;
#MUSIC:Shippuujinrai.ogg;
#SAMPLESTART:81.335;
#SAMPLELENGTH:15;
#BPMS:0=180;
#NOTEDATA:;
#STEPSTYPE:dance-single;
#DIFFICULTY:Beginner;
#METER:4;
#NOTES:
0000
0000
0000
0000
,
0000
0000
0000
0000
,
0000
0000
0000
0000
,
0000
0000
0000
0000
,
0000
0000
0000
0000
,
0000
0000
0000
0000
,
1000
0000
0000
0000
,
0000
0000
0000
0000
,
0001
0000
0000
0000
,
0000
0000
0000
0000
,
0100
0000
0000
0000
,
0100
0000
0000
0000
,
0010
0000
0000
0000
,
0010
0000
0000
0000
,
1000
0000
0000
0000
,
1000
0000
0000
0000
,
0001
0000
0000
0000
,
0001
0000
0000
0000
,
0100
0000
0100
0000
,
0010
0000
0010
0000
,
0100
0000
0100
0000
,
0010
0000
0000
0000
,
1000
0000
1000
0000
,
0001
0000
0001
0000
,
1000
0000
1000
0000
,
0001
0000
0000
0000
,
1000
0000
0001
0000
,
0100
0000
0000
0000
,
0001
0000
1000
0000
,
0010
0000
0000
0000
,
0100
0000
0100
0000
,
0001
0000
0001
0000
,
1000
0000
1000
0000
,
0010
0000
0010
0000
,
0200
0000
0000
0000
,
0300
0000
0000
0000
,
0002
0000
0000
0000
,
0003
0000
0000
0000
,
2000
0000
0000
0000
,
3000
0000
0000
0000
,
0020
0000
0000
0000
,
0030
0000
0000
0000
,
1000
0000
0100
0000
,
0010
0000
0000
0000
,
0001
0000
0010
0000
,
0100
0000
0000
0000
,
1000
0000
0010
0000
,
0100
0000
0000
0000
,
2002
0000
0000
0000
,
3003
0000
0000
0000
,
1000
0000
1000
0000
,
0001
0000
0100
0000
,
0010
0000
0010
0000
,
1000
0000
0001
0000
,
0001
0000
0000
0000
,
0001
0000
0010
0000
,
0100
0000
1000
0000
,
1000
0000
0100
0000
,
0010
0000
0001
0000
,
1000
0000
0001
0000
,
0000
0000
0000
0000
,
0001
0000
1000
0000
,
0010
0000
0000
0000
,
1000
0000
0001
0000
,
0100
0000
0000
0000
,
0001
0000
1000
0000
,
0010
0000
0000
0000
,
0100
0000
0100
0000
,
0200
0000
0300
0000
,
1001
0000
0000
0000
,
0110
0000
0000
0000
,
1001
0000
0110
0000
,
1001
0000
0000
0000
,
0001
0001
0001
0000
,
1000
1000
1000
0000
,
0010
0000
0010
0000
,
0010
0010
0010
0000
,
0020
0000
0030
0000
,
1000
0000
0000
0000
,
0001
0000
0000
0000
,
0100
0000
0100
0000
,
0001
0000
1000
0000
,
0110
0000
2002
0000
,
0000
0000
0000
0000
,
0000
0000
0000
0000
,
3003
0000
0000
0000
;
#NOTEDATA:;
#STEPSTYPE:dance-single;
#DIFFICULTY:Easy;
#METER:9;
#NOTES:
0000
0000
0000
0000
,
0000
0000
0000
0000
,
0000
0000
0000
0000
,
0000
0000
0000
0000
,
0000
0000
0000
0000
,
0000
0000
0000
0000
,
0002
0000
0000
0000
,
0000
0000
0000
0010
0000
0000
0013
0000
,
2000
0000
0000
0000
,
0000
0010
0000
0000
0000
0000
3010
0000
,
0001
0000
0100
0010
0000
0000
0100
0000
,
0001
0000
0100
0010
0000
0000
0100
0000
,
0001
0000
0010
0100
0000
0000
0010
0000
,
0001
0000
0010
0100
0000
0000
0010
0000
,
0001
0000
1000
1000
0000
0000
0010
0000
,
0100
0000
0001
0001
0000
0000
1000
0000
,
0010
0000
0100
0100
0000
0000
0001
0000
,
1000
0020
0230
0302
,
0013
0100
1000
0000
0000
0000
0001
0000
,
1000
0100
0010
0000
0000
0000
0001
0000
,
1000
0000
0001
0100
0010
0000
1000
0000
,
0001
0010
0100
0000
,
1000
0000
0001
0100
0000
0001
0010
0000
,
0001
0100
0000
0001
0010
0000
0100
0000
,
1000
0001
0100
0010
,
0200
0300
0001
1000
,
0001
0000
0100
0010
0000
0000
0010
0000
,
0000
0010
0000
0000
0010
0000
0010
0000
,
1000
0000
0010
0100
0000
0000
0100
0000
,
0000
0100
0000
0000
0100
0000
0100
0000
,
0001
0000
1000
0100
1000
0000
0010
0000
,
1000
0000
0001
0100
0001
0000
0010
0000
,
0001
0000
1000
0100
1000
0000
0010
0000
,
1000
0000
0001
0100
0001
0000
0010
0000
,
0002
0000
0000
0003
,
2000
0000
0000
3000
,
0020
0000
0000
0030
,
0200
0000
0000
0300
,
0002
0000
0023
0230
,
2300
0000
3020
0000
,
0130
0000
0000
0100
0000
0000
0000
0000
,
0001
0010
0100
0000
0010
0100
1000
0000
,
0010
0100
0110
0000
,
0001
0010
0100
0000
,
1000
0000
1001
0000
,
0001
0000
0100
0000
0010
0010
0000
0000
,
1000
0000
0001
0100
,
0010
0000
0100
0001
1000
0000
0010
0000
,
2000
0000
0000
0000
,
3200
0302
0203
2300
,
3010
0100
0001
0010
,
0100
0000
0010
0000
0001
0000
0100
0010
,
0100
0000
0001
0000
1000
0000
0100
0010
,
0100
1000
0001
0100
,
0010
1000
0100
1000
,
1001
0001
0100
1000
,
0100
0001
0010
1000
,
0010
0100
1000
0000
0001
0000
0100
0000
,
0010
0000
0001
0000
0010
0000
1000
0100
,
0010
0000
1000
0000
0010
0000
0001
0001
,
0000
0000
0000
0000
,
1000
1100
0001
0101
,
1000
1100
0001
0101
,
1000
1010
0001
0011
,
1000
1010
0001
0011
,
1000
0000
0001
0100
,
0001
0010
0001
0000
0010
0000
0100
0000
,
1000
0100
1000
0000
0100
0000
0010
0000
,
0002
0000
1003
0010
,
0110
0000
0000
0000
0000
0000
0000
0010
,
0010
0000
0000
0000
0000
0000
0000
0100
,
0100
0000
0000
0001
1000
0000
0000
0000
,
0220
0000
0330
0000
,
0010
1001
0220
0330
,
1001
0110
2002
3003
,
0001
0010
0100
1000
,
0010
0010
0010
0010
,
1000
0001
1000
0000
0001
1000
0001
0000
,
2002
0000
0000
0000
,
0000
0000
0000
3003
,
1000
0001
0100
0010
,
1000
0001
0010
0000
0100
1000
0001
0000
,
1001
0000
0000
0000
0110
0000
0000
0010
,
0000
2002
0000
0000
0000
0000
0000
0000
,
0000
0000
0000
0000
,
3003
0000
0000
0000
;
#NOTEDATA:;
#STEPSTYPE:dance-single;
#DIFFICULTY:Medium;
#METER:13;
#BPMS:0=90,36=180,100=90,132=180,262=120,263=90;
#NOTES:
0000
0000
0000
0000
,
0000
0000
0000
0000
,
0000
0000
0000
0000
,
1002
0000
0000
0010
0000
0000
0000
0000
0000
0000
0000
1000
0000
0000
0103
0000
,
2010
0000
0000
0001
0000
0000
0000
0000
0000
0100
0000
0000
3010
0000
0010
1000
,
1000
0100
0010
0001
0000
0100
0020
0000
1030
0001
0010
0100
0000
0010
0002
0000
,
0103
0010
1000
0001
0000
0010
0200
0000
1300
0010
0100
0001
0000
0010
0020
0000
,
0031
0010
0100
1000
0000
0010
0200
0000
1300
0100
0001
0010
0000
0100
0002
0000
,
0103
0010
0001
0100
0000
0010
0002
0000
0013
0000
1000
0100
0010
0001
1000
0010
,
0100
0001
0010
0000
0000
0100
1000
0010
,
0100
0001
0010
0000
0000
0001
0100
1000
,
0100
0001
0010
0000
0100
1000
0010
0100
,
0010
1000
0100
0000
1000
0000
0001
0001
,
1000
0100
0010
0100
0001
0100
0010
0100
,
1000
0010
0100
0010
0001
0010
1000
0100
,
0010
0000
0001
0100
1000
0100
0001
0010
,
2000
0000
3000
0000
0010
0001
0100
0010
,
1000
0100
0100
0010
0100
0100
0001
0100
,
0100
1000
0100
0100
0010
0100
1000
0000
,
0001
0100
0100
0010
0100
0100
1000
0100
,
0100
0010
0100
0100
0001
0010
0100
0000
,
1000
0001
0100
0010
1000
0000
2002
3003
,
0001
0100
0001
1000
0100
0000
0220
0330
,
0010
0001
1000
0010
0100
0000
0202
0303
,
0001
1000
0001
0010
0100
0000
0220
0330
,
0200
2300
3020
0032
,
0023
2030
3200
0320
,
0032
0000
0000
0000
0203
0000
0320
0000
0032
0000
0013
1000
0001
0010
0100
1000
,
0001
0100
0010
0100
0001
0010
0100
1000
0010
0100
1000
0100
0001
0010
1000
0010
,
0001
0000
0000
0000
1000
0000
0000
0000
0010
0000
0100
0000
1010
0000
0000
0001
,
0010
0000
0000
0000
0110
0000
0000
0000
0000
0000
0100
0000
1000
0010
0000
0000
,
0100
0000
0000
0000
0001
0000
0010
0000
1000
0000
0010
0100
1000
0001
0100
0010
,
0200
0000
0000
0000
0000
0000
0000
0000
0300
0001
0010
0100
1000
0001
0100
0010
,
0100
0001
0010
0100
1000
0001
1000
0010
,
0010
1000
0001
0010
0100
1000
0001
0100
,
0100
0001
1000
0100
0010
0001
1000
0010
,
0100
0001
0010
0001
0100
0010
0001
0010
,
0100
0001
1000
0100
0010
0001
1000
0001
,
0001
0100
0010
0001
0010
1000
0100
0010
,
1000
0010
0001
0100
1000
0100
0001
0010
,
0010
0100
1000
0010
0001
0010
1000
0100
,
0001
0100
1000
0010
0100
1000
0100
0010
,
0010
0000
1000
0000
0001
0000
0010
0000
0100
0000
1000
0000
0001
0000
0100
0010
,
0000
0000
0000
0000
,
1000
0000
0000
1000
0001
0000
0100
0000
0010
0000
0000
0010
0100
0000
0001
0000
,
1000
0000
0000
1000
0100
0000
0010
0000
0001
0000
0000
0001
0010
0000
0100
0000
,
1000
0000
0000
1000
0010
0000
0100
0000
0001
0000
0000
0001
1000
0000
0010
0000
,
1000
0100
0010
0100
1000
0001
0100
0001
,
0010
0000
0000
0100
0010
0000
0001
0000
1000
0000
0000
0001
0100
0000
0010
0000
,
0100
0000
0000
0001
0010
0000
0100
0000
1000
0000
0000
0010
0100
0000
1000
0000
,
0100
0000
0000
0010
1000
0000
0001
0000
0100
0000
0000
0001
0010
0000
0100
0000
,
0020
0000
0030
0000
0100
1000
0010
0100
,
0001
0000
0000
0000
0000
0000
0000
0010
,
0110
0000
0000
0000
0000
0000
0000
0000
0000
0000
0000
0000
0000
0000
1000
0001
,
1000
0000
0000
0000
0000
0000
0010
0100
0010
0000
0000
1000
0000
0000
0001
0000
,
1001
0000
0000
0000
0000
0000
0001
1000
0001
1000
0001
1000
,
0001
0000
0000
0011
0000
0000
0010
0100
0010
0100
0000
1000
,
0100
1000
0100
1000
0000
0001
0100
0000
0100
0000
0100
0000
,
0001
0010
0001
0100
0001
0010
0001
0100
,
0001
0010
1000
0010
0001
0100
1000
0100
,
0001
0010
1000
0001
0100
1000
0010
0100
,
0002
0023
0230
2300
,
3002
0203
0320
2030
,
3001
0010
0100
1000
0001
0100
0001
0010
,
0100
0000
1000
0000
0010
0000
0100
0000
0001
0000
0010
0000
0100
0000
1000
0001
,
1000
0000
0000
0000
0000
0000
0010
0100
0010
0000
1000
0000
0001
0000
2002
0000
,
0000
0000
0000
0000
0000
0000
0000
0000
0000
0000
0000
0000
0000
3003
0000
0000
;
#NOTEDATA:;
#STEPSTYPE:dance-single;
#DIFFICULTY:Hard;
#METER:17;
#BPMS:0=90,36=180,100=90,132=180,262=120,263=90;
#NOTES:
0000
0000
0000
0000
,
0000
0000
0000
0000
,
0000
0000
0000
0000
,
2010
0000
0000
0001
0000
0000
0000
0000
0000
0000
0000
0100
0000
0000
3010
0000
,
0102
0000
0000
0000
0000
0000
0010
0000
0000
0000
0000
0000
0000
0000
0000
0000
0000
0000
1000
0000
0000
0000
0000
0000
0013
0000
0000
0000
0001
1000
0001
1000
,
0001
0000
0100
0000
0020
0000
1000
0000
0000
0000
0031
0000
0010
0000
0100
0000
0001
0000
0010
0000
0200
0000
1000
0000
0000
0000
0301
0000
0100
0000
1000
0001
,
1000
0000
0010
0000
0200
0000
0001
0000
0000
0000
1300
0000
0100
0000
0010
0000
1000
0000
0100
0000
0020
0000
0001
0000
0000
0000
1030
0000
0010
0000
0001
1000
,
0001
0000
0100
0000
0020
0000
0001
0000
0000
0000
0130
0000
0010
0000
1000
0000
0001
0000
0010
0000
0200
0000
0001
0000
0000
0000
0310
0000
0001
0000
1000
0001
,
1000
0000
0010
0000
0200
0000
1000
0000
0000
0000
0301
0000
0010
0000
0001
0000
1000
0000
0000
0000
1000
0100
1000
0100
0010
0001
1000
0010
1000
0010
0100
0001
,
1000
0000
0001
0010
0100
0000
0000
0000
0000
0000
1000
0100
0010
0000
0001
0010
,
0100
0000
1000
0100
0010
0000
0000
0000
0000
0000
0001
0100
0001
0100
0010
1000
,
0001
0000
0010
0100
1000
0000
0000
0000
0000
0000
0001
0100
0010
0000
1000
0010
,
0100
0000
0001
0100
0010
0000
0000
0000
1000
0000
0000
0000
0001
0010
0001
0010
,
0100
0000
1000
0001
1000
0001
0100
0000
0010
1000
0010
1000
0001
0000
1000
0100
,
1000
0100
0010
0000
0001
1000
0001
1000
0010
0000
0100
0000
0001
0000
0010
0000
,
0100
1000
0100
1000
0001
0100
0001
0100
0010
1000
0001
0010
0100
1000
0001
0000
,
0200
0000
0010
0000
0000
0000
0000
0000
0000
0000
0000
0000
0300
0000
0000
0000
0000
0000
0000
0000
0000
0000
0000
0000
0001
0000
0000
0000
0000
0000
1000
0000
0000
0100
0000
0000
0010
0000
0000
0001
0000
0000
1000
0000
0000
0010
0000
0000
,
0100
0000
0010
0000
0010
1000
0001
0000
0010
0000
0010
0001
1000
0000
0010
0000
,
0010
1000
0001
0000
0010
0000
0010
0001
1000
0010
0100
0000
0100
0001
1000
0000
,
0010
0000
0100
0000
0100
0001
1000
0000
0100
0000
0100
1000
0001
0000
0100
0000
,
0100
0001
1000
0000
0100
0000
0100
1000
0001
0100
0010
0000
0010
1000
0001
0000
,
1000
0000
0100
0000
0010
0001
1000
0000
0001
0000
0100
0000
2020
0000
3030
0000
,
0001
0000
0100
0000
0010
1000
0001
0000
1000
0000
0100
0000
0022
0000
0033
0000
,
1000
0000
0001
0000
0100
0010
1000
0000
0001
0000
0010
0000
2200
0000
3300
0000
,
1000
0000
0010
0000
0100
0001
1000
0000
0100
0000
0010
0000
2002
0000
3003
0000
,
0001
1000
0100
1000
0000
0001
0100
0001
0020
0000
0000
0031
0010
0100
1000
0001
,
0010
0100
1000
0010
1000
0100
0010
0001
1000
0010
0100
0010
1000
0100
0010
0001
,
0200
0000
0000
0000
0302
0000
0023
0000
0230
0000
1300
0010
0100
0001
0010
0001
,
1001
1000
0010
0110
0100
0001
0010
0100
1000
0010
0010
0100
0100
0001
0001
1000
,
1001
0000
0000
0000
0011
0000
0000
0000
0010
0000
0100
0000
1100
0000
0000
1000
,
1010
0000
0000
0000
0101
0000
0000
0000
0000
0000
0001
0000
0110
0010
0000
0000
,
1001
0000
0000
0000
1000
0000
0010
0000
0100
0000
0001
1000
0100
0010
1000
0010
,
0002
0000
0000
0000
0000
0000
0000
0000
0003
0100
0100
0010
0010
1000
0100
0010
,
0001
0000
0001
0000
1000
0000
1000
0000
0010
0000
0010
0000
1000
0100
0010
0000
,
0010
0100
1000
0000
0010
0000
0010
0000
0100
0000
0100
0000
0001
0000
0001
0000
,
0010
0100
1000
0000
1000
0100
0010
0001
1000
0000
1000
0000
0010
0000
0010
0000
,
0100
0000
0100
0000
0001
0010
0100
0000
0100
0010
0001
1000
0010
0000
0010
0000
,
0100
0000
0100
0000
0001
0000
0001
0000
1000
0010
1000
0010
0100
0001
1000
0100
,
0010
0000
0001
0000
0100
0000
0010
0000
1000
0000
0100
0000
0010
0001
0010
0001
,
0010
0000
0100
0000
1000
0100
1000
0100
1000
0000
0001
0000
0100
0000
0010
0000
,
1000
0001
0010
0000
0100
1000
0100
1000
0001
0100
0010
1000
0001
0000
0010
0000
,
0100
0000
1000
0000
0001
0100
0010
0000
1000
0001
1000
0001
0010
0100
1000
0001
,
0100
0000
0010
1000
0001
0010
0100
0000
0010
0001
1000
0010
0100
0001
0010
0100
,
0000
0000
0000
0000
,
1100
0000
0001
0000
0100
0010
0100
0000
0001
0000
1000
0100
1000
0000
0001
0000
,
1000
0010
1000
0010
0100
0001
1000
0000
0100
0000
1000
0010
0100
0000
0001
0000
,
0020
0000
0000
0000
0030
0000
0001
1000
0001
0000
0010
0001
0010
0000
0100
0000
,
1000
0001
0100
0000
0010
0000
0000
0000
1100
0000
0001
0000
1100
0000
0001
0000
,
0200
0000
0000
0000
0300
0000
0001
0010
0001
0000
1000
0100
1000
0000
0001
0000
,
0000
0000
0100
0010
0100
0000
0001
0000
1000
0100
1000
0100
0010
0000
0001
0000
,
0100
0000
0010
0000
0010
0000
0100
0000
0001
0000
1000
0100
1000
0000
0001
0100
,
0020
0000
0000
0000
0000
0000
0030
0000
1000
0001
0010
0100
1000
0010
0100
0001
,
1000
0000
0100
0000
0010
0001
0010
0000
0100
0000
1000
0001
1000
0010
0100
0001
,
1000
0000
0100
0000
1000
0100
1000
0100
0010
0000
0001
1000
0001
0000
0100
0001
,
1000
0000
0001
0000
1000
0000
0100
1000
0001
0000
0000
0100
0000
0000
0010
0000
,
0100
0000
0000
0000
0000
0000
0010
0000
0000
1000
0000
0000
0001
0000
0000
0000
0000
0000
0010
0000
0000
0100
0000
0000
1000
0000
0000
0000
0001
0000
0000
0000
0100
0000
0000
0000
0010
0000
0000
0000
1000
0000
0000
0000
0100
0000
0000
0000
,
0010
0000
0000
0011
0000
0000
0010
0100
1000
0010
0000
1000
,
0001
0010
0100
1000
0000
0001
0100
0000
0101
0000
1010
0000
,
1000
0000
0010
0100
0001
0000
1000
0100
0010
0000
0001
0100
0010
0000
1000
0000
,
0001
1000
0001
1000
0001
1000
0001
1000
0001
1000
0001
1000
0001
1000
0001
1000
,
0001
0000
1000
0010
0100
0000
0001
0010
0100
0000
1000
0010
0100
0000
0001
0010
,
0200
2300
3020
0032
0023
2030
3200
0302
,
0203
2300
3020
0230
0302
0023
0230
2300
,
3001
0100
0001
1000
0010
0100
0001
1000
0100
1000
0001
0010
0001
1000
0010
0100
,
0001
1000
0010
1000
0100
0010
0001
1000
0010
1000
0100
0010
0001
0100
0010
1000
,
0100
0000
0000
0000
0000
0000
1000
0010
0100
0000
0101
0000
1010
0000
2002
0000
,
0000
0000
0000
0000
0000
0000
0000
0000
0000
0000
0000
0000
0000
3003
0000
0000
;
#NOTEDATA:;
#STEPSTYPE:dance-double;
#DIFFICULTY:Easy;
#METER:9;
#NOTES:
00000000
00000000
00000000
00000000
,
00000000
00000000
00000000
00000000
,
00000000
00000000
00000000
00000000
,
00000000
00000000
00000000
00000000
,
00000000
00000000
00000000
00000000
,
00000000
00000000
00000000
00000000
,
00002000
00000000
00000000
00000000
,
00000000
00000000
00000000
00100000
00000000
00000000
00013000
00000000
,
00020000
00000000
00000000
00000000
,
00000000
00000010
00000000
00000000
00000000
00000000
00031000
00000000
,
00010000
00000000
00000100
00001000
00000000
00000000
00000010
00000000
,
00000100
00000000
00000001
00000010
00000000
00000000
00000001
00000000
,
00001000
00000000
00000100
00001000
00000000
00000000
00000010
00000000
,
00010000
00000000
00001000
00010000
00000000
00000000
00001000
00000000
,
00100000
00000000
00010000
00100000
00000000
00000000
01000000
00000000
,
10000000
00000000
00100000
10000000
00000000
00000000
00010000
00000000
,
01000000
00000000
00100000
01000000
00000000
00000000
00010000
00000000
,
10000000
20000000
32000000
03020000
,
00031000
00010000
00001000
00000000
00000000
00000000
00010000
00000000
,
00000100
00001000
00000010
00000000
00000000
00000000
00000100
00000000
,
00000001
00000000
00000010
00000100
00001000
00000000
00000001
00000000
,
00000100
00001000
00010000
00000000
,
00001000
00000000
00010000
00001000
00000000
00010000
00000100
00000000
,
00010000
00001000
00000000
00010000
00000100
00000000
00010000
00000000
,
00001000
00010000
01000000
10000000
,
00200000
00300000
01000000
00010000
,
10000000
01000000
00010000
00001000
,
00010000
01000000
10000000
01000000
,
00010000
00001000
00000100
00000001
,
00000100
00001000
00010000
00001000
,
00000100
00000000
00000001
00000100
00000001
00000000
00000010
00000000
,
00000001
00000000
00001000
00000100
00001000
00000000
00000010
00000000
,
00010000
00000000
00001000
00010000
00001000
00000000
00100000
00000000
,
00010000
00000000
10000000
01000000
10000000
00000000
00100000
00000000
,
20000000
00000000
00000000
30000000
,
02000000
00000000
00000000
03000000
,
00020000
00000000
00000000
00030000
,
00002000
00000000
00000000
00003000
,
00000200
00000000
00000302
00000023
,
00002030
00000000
00023000
00000000
,
00031000
00000000
00000000
00001000
00000000
00000000
00000000
00000000
,
00020000
00230000
20300000
32000000
,
03010000
00000000
01000000
00000000
,
00100000
00001000
00010000
00000000
,
00001000
00000000
00010000
00000000
,
00000000
00000000
00000100
00000000
00000010
00000010
00000000
00000000
,
00000001
00000000
00001000
00000100
,
00000010
00001000
00010000
00001000
,
00012000
00000000
00000000
00000000
,
00003200
00000302
00000023
00002030
,
00013000
00001000
01000000
00100000
,
10000000
00000000
01000000
00000000
00100000
00000000
00001000
00010000
,
00001000
01000000
00010000
00100000
,
00001000
00000000
00010000
00000000
00000100
00000000
00010000
00001000
,
00010000
00000010
00000100
00000001
,
00000010
00001000
00010000
01000000
,
10000000
00010000
10000000
00100000
,
00010000
00001000
00010000
00000000
00001000
00000000
00000100
00000000
,
00000001
00000000
00000010
00000000
00001000
00000000
00010000
00001000
,
00010000
00000000
01000000
00000000
10000000
00000000
00010000
00010000
,
00000000
00000000
00000000
00000000
,
00010000
01010000
01000000
01001000
,
00001000
00011000
00011000
00000000
,
00001000
00101000
00100000
00110000
,
00010000
10010000
10010000
00000000
,
00010000
00000000
10000000
01000000
,
00100000
00010000
00100000
00000000
00001000
00000000
00010000
00000000
,
00000100
00001000
00000100
00000000
00000010
00000000
00000001
00000000
,
00000200
00000000
00000301
00001000
,
00000110
00000000
00000000
00000000
00000000
00000000
00000000
00010000
,
00010000
00000000
00000000
00000000
00000000
00000000
00000000
00001000
,
00001000
00000000
00000000
01000000
00100000
00000000
00000000
00000000
,
20020000
00000000
30030000
00000000
,
00100000
10010000
02200000
03300000
,
00011000
00100000
00022000
00033000
,
00001000
00000010
00000001
00000100
,
00000010
00001000
00000100
00010000
,
00001000
00010000
00001000
00000000
00010000
00001000
00010000
00000000
,
00022000
00000000
00000000
00000000
,
00000000
00000000
00000000
00033000
,
00001000
01000000
00010000
00100000
,
01000000
10000000
01000000
00000000
00100000
00010000
00100000
00000000
,
00001000
00000000
00000000
00000000
00010000
00000000
00000000
00001000
,
00000000
00022000
00000000
00000000
00000000
00000000
00000000
00000000
,
00000000
00000000
00000000
00000000
,
00033000
00000000
00000000
00000000
;
#NOTEDATA:;
#STEPSTYPE:dance-double;
#DIFFICULTY:Medium;
#METER:14;
#BPMS:0=90,36=180,100=90,132=180,262=120,263=90;
#NOTES:
00000000
00000000
00000000
00000000
,
00000000
00000000
00000000
00000000
,
00000000
00000000
00000000
00000000
,
00021000
00000000
00000000
00000010
00000000
00000000
00000000
00000000
00000000
00000000
00000000
00001000
00000000
00000000
00030010
00000000
,
00012000
00000000
00000000
00100000
00000000
00000000
00000000
00000000
00000000
00010000
00000000
00000000
00000000
00000000
00103000
00001000
,
00001000
00010000
01000000
10000000
00000000
00100000
02000000
00000000
13000000
01000000
00100000
00010000
00000000
00001000
00200000
00000000
,
00310000
00100000
01000000
00010000
00000000
00001000
00000200
00000000
00000301
00001000
00000010
00000100
00000000
00000001
00000020
00000000
,
00000130
00001000
00000010
00010000
00000000
00001000
00020000
00000000
01030000
00010000
00001000
00000100
00000000
00000001
00000020
00000000
,
00000031
00000100
00001000
00010000
00000000
00100000
02000000
00000000
03010000
00000000
10000000
01000000
00100000
00010000
01000000
00100000
,
00010000
00001000
00000010
00000000
00000000
00000001
00000010
00000100
,
00001000
00000010
00000100
00000000
00000000
00001000
00010000
01000000
,
00100000
00001000
00010000
00000000
00100000
01000000
00010000
01000000
,
00001000
00010000
01000000
10000000
00100000
00000000
01000000
00000000
,
00001000
00010000
00000010
00001000
00000010
00000100
00000010
00000001
,
00000010
00000100
00000010
00001000
00000010
00010000
00001000
00000010
,
00000001
00000000
00000001
00000100
00001000
00010000
00100000
01000000
,
20000000
00000000
30000000
00000000
01000000
00001000
00010000
00001000
,
00100000
00001000
00001000
00010000
00001000
00001000
00000010
00001000
,
00001000
00010000
00001000
00001000
00100000
00001000
00010000
00000000
,
00000010
00010000
00010000
00001000
00010000
00010000
00100000
00010000
,
00010000
00001000
00010000
00010000
00000100
00010000
00001000
00000000
,
00010000
00000100
00000010
00000001
00001000
00000000
00002020
00003030
,
00000010
00000100
00000001
00000010
00000100
00000000
00020200
00030300
,
00010000
00001000
00100000
00010000
10000000
00000000
20200000
30300000
,
00100000
01000000
00010000
00100000
00001000
00000000
00022000
00033000
,
00020000
00032000
00003200
00000320
,
00020030
00032000
00003020
00000032
,
00000203
00000000
00000000
00000000
00002300
00000000
00023000
00000000
02030000
00000000
03100000
00001000
00010000
00100000
01000000
00010000
,
00100000
01000000
10000000
01000000
10000000
00010000
01000000
00100000
10000000
01000000
00010000
00001000
00000100
00000001
00000010
00000100
,
00001000
00000000
00000000
00000000
00000010
00000000
00000000
00000000
00010000
00000000
00001000
00000000
00011000
00000000
00000000
00001000
,
01000000
00000000
00000000
00000000
00010000
00000000
00000000
00000000
00000000
00000000
10000000
00000000
00100000
00100000
00000000
00000000
,
10000000
00000000
00000000
00000000
01000000
00000000
00010000
00000000
00001000
00000000
00000010
00000001
00000010
00000100
00001000
00000001
,
00000200
00000000
00000000
00000000
00000000
00000000
00000000
00000000
00000300
00000001
00000010
00000001
00000010
00000100
00001000
00000000
,
00000001
00000100
00001000
00010000
00100000
01000000
00010000
10000000
,
01000000
00100000
00010000
01000000
00100000
00010000
00001000
00000100
,
00000010
00001000
00000100
00000010
00000001
00000010
00000100
00001000
,
00000010
00000100
00001000
00010000
00100000
01000000
00010000
00100000
,
01000000
10000000
01000000
00100000
00010000
01000000
00100000
00010000
,
00001000
00000100
00000001
00000010
00000100
00000010
00000001
00000100
,
00001000
00010000
00100000
10000000
01000000
00100000
01000000
10000000
,
00100000
00010000
00001000
00010000
01000000
10000000
01000000
00010000
,
00001000
00000010
00000001
00000100
00000010
00001000
00000001
00000010
,
00001000
00010000
00001000
00000100
00001000
00010000
01000000
10000000
,
00000000
00000000
00000000
00000000
,
10000000
00000000
00000000
10000000
01000000
00000000
00100000
00000000
00001000
00000000
00000000
00001000
00010000
00000000
00000100
00000000
,
00000010
00000000
00000000
00000010
00000100
00000000
00001000
00000000
00000010
00000000
00000000
00000010
00010000
00000000
00001000
00000000
,
00100000
00000000
00000000
00100000
00010000
00000000
10000000
00000000
00100000
00000000
00000000
00100000
01000000
00000000
00010000
00000000
,
10000000
01000000
00010000
00001000
00000010
00000001
00001000
00000100
,
00000010
00000000
00000000
00000010
00000100
00000000
00001000
00000000
00000001
00000000
00000000
00000001
00001000
00000000
00000010
00000000
,
00000100
00000000
00000000
00000001
00000100
00000000
00001000
00000000
00010000
00000000
00000000
00001000
00100000
00000000
00010000
00000000
,
01000000
00000000
00000000
00100000
10000000
00000000
00100000
00000000
00010000
00000000
00000000
00001000
00010000
00000000
00000100
00000000
,
00000010
00000000
00000000
00000000
00000001
00000010
00001000
00010000
,
01000000
00000000
00000000
00000000
00000000
00000000
00000000
00100000
,
01100000
00000000
00000000
00000000
00000000
00000000
00000000
00000000
00000000
00000000
00000000
00000000
00000000
00000000
00001000
00010000
,
00001000
00000000
00000000
00000000
00000000
00000000
00010000
00001000
00010000
00000000
00000000
00000100
00000000
00000000
00000010
00000000
,
00000011
00000000
00000000
00000000
00000000
00000000
00000001
00001000
00000001
00001000
00000001
00001000
,
00000001
00000000
00000000
00000011
00000000
00000000
00000010
00000100
00000010
00000100
00000000
00001000
,
00000100
00001000
00000100
00001000
00000000
00000100
00010000
00000000
00010000
00000000
00010000
00000000
,
00001000
00010000
01000000
10000000
00010000
01000000
00001000
00010000
,
00001000
00000010
00001000
00010000
00001000
00000010
00001000
00010000
,
00001000
01000000
00010000
10000000
01000000
00010000
00001000
00000100
,
00000002
00000023
00000230
00002300
,
00003020
00020030
00032000
00003200
,
00000310
00001000
00000100
00010000
00001000
00010000
01000000
00010000
,
00001000
01000000
00010000
00100000
10000000
00100000
00001000
00010000
,
00000100
00000000
00000000
00000010
00000001
00001000
00000010
00000220
,
00000000
00000000
00000000
00000000
00000000
00000000
00000000
00000000
00000000
00000000
00000000
00000000
00000000
00000330
00000000
00000000
;
#NOTEDATA:;
#STEPSTYPE:dance-double;
#DIFFICULTY:Hard;
#METER:17;
#BPMS:0=90,36=180,100=90,132=180,262=120,263=90;
#NOTES:
00000000
00000000
00000000
00000000
,
00000000
00000000
00000000
00000000
,
00000000
00000000
00000000
00000000
,
00012000
00000000
00000000
00100000
00000000
00000000
00000000
00000000
00000000
00000000
00000000
01000000
00000000
00000000
00023000
00000000
,
02030000
00000000
00000000
00000000
00000000
00000000
00100000
00000000
00000000
00000000
00000000
00000000
00000000
00000000
00000000
00000000
00000000
00000000
00010000
00000000
00000000
00000000
00000000
00000000
13000000
00000000
00000000
00000000
00010000
10000000
00010000
10000000
,
00010000
00100000
02000000
00010000
00000000
13000000
01000000
00100000
00010000
01000000
00200000
00010000
00000000
10300000
00100000
00010000
,
00001000
00000000
00010000
00000000
00000200
00000000
00000010
00000000
00000000
00000000
00000301
00000000
00000100
00000000
00001000
00000000
00000010
00000000
00010000
00000000
00002000
00000000
00000100
00000000
00000000
00000000
00013000
00000000
00000100
00000000
00001000
00000100
,
00000010
00000001
00000200
00001000
00000000
00000310
00010000
00001000
00000100
00001000
00020000
01000000
00000000
00031000
01000000
00100000
,
00010000
00000000
00100000
00000000
20000000
00000000
01000000
00000000
00000000
00000000
30100000
00000000
01000000
00000000
00010000
00000000
10000000
00000000
00000000
00000000
00010000
00100000
00010000
00100000
01000000
10000000
00010000
01000000
00010000
01000000
00100000
10000000
,
00010000
00000000
00100000
01000000
10000000
00000000
00000000
00000000
00000000
00000000
01000000
00100000
00010000
00000000
00100000
00001000
,
00010000
00000000
00001000
00010000
00000100
00000000
00000000
00000000
00000000
00000000
00001000
00000100
00000010
00000000
00000001
00000100
,
00000010
00000000
00001000
00000010
00010000
00000000
00000000
00000000
00000000
00000000
00001000
01000000
00010000
00000000
01000000
00100000
,
10000000
00000000
00010000
01000000
00100000
00000000
00000000
00000000
10000000
00000000
00000000
00000000
00010000
01000000
00010000
01000000
,
00010000
00000000
00000000
00000000
10000000
01000000
10000000
01000000
10000000
00000000
00000000
00000000
01000000
00000000
00010000
00000000
,
00001000
00000000
00000000
00000000
00010000
00001000
00010000
00001000
00010000
00000000
00000000
00000000
00001000
00000000
00000100
00000000
,
00000001
00000000
00000000
00000000
00000010
00000001
00000010
00000001
00000010
00000000
00000000
00000000
00000100
00000000
00010000
00000000
,
00002000
00000000
00000000
00000000
00013000
00001000
00010000
00001000
00010000
00000000
00001000
00000000
00100000
00010000
01000000
00100000
,
10000000
00000000
00010000
00000000
00010000
00100000
00001000
00000000
00010000
00000000
00010000
00001000
01000000
00000000
00010000
00000000
,
00010000
00100000
00001000
00000000
00010000
00000000
00010000
00001000
01000000
00000000
00010000
00000000
00010000
00100000
00001000
00010000
,
00000010
00000000
00001000
00000000
00001000
00000100
00010000
00000000
00001000
00000000
00001000
00010000
00000010
00000000
00001000
00000000
,
00001000
00000100
00010000
00000000
00001000
00000000
00001000
00010000
00000010
00000000
00001000
00000000
00001000
00000100
00010000
00001000
,
00010000
00000000
00001000
00000000
00000100
00000010
00001000
00000000
00000001
00000000
00000010
00000000
00000220
00000000
00000330
00000000
,
00000100
00000000
00010000
00000000
00001000
00100000
00010000
00000000
01000000
00000000
00100000
00000000
20200000
00000000
30300000
00000000
,
10000000
00000000
00100000
00000000
00010000
00001000
00100000
00000000
00001000
00000000
00010000
00000000
00020200
00000000
00030300
00000000
,
00000100
00000000
00000010
00000000
00001000
00000010
00000001
00000000
00000100
00000000
00000010
00000000
00002020
00000000
00003030
00000000
,
00001000
00000100
00000010
00000001
00000000
00000010
00000100
00001000
00000020
00000000
00000000
00010030
00001000
00000100
00000010
00010000
,
00001000
00000100
00000010
00001000
00000010
00000100
00001000
00010000
01000000
00100000
00001000
00010000
00100000
01000000
00010000
00100000
,
02000000
00000000
00000000
00000000
00000000
00000000
00000000
00000000
23000000
00000000
00000000
00000000
30200000
00000000
00000000
00000000
00320000
00000000
00000000
00000000
00031000
00000000
00010000
00000000
01000000
00000000
10000000
01000000
00100000
00000000
00001000
00000000
,
00011000
00000000
00010000
00010100
00000000
00000100
00001000
00000010
00000100
00000001
00000010
00001000
00000010
00000001
00000100
00001000
,
00010000
00000000
01000000
00000000
11000000
00000000
00000000
00000000
10000000
00000000
00100000
00000000
01100000
00000000
00000000
01000000
,
00001000
00000000
00000000
00000000
00011000
00000000
00000000
00000000
00000000
00000000
00010000
00000000
00001000
00000010
00000000
00000000
,
00000100
00000000
00000000
00000000
00010000
00000000
00001000
00000000
00000010
00000000
00000100
00010000
00001000
00000010
00000100
00010000
,
00002000
00000000
00000000
00000000
00000000
00000000
00000000
00000000
00003000
00100000
00100000
00010000
01000000
00010000
00100000
01000000
,
10000000
00000000
10000000
00000000
00100000
00000000
00100000
00000000
01000000
00000000
01000000
00000000
00010000
00100000
01000000
00000000
,
01000000
00100000
00010000
00000000
01000000
00000000
01000000
00000000
00001000
00000000
00001000
00000000
00010000
00000000
00010000
00000000
,
00000010
00000100
00001000
00000000
00001000
00000100
00000010
00001000
00000001
00000000
00000001
00000000
00000010
00000000
00000010
00000000
,
00001000
00000000
00001000
00000000
00010000
00001000
00100000
00000000
00010000
00100000
01000000
10000000
00010000
00000000
00010000
00000000
,
01000000
00000000
01000000
00000000
00001000
00000000
00001000
00000000
00010000
00001000
00010000
00001000
00000010
00001000
00000010
00000100
,
00001000
00000000
00000010
00000000
00010000
00000000
00001000
00000000
00000100
00000000
00000001
00000000
00000010
00000100
00000010
00000100
,
00000010
00000000
00001000
00000000
00010000
00001000
00010000
00001000
00010000
00000000
00100000
00000000
10000000
00000000
00100000
00000000
,
00010000
00001000
00100000
00000000
00010000
00100000
00010000
00100000
01000000
10000000
00010000
01000000
00100000
00000000
00010000
00000000
,
00001000
00000000
00000010
00000000
00000001
00000010
00000100
00000000
00001000
00000001
00001000
00000001
00000010
00000100
00001000
00000001
,
00000100
00000000
00000010
00001000
00000010
00001000
00000001
00000000
00000010
00000100
00001000
00000010
00010000
00001000
00010000
00001000
,
00000000
00000000
00000000
00000000
,
00010000
00000000
00000100
00000000
00010000
00001000
00000010
00000000
00000100
00000000
00010000
00001000
00000010
00000000
00000001
00000000
,
00001000
00000100
00001000
00000100
00000010
00000001
00001000
00000010
00000100
00000000
00000001
00000100
00001000
00000000
00010000
00000000
,
00200000
00000000
00000000
00000000
00000000
00000000
00310000
00001000
00100000
00000000
00010000
01000000
00100000
00000000
01000000
00010000
,
00100000
01000000
10000000
00100000
00010000
00001000
00000100
00000001
,
00000020
00000000
00000000
00000000
00000030
00000000
00000001
00000010
00000100
00000000
00001000
00000100
00000010
00000000
00001000
00000000
,
00010000
00000000
01000000
00100000
00010000
00000000
10000000
00000000
00010000
01000000
00010000
01000000
00100000
00000000
00010000
00000000
,
00001000
00000000
00000100
00000000
00000010
00000000
00010000
00000000
00001000
00000000
00000010
00000100
00001000
00000000
00000001
00000100
,
00000020
00000000
00000000
00000000
00000000
00000000
00000030
00000000
00001000
00000001
00000010
00000100
00001000
00000010
00000100
00000001
,
00001000
00000000
00000100
00000000
00000010
00000001
00000010
00000000
00001000
00000000
00010000
00000000
00100000
00000000
01000000
00000000
,
11000000
00000000
00000000
00000000
10000000
00000000
01000000
00000000
00100000
00000000
00010000
00000000
00001000
00000000
00010000
00001000
,
00000010
00000000
00000000
00000000
00000000
00000000
00000001
00000010
00000100
00000000
00000000
00010000
00000000
00000000
00001000
00000000
,
00100000
00000000
00000000
00000000
00000000
00000000
00010000
00000000
00000000
01000000
00000000
00000000
00100000
00000000
00000000
00000000
00000000
00000000
10000000
00000000
00000000
01000000
00000000
00000000
00100000
00000000
00000000
00000000
00001000
00000000
00000000
00000000
00010000
00000000
00000000
00000000
00000100
00000000
00000000
00000000
00001000
00000000
00000000
00000000
00000010
00000000
00000000
00000000
,
00000100
00000000
00000000
00000101
00000000
00000000
00000001
00000010
00000100
00001000
00000000
00000001
,
00000100
00001000
00010000
00100000
00000000
01000000
00001000
00000000
00010000
00000000
01000000
00000000
,
10000000
00000000
01000000
00100000
00010000
00000000
10000000
00100000
01000000
00000000
00010000
00100000
00001000
00000000
00010000
00000000
,
00001000
00010000
00001000
00010000
00001000
00010000
00001000
00010000
00001000
00010000
00001000
00010000
00001000
00010000
00001000
00010000
,
00001000
00000000
00010000
00000100
00001000
00000000
00000010
00000100
00000001
00000000
00001000
00000100
00000010
00000000
00000001
00000100
,
00000020
00020030
00030200
00000320
00002030
00023000
00030020
00000230
,
00002300
00023000
02030000
03200000
00302000
00023000
00230000
02300000
,
03010000
10000000
00010000
10000000
00100000
01000000
00100000
10000000
00010000
01000000
00010000
01000000
00001000
00010000
00001000
00010000
,
00000010
00001000
00000010
00001000
00000001
00000100
00000001
00000100
00000010
00001000
00000100
00010000
00001000
00010000
00001000
01000000
,
00100000
00000000
00000000
00000000
00000000
00000000
10000000
01000000
00100000
00000000
00001000
00000000
00010000
00000000
00022000
00000000
,
00000000
00000000
00000000
00000000
00000000
00000000
00000000
00000000
00000000
00000000
00000000
00000000
00000000
00033000
00000000
00000000
;
