
//----- song ID: shma -----//
#TITLE:幸せのマ法は解けなイ.*・.+ ☆;
#ARTIST:Mono.;
#TITLETRANSLIT:Shiawase no mahou wa tokenai;
#BANNER:Shiawase no mahou wa tokenai.png;
#BACKGROUND:Shiawase no mahou wa tokenai-bg.png;
#CDTITLE:./CDTitles/DDR WORLD.png;
#MUSIC:Shiawase no mahou wa tokenai.ogg;
#SAMPLESTART:83.692;
#SAMPLELENGTH:15;
#BPMS:0=200;
#TIMESIGNATURES:0=3=4,231=5=4,236=3=4,248=1=4,249=3=4;
#NOTES:
     dance-single:
     :
     Beginner:
     4:
     :
0000
0000
0000
0000
,
0000
0000
0000
0000
,
0000
0000
0000
0000
,
0000
0000
0000
0000
,
0000
0000
1000
0000
,
0000
0000
0000
0000
,
1000
0000
0000
0000
,
0000
0000
0001
0000
,
0000
0000
0000
0000
,
0001
0000
0000
0000
,
0000
0000
0010
0000
,
0000
0000
0000
0000
,
0100
0000
0000
0000
,
0000
0000
0010
0000
,
0000
0000
0000
0000
,
0100
0000
0000
0000
,
0000
0000
1000
0000
,
0000
1000
0000
0000
,
0001
0000
0000
0001
,
0000
0000
0100
0000
,
0000
0100
0000
0000
,
0020
0000
0000
0030
,
0000
0000
2000
0000
,
0000
3000
0000
0000
,
0100
0000
0000
0100
,
0000
0000
0010
0000
,
0000
0001
0000
0000
,
0010
0000
0000
0001
,
0000
0000
2000
0000
,
0000
3000
0000
0000
,
0002
0000
0000
0003
,
0000
0000
0010
0000
,
0000
0000
0000
0000
,
0010
0000
0000
0000
,
0000
0000
0100
0000
,
0000
0000
0000
0000
,
0100
0000
0000
0000
,
0000
0000
0010
0000
,
0000
0000
0000
0000
,
0000
0000
0000
0100
,
0000
0000
0000
0000
,
0000
1000
0000
0000
,
0000
0000
0000
0000
,
0000
0000
0000
0000
,
0000
0001
0000
0000
,
1000
0000
0000
0002
,
0000
0000
0003
0000
,
0000
2000
0000
0000
,
3000
0000
0000
0020
,
0000
0000
0030
0000
,
0000
0200
0000
0000
,
0300
0000
0000
0002
,
0000
0000
0003
0000
,
0000
2000
0000
0000
,
3000
0000
0000
0002
,
0000
0003
2000
0000
,
3000
0002
0000
0003
,
2000
0000
3000
0002
,
0000
0000
0000
0003
,
2000
0000
0000
0000
,
3000
0000
1001
0000
,
0000
0000
0000
0000
,
0000
0000
0000
0000
,
0000
0000
0000
0001
,
0000
0000
0000
0000
,
0000
0001
0000
0000
,
0000
0000
0000
1000
,
0000
0000
0000
0000
,
0000
1000
0000
0000
,
0000
0000
0000
0020
,
0000
0000
0030
0000
,
0000
0200
0000
0000
,
0300
0000
0000
0002
,
0000
0000
0003
0000
,
0000
2000
0000
0000
,
3000
0000
0000
0100
,
0000
0000
0100
0000
,
0000
0010
0000
0000
,
0010
0000
0000
0001
,
0000
0000
0020
0000
,
0030
0002
0000
0003
,
1000
0000
0000
0020
,
0000
0000
0000
0000
,
0030
0200
0000
0000
,
0000
0000
0300
0010
,
0000
0000
1000
0000
,
0000
0010
0000
0000
,
0000
0000
0000
0100
,
0000
0000
0001
0000
,
0000
0100
0000
0000
,
0001
0000
0000
2000
,
0000
0000
3000
0000
,
0000
0002
0000
0000
,
0003
0000
0000
0010
,
0000
0000
0000
0000
,
0000
0100
0000
0000
,
0000
0000
0000
0000
;
#NOTES:
     dance-single:
     :
     Easy:
     6:
     :
0000
0000
0000
0000
,
0000
0000
0000
0000
,
0000
0000
0000
0000
,
0000
0000
0000
0000
,
0000
0000
0002
0000
,
0000
1003
0000
0100
,
0020
0000
0000
0130
,
0000
1000
0002
0000
,
0000
2003
0000
0000
,
3002
0000
0000
0103
,
0000
0010
0200
0000
,
0000
0320
0000
0000
,
0230
0000
0000
0310
,
0000
0000
1010
0000
,
0000
1000
0000
0000
,
1100
0000
0000
0100
,
0010
0000
0002
0000
,
0000
1003
0000
0000
,
0200
0000
0000
0310
,
0000
0000
0001
0000
,
0000
0100
0000
0000
,
0002
0000
0000
0103
,
0000
0000
0020
0000
,
0000
0130
0000
0000
,
0002
0000
0000
0103
,
0000
0000
0020
0000
,
0000
1030
0000
0000
,
0200
0000
0000
0320
,
0000
0000
0032
0000
,
0000
0000
0000
0000
,
2003
0000
0000
0000
,
0000
0000
3020
0000
,
0000
2030
0000
0000
,
3200
0000
0000
0320
,
0000
0000
0230
0000
,
0000
0320
0000
0000
,
0230
0000
0000
0320
,
0000
0000
0031
0000
,
0000
0001
0000
0000
0000
0001
0000
0000
,
1000
0001
0100
0020
,
0000
0000
0000
0000
,
0000
2030
0000
0000
,
0000
0000
3002
0000
,
0000
0000
0000
0000
,
0000
0203
0000
0000
,
0320
0000
0000
2030
,
0000
0000
0000
0000
,
0000
3200
0000
0000
,
0000
0000
0000
2300
,
0000
0000
0000
0000
,
0000
3200
0000
0000
,
0000
0000
0000
0320
,
0000
0000
0130
0000
,
0000
2000
0000
0000
,
3001
0000
0000
0002
,
0000
0000
0023
0000
,
0000
0230
0000
0000
,
2300
0000
0000
3002
,
0000
0000
0000
0000
,
0203
0000
0000
0000
,
0300
0000
2002
0000
,
0000
0000
0000
0000
,
0000
3003
0000
0000
,
0000
0000
0000
2000
,
0000
0000
3020
0000
,
0130
0002
0000
0000
,
0203
0000
0310
2000
,
0000
3010
0200
0000
,
0301
0020
0000
0130
,
2000
0000
0000
3002
,
0000
0103
0010
0100
,
0000
0020
0000
0000
,
1030
0000
0001
2000
,
0000
3100
0020
0000
,
0031
2000
0000
3001
,
0010
0001
0000
2000
,
0000
0000
3010
0000
,
0000
0200
0000
0000
,
0301
0000
0000
1000
,
0100
1000
0020
0000
,
0000
0230
0000
0000
,
0301
0000
0000
0022
,
0000
0033
2002
3003
,
0000
2200
0000
3300
,
2002
3003
0000
0002
,
0000
0000
1003
0010
,
1000
0010
0000
0000
,
0000
0000
0000
2000
,
0000
0000
3001
0100
,
0001
0200
0000
0000
,
0302
0000
0000
0023
,
0000
0000
0130
0000
,
0000
2000
0000
0000
,
3100
0000
0000
0020
,
0000
0000
0130
1000
,
0100
0010
0000
0000
,
0000
0000
0000
0000
;
#NOTES:
     dance-single:
     :
     Medium:
     12:
     :
0000
0000
0000
0000
,
0000
0000
0000
0000
,
0000
0000
0000
0000
,
0000
0000
0000
0000
0000
0000
0001
0100
,
0001
0100
0001
0000
2000
0000
0000
3100
,
0010
0002
0000
1003
,
0020
0000
0000
0130
0001
1000
0200
0000
,
0000
0000
0310
0100
0020
0000
0000
0000
,
0031
0100
2000
3100
,
0002
0000
0103
0010
,
0000
0000
1000
0010
2000
0000
0000
0000
,
3100
0000
0002
0000
1003
0010
0100
0000
,
1000
0001
1000
0011
,
0000
0001
0100
1000
0200
0000
0000
0000
,
0310
1000
0001
0100
,
0002
0000
0000
0000
0013
0001
0100
0000
,
2020
0000
3030
0000
0002
0000
0000
1003
,
0001
0100
0002
0000
0000
0000
0103
0000
,
2000
0000
0000
3001
0010
1000
0010
0000
,
0000
0002
0013
0100
,
0001
0000
1000
0000
1000
0100
0000
0100
,
0020
0000
0130
2000
,
0000
0000
3001
0010
0200
0000
0000
0310
,
0100
1000
0002
0000
0000
0000
0103
0010
,
1000
0010
0001
0010
,
1000
0010
0100
0002
,
1003
0010
1000
0001
,
1001
0000
0000
0101
0000
0000
1010
0000
,
0000
0110
0000
0000
2002
0000
0000
0000
,
0000
0000
0000
3003
,
0001
0000
0000
1000
0001
1000
0020
0000
,
0000
0000
0230
0000
,
0000
0000
0301
1000
0001
0100
0001
0000
,
2000
0000
0000
0000
3100
0010
0100
1000
,
0000
0100
1000
0000
0002
0000
0000
0000
,
0000
0000
0013
0000
0001
0100
0001
0100
,
0020
0000
0000
0000
0031
0010
1000
0100
,
0001
0200
0000
0000
1300
0100
0010
0000
,
0100
0010
0001
0010
0000
0001
0100
1000
,
0100
0100
0010
2000
,
0000
0000
0000
0000
,
0000
3002
0000
0000
,
0000
0000
0023
0000
,
0000
0000
0000
0000
,
0000
0230
0000
0000
,
2300
0000
0000
3100
,
1000
0100
0010
0001
,
0010
0000
0100
0000
0010
0001
0100
0000
,
1000
0000
0100
0001
0010
0001
0200
0000
,
0000
0000
0310
0100
,
0010
2001
0000
0000
,
3002
0000
0000
1003
,
0100
1000
0010
1000
0100
0000
0011
0000
,
0000
0000
0001
0010
0001
0010
0100
1000
,
0010
0101
0000
0001
,
0100
0010
1000
0100
,
0010
0000
0001
0100
1000
0000
0100
0000
,
1000
0100
0001
0000
1000
0000
0020
0000
,
0000
0000
0000
0000
,
0230
0000
0000
0000
,
0300
0000
2002
0000
,
0000
0000
0000
0000
,
0000
3003
0000
0000
,
0000
0000
0000
2000
,
0000
3010
0100
0001
2000
0000
3000
0000
,
0010
0000
0200
0000
0000
0301
0100
0010
,
2000
0000
3000
0000
0100
0010
0200
0000
,
0000
0320
0001
1000
,
0031
0200
0000
0310
,
0100
0110
0110
1002
,
0000
1003
0100
0010
,
0100
1000
0001
0100
,
2000
0000
0000
3001
0010
0100
0002
0000
,
0000
1003
0100
0001
,
0100
0000
0020
0000
0000
0000
0130
1000
,
0020
0000
0130
0002
0000
0000
2003
0000
,
0000
3001
0100
0010
2000
0000
3000
0000
,
1000
0100
0020
0000
0000
0130
1000
0001
,
0010
0000
0000
0000
0001
0100
1000
0000
,
0100
0001
0020
0000
,
0000
0000
0230
0000
0000
0000
1300
0100
,
0002
0000
0003
0000
0001
0100
2000
0000
,
0000
3100
1000
0010
0001
0000
0000
0000
,
0010
1000
0200
0000
0320
0000
0032
0000
,
0203
0302
0023
0130
,
1000
0001
1000
0001
,
0100
0010
0000
0000
,
0000
0000
0000
0000
0100
0010
1000
0000
,
0001
0100
0001
1000
,
0010
0000
1010
0000
0000
0110
0000
0000
,
1001
0000
0000
0011
0000
0000
2100
0000
,
0000
3100
0010
0100
2000
0000
0000
0000
,
3010
0000
0200
0000
0000
0301
0010
0001
,
2000
0000
3001
1000
,
0100
0010
0001
0000
1000
0100
0010
0000
,
0001
0100
1000
0000
0000
0000
0000
0000
,
0000
0000
0000
0000
;
#NOTES:
     dance-single:
     :
     Hard:
     14:
     :
0000
0000
0000
0000
,
0000
0000
0000
0000
,
0000
0000
0000
0000
,
0000
0000
0000
0000
0000
0000
1000
0010
,
0001
0010
1000
0100
0020
0000
0000
0031
,
0100
0010
2000
0000
0000
0000
3100
0000
,
0012
0000
0000
1003
0100
0010
0002
0000
,
0000
0000
0103
1000
0200
0000
0000
0000
,
0301
0000
0000
1010
0000
0000
1000
0100
0010
0001
0000
0000
,
0020
0001
0130
1000
,
0001
0000
1000
0100
0020
0000
0001
0000
,
0130
0000
2000
0000
3010
0001
0010
0000
,
0100
0001
0010
0011
,
0000
0001
0100
1000
0200
0000
1000
0000
,
0310
1000
0100
0010
,
0002
0000
0010
0000
1003
0100
0010
0000
,
2002
0000
3003
0000
0002
0000
0013
0001
,
0010
1000
0010
0000
0001
0000
0100
0000
,
2000
0000
3100
0001
0100
1000
0100
0000
,
0010
0000
0000
1000
0010
0100
0002
0000
0000
0203
0000
0000
,
0320
0000
0032
0000
1003
0200
0000
0310
,
0002
0010
1003
0200
,
1000
0000
0310
0000
0002
0000
0000
0013
,
1000
0100
0010
0000
0110
0000
0100
0010
,
1000
0010
0001
0100
,
1000
0000
0000
0100
0000
0000
0010
0000
0000
1000
0001
1000
,
0010
0100
0001
1000
,
1100
0000
0000
0110
0000
0000
0011
0000
,
0000
1001
0000
0000
2020
0000
0000
0000
,
0000
0000
3030
0000
,
0001
0000
0000
1000
0100
0010
0002
0000
,
0000
0000
2003
0000
,
0000
0000
3010
1000
0001
0100
0002
0000
,
0023
0000
0000
0000
0000
0000
0130
0000
1000
0100
1000
0000
0001
0000
0100
0000
,
0010
1000
0020
0000
0230
0000
0000
0000
,
0000
0000
0320
0000
0130
0010
0100
0001
,
0100
0000
0010
1000
0001
0100
1000
0001
,
0010
2000
0000
0000
3100
0001
1000
0010
,
0001
1000
0100
0010
0001
0010
1000
0010
,
0110
1001
1001
0012
,
0000
0000
0000
0000
,
0000
2003
0000
0000
,
0000
3010
0100
2000
0000
0000
,
0000
0000
0000
3001
0010
1000
,
0100
0000
0000
0002
0000
0000
0000
0103
0000
0002
0000
0000
,
0000
0000
2003
0000
0000
0000
0000
3010
0001
0010
0000
0000
,
0001
0100
1000
0000
0110
0000
1000
0001
,
1000
0000
0001
0010
1000
0010
0001
0100
,
0010
0000
1000
0100
0001
0100
2000
0000
,
0000
0000
0000
0000
0000
0000
3100
0010
0000
0100
0001
0000
,
0100
1000
0000
0002
0000
0000
0000
0000
0000
0000
0000
0000
,
2003
0000
3000
0011
,
0001
0010
1000
0010
0001
0000
1100
0000
,
0000
0000
1000
0100
0001
0100
0010
1000
,
0010
0000
0110
0000
0000
0000
0001
1000
,
0010
0100
0010
0100
0001
1000
0010
0100
,
0010
1000
0001
0010
1000
0010
0100
0010
,
0001
0100
0010
0100
1000
0100
0110
0000
,
0100
0101
0000
0000
1010
0000
1001
0000
,
0101
0000
0000
0000
0000
0000
1000
0000
0000
1100
0000
0000
0000
0000
0000
0000
0000
0000
0100
0000
0000
0000
0010
0000
,
0000
0110
0000
0000
0000
0000
2002
0000
0000
0000
0000
0000
,
0000
0000
0000
0000
,
0000
3003
0000
0000
,
0000
0000
0000
2000
,
0000
3100
0010
1000
0020
0000
0000
0000
,
0130
0000
0002
0000
0000
0103
1000
0010
,
0002
0000
0003
0000
1000
0100
0002
0000
,
0000
0203
1000
0001
,
1300
0200
0010
0001
,
0310
1010
0101
1020
,
0100
0000
0031
0000
2000
0000
3100
0001
,
0020
2030
0001
3010
,
0120
0000
0000
0031
1000
0001
0200
0000
,
0001
0010
1000
0310
,
1000
0100
0002
0000
0100
0000
1003
0010
,
0001
0000
0001
2000
0000
0000
3020
0000
,
0000
0031
0010
1000
0200
0000
0010
0000
,
1300
0001
0020
0000
0000
1030
0010
0001
,
0200
0000
0010
0000
1300
0100
0020
0000
,
2030
0000
0000
0000
3020
0000
0000
0000
1030
0000
0000
0100
0000
0000
0010
0000
,
0000
0100
0000
0000
2000
0000
0000
0000
0010
0000
0000
0000
3001
0000
1000
0000
,
0010
0000
0000
0000
0000
0000
0000
0000
0100
0000
0010
0000
1000
0000
0001
0010
,
0001
0000
1000
0000
0100
1000
0100
1000
0100
0000
0010
0000
0210
0000
0000
0000
,
1300
0100
0010
0010
0001
0001
1000
0001
,
0010
0001
0200
0000
0320
0000
2030
0000
,
3001
0100
0010
1000
0000
0000
0001
0000
0000
0100
0000
0000
,
1000
0000
0100
0000
0010
1000
0000
0000
,
0100
0000
0010
0001
0000
1000
0100
0000
,
0000
1000
0000
0010
0001
0000
0001
0000
,
0000
0010
1000
0100
0001
1000
0010
1000
,
0001
0000
0100
1000
0000
0001
0020
0000
,
0000
1030
0010
0001
0200
0000
1000
0000
,
0310
0000
2000
0000
0000
3001
0010
1000
,
0010
0000
1000
0010
0100
0000
0110
0000
,
0100
1000
0010
0001
0010
0100
1000
0100
,
0010
1000
0001
0000
0000
0000
0000
0000
,
0000
0000
0000
0000
;
#NOTES:
     dance-double:
     :
     Easy:
     6:
     :
00000000
00000000
00000000
00000000
,
00000000
00000000
00000000
00000000
,
00000000
00000000
00000000
00000000
,
00000000
00000000
00000000
00000000
,
00000000
00000000
20000000
00000000
,
00000000
31000000
00000000
00100000
,
00002000
00000000
00000000
00013000
,
00000000
00000100
00000020
00000000
,
00000000
00000230
00000000
00000000
,
00000320
00000000
00000000
00000031
,
00000000
00001000
00000020
00000000
,
00000000
00002030
00000000
00000000
,
00003020
00000000
00000000
00001030
,
00000000
00000000
00010100
00000000
,
00000000
00010000
00000000
00000000
,
00011000
00000000
00000000
00001000
,
00100000
00000000
02000000
00000000
,
00000000
13000000
00000000
00000000
,
00020000
00000000
00000000
00130000
,
00000000
00000000
00001000
00000000
,
00000000
00010000
00000000
00000000
,
00002000
00000000
00000000
00013000
,
00000000
00000000
00200000
00000000
,
00000000
01300000
00000000
00000000
,
00002000
00000000
00000000
00013000
,
00000000
00000000
00000200
00000000
,
00000000
00000310
00000000
00000000
,
00000200
00000000
00000000
00002300
,
00000000
00000000
00003020
00000000
,
00000000
00000000
00000000
00000000
,
00000230
00000000
00000000
00000000
,
00000000
00000000
00000302
00000000
,
00000000
00002003
00000000
00000000
,
00003020
00000000
00000000
00020030
,
00000000
00000000
00032000
00000000
,
00000000
00203000
00000000
00000000
,
02300000
00000000
00000000
23000000
,
00000000
00000000
30010000
00000000
,
00000000
10000000
00000000
00000000
00000000
10000000
00000000
00000000
,
00010000
00100000
00001000
00020000
,
00000000
00000000
00000000
00000000
,
00000000
00032000
00000000
00000000
,
00000000
00000000
00003020
00000000
,
00000000
00000000
00000000
00000000
,
00000000
00000230
00000000
00000000
,
00000320
00000000
00000000
00000032
,
00000000
00000000
00000000
00000000
,
00000000
00000203
00000000
00000000
,
00000000
00000000
00000000
00002300
,
00000000
00000000
00000000
00000000
,
00000000
00023000
00000000
00000000
,
00000000
00000000
00000000
00230000
,
00000000
00000000
10300000
00000000
,
00000000
00200000
00000000
00000000
,
00310000
00000000
00000000
00002000
,
00000000
00000000
02003000
00000000
,
00000000
03200000
00000000
00000000
,
20300000
00000000
00000000
30020000
,
00000000
00000000
00000000
00000000
,
02030000
00000000
00000000
00000000
,
03000000
00000000
20020000
00000000
,
00000000
00000000
00000000
00000000
,
00000000
30030000
00000000
00000000
,
00000000
00000000
00000000
20000000
,
00000000
00000000
30020000
00000000
,
00130000
00002000
00000000
00000000
,
00023000
00000000
00030100
00000020
,
00000000
00000130
00002000
00000000
,
00003100
00000020
00000000
00000130
,
00020000
00000000
00000000
00032000
,
00000000
00013000
01000000
00100000
,
00000000
00002000
00000000
00000000
,
00013000
00000000
00001000
00000020
,
00000000
00000031
00000200
00000000
,
00001300
00020000
00000000
00031000
,
00000100
00000010
00000000
00020000
,
00000000
00000000
00031000
00000000
,
00000000
00002000
00000000
00000000
,
00013000
00000000
00000000
01000000
,
10000000
00100000
00020000
00000000
,
00000000
00230000
00000000
00000000
,
10300000
00000000
00000000
02020000
,
00000000
03030000
20020000
30030000
,
00000000
22000000
00000000
33000000
,
20020000
30030000
00000000
20000000
,
00000000
00000000
31000000
00100000
,
01000000
00100000
00000000
00000000
,
00000000
00000000
00000000
00002000
,
00000000
00000000
00013000
00001000
,
00010000
00002000
00000000
00000000
,
00023000
00000000
00000000
00030020
,
00000000
00000000
00000130
00000000
,
00000000
00000002
00000000
00000000
,
00000103
00000000
00000000
00002000
,
00000000
00000000
00013000
01000000
,
10000000
00100000
00000000
00000000
,
00000000
00000000
00000000
00000000
;
#NOTES:
     dance-double:
     :
     Medium:
     12:
     :
00000000
00000000
00000000
00000000
,
00000000
00000000
00000000
00000000
,
00000000
00000000
00000000
00000000
,
00000000
00000000
00000000
00000000
00000000
00000000
00010000
00001000
,
00010000
00001000
00010000
00000000
00002000
00000000
00000000
00003100
,
00000010
00002000
00000000
00003001
,
00000020
00000000
00000000
00000031
00000100
00000000
00000020
00000000
,
00000000
00000000
00010030
00001000
00020000
00000000
00000000
00000000
,
00031000
00100000
01000000
00100000
,
00020000
00000000
01030000
00100000
,
00000000
00000000
10000000
01000000
20000000
00000000
00000000
00000000
,
31000000
00000000
00020000
00000000
00031000
00010000
01000000
00000000
,
00010000
00001000
00000010
00000110
,
00000000
00000001
00000100
00000001
00000020
00000000
00000000
00000000
,
00000130
00010000
00001000
00000010
,
00002000
00000000
00000000
00000000
00013000
01000000
00100000
00000000
,
02200000
00000000
03300000
00000000
20000000
00000000
00000000
31000000
,
00100000
00010000
00200000
00000000
00000000
00000000
00301000
00000000
,
00020000
00000000
00000000
00031000
00010000
00001000
00000100
00000000
,
00000000
00000001
00000010
00001000
,
00000010
00000000
00000100
00000000
00010000
00001000
00000000
00001000
,
00020000
00000000
00031000
00200000
,
00000000
00000000
01300000
10000000
00200000
00000000
00000000
01300000
,
00001000
00010000
00200000
00000000
00000000
00000000
01300000
00010000
,
00100000
10000000
00100000
00010000
,
00001000
00010000
00100000
01000000
,
10000000
00100000
01000000
00100000
,
01100000
00000000
00000000
10100000
00000000
00000000
01100000
00000000
,
00000000
01010000
00000000
00000000
20020000
00000000
00000000
00000000
,
00000000
00000000
00000000
30030000
,
10000000
00000000
00000000
01000000
00100000
00010000
00200000
00000000
,
00000000
00000000
00302000
00000000
,
00000000
00000000
00013000
00001000
00010000
00001000
00010000
00000000
,
00002000
00000000
00000000
00000000
00003100
00000000
00000001
00000010
,
00000000
00000001
00000010
00000000
00000200
00000000
00000000
00000000
,
00000000
00000000
00010300
00000000
00001000
00100000
00001000
00100000
,
00020000
00000000
00000000
00000000
10030000
01000000
00100000
01000000
,
00100000
00020000
00000000
00000000
10030000
01000000
00010000
00000000
,
00001000
00000100
00000010
00000000
00000000
00000010
00000000
00000000
,
00000010
00001000
00000001
00000200
,
00000000
00000000
00000000
00000000
,
00000000
00000320
00000000
00000000
,
00000000
00000000
00002030
00000000
,
00000000
00000000
00000000
00000000
,
00000000
00003200
00000000
00000000
,
00020300
00000000
00000000
00031000
,
00100000
00001000
01000000
00100000
,
10000000
00000000
01000000
00000000
00010000
00001000
00010000
00000000
,
00001000
00000000
00000100
00000001
00000000
00000001
00000020
00000000
,
00000000
00000000
00001030
00000010
,
00000001
00000200
00000000
00000000
,
00000320
00000000
00000000
00000130
,
00000001
00000100
00001000
00000100
00000001
00000000
00001010
00000000
,
00000000
00000000
00000001
00000000
00000010
00001000
00010000
00001000
,
00100000
00110000
00000000
00010000
,
10000000
00100000
01000000
00001000
,
00010000
00000000
01000000
10000000
00100000
00000000
00010000
00000000
,
00001000
00000100
00000001
00000000
00000010
00000000
00000002
00000000
,
00000000
00000000
00000000
00000000
,
00000203
00000000
00000000
00000000
,
00000300
00000000
00000220
00000000
,
00000000
00000000
00000000
00000000
,
00000000
00000330
00000000
00000000
,
00000000
00000000
00000000
00000002
,
00000000
00000013
00000100
00001000
00000020
00000000
00000030
00000000
,
00000100
00000000
00002000
00000000
00000000
00013000
00001000
00100000
,
00020000
00000000
00030000
00000000
01000000
00100000
02000000
00000000
,
00000000
03200000
10000000
00010000
,
10300000
02000000
00000000
03100000
,
01000000
00100000
00100000
10020000
,
00000000
10030000
01000000
00010000
,
00001000
00010000
00001000
00000100
,
00000020
00000000
00000000
00001030
00000100
00000010
00000002
00000000
,
00000000
00000103
00001000
00000100
,
00000001
00000000
00000020
00000000
00000000
00000000
00001030
00010000
,
00001000
00000000
00010000
00002000
00000000
00000000
00023000
00000000
,
00000000
00031000
00010000
00000000
00100000
00000000
00000000
00000000
,
10000000
01000000
00200000
00000000
00000000
01300000
00010000
00000000
,
00001000
00000000
00000000
00000000
00000100
00000010
00001000
00000000
,
00000100
00000010
00002000
00000000
,
00000000
00000000
00023000
00000000
00000000
00000000
00130000
00010000
,
00001000
00000000
00000000
00000000
00001000
00010000
02000000
00000000
,
00000000
03100000
10000000
00100000
00010000
00000000
00000000
00000000
,
10000000
01000000
00020000
00000000
00032000
00000000
00003020
00000000
,
00000230
00020300
00032000
00003010
,
00000001
00000100
00000001
00000010
,
00001000
00010000
00000000
00000000
,
00000000
00000000
00000000
00000000
00100000
10000000
01000000
00000000
,
00100000
00001000
00010000
00000100
,
00000010
00000000
00000011
00000000
00000000
00000110
00000000
00000000
,
00001100
00000000
00000000
00010100
00000000
00000000
00102000
00000000
,
00000000
01003000
00010000
00000000
10000000
00000000
00000000
00000000
,
00100000
00000000
00020000
00000000
00000000
00031000
00000010
00000000
,
00000100
00000000
00000001
00000100
,
00000010
00001000
00010000
00000000
01000000
10000000
00100000
00000000
,
00010000
00001000
00010000
00000000
00000000
00000000
00000000
00000000
,
00000000
00000000
00000000
00000000
;
#NOTES:
     dance-double:
     :
     Hard:
     14:
     :
00000000
00000000
00000000
00000000
,
00000000
00000000
00000000
00000000
,
00000000
00000000
00000000
00000000
,
00000000
00000000
00000000
00000000
00000000
00000000
10000000
00100000
,
00010000
00001000
00000100
00000001
00000020
00000000
00000000
00000130
,
00001000
00010000
00200000
00000000
00000000
00000000
01300000
00000000
,
20000000
00000000
00000000
30100000
00010000
00001000
00000200
00000000
,
00000000
00000000
00001300
00010000
00002000
00000000
00000000
00000000
,
00103000
00000000
00000000
01100000
00000000
00000000
10000000
01000000
00100000
00010000
00000000
00000000
,
00200000
00000000
00301000
01000000
,
00000000
00000000
00010000
00100000
00002000
00000000
00000000
00000000
,
00103000
00000000
00021000
00000000
00030100
00000010
00000001
00000000
,
00001000
00000100
00000010
00000110
,
00000000
00000001
00000100
00001000
00020000
00000000
00000000
00000000
,
00130000
00010000
00001000
00000100
,
00002000
00000000
00010000
00000000
00003100
00001000
00010000
00000000
,
02200000
00000000
03300000
00000000
10000000
00000000
01000000
00010000
,
00001000
00000010
00000001
00000000
00000010
00000000
00001000
00000000
,
00000010
00000000
00000001
00000100
00001000
00010000
00100000
00000000
,
10000000
00000000
00000000
00100000
01000000
00010000
00100000
00000000
00000000
00001000
00000000
00000000
,
01000000
00000000
00002000
00000000
00013000
00000200
00000000
00010300
,
00000020
00000100
00000031
00002000
,
00000100
00000000
00013000
00100000
20000000
00000000
00000000
30100000
,
00010000
00001000
00000100
00000000
00000110
00000000
00000010
00010000
,
00001000
00000010
00001000
00010000
,
01000000
00000000
00000000
00010000
00000000
00000000
00001000
00000000
00000000
00000100
00000010
00000100
,
00001000
00010000
00100000
10000000
,
10010000
00000000
00000000
01010000
00000000
00000000
00011000
00000000
,
00000000
00001010
00000000
00000000
00002002
00000000
00000000
00000000
,
00000000
00000000
00000000
00003003
,
00000001
00000000
00000000
00000010
00001000
00010000
00200000
00000000
,
00000000
00000000
02300000
00000000
,
00000000
00000000
03100000
10000000
00010000
01000000
00001000
00000000
,
00100000
00000000
00000000
00000000
00000000
00000000
00010000
00000000
00100000
00010000
00100000
00000000
00001000
00000000
00010000
00000000
,
00001000
00000100
00000020
00000000
00000230
00000000
00000000
00000000
,
00000000
00000000
00000301
00000000
00000100
00001000
00010000
00100000
,
10000000
00000000
00010000
01000000
00010000
01000000
00100000
10000000
,
00100000
00020000
00000000
00000000
00031000
00000010
00000001
00000100
,
00001000
00000100
00001000
00010000
01000000
00010000
00001000
00100000
,
00110000
00101000
00011000
00010200
,
00000000
00000000
00000000
00000000
,
00000000
00000320
00000000
00000000
,
00000000
00000130
00010000
00002000
00000000
00000000
,
00000000
00000000
00000000
00013000
00100000
10000000
,
01000000
00000000
00000000
00020000
00000000
00000000
00000000
00031000
00000000
00020000
00000000
00000000
,
00000000
00000000
00030020
00000000
00000000
00000000
00000000
00001030
00000001
00001000
00000000
00000000
,
00000100
00000010
00001000
00000000
00010000
00000000
00001000
00000100
,
00000010
00000000
00010000
00000000
00001000
00010000
00100000
00000000
,
00010000
00000000
00001000
01000000
00100000
10000000
02000000
00000000
,
00000000
00000000
00000000
00000000
00000000
00000000
03100000
00010000
00000000
00001000
00000100
00000000
,
00000010
00000001
00000000
00000200
00000000
00000000
00000000
00000000
00000000
00000000
00000000
00000000
,
00000320
00000000
00000030
00000101
,
00000001
00000100
00001000
00010000
01000000
00000000
01100000
00000000
,
00000000
00000000
10000000
01000000
00010000
01000000
00100000
00001000
,
00010000
00000000
00011000
00000000
00000000
00000000
00010000
00001000
,
00100000
00010000
00001000
00000100
00010000
00001000
00000010
00001000
,
00010000
01000000
00010000
00001000
00000100
00000001
00000100
00001000
,
00000001
00000010
00001000
00010000
01000000
00100000
00010000
00000000
,
00001000
00010000
00000000
00000000
00010100
00000000
00001010
00000000
,
00000001
00000000
00000000
00000000
00000000
00000000
00000100
00000000
00000000
00001000
00000000
00000000
00000000
00000000
00000000
00000000
00000000
00000000
00010000
00000000
00000000
00000000
01000000
00000000
,
00000000
10000000
00000000
00000000
00000000
00000000
00220000
00000000
00000000
00000000
00000000
00000000
,
00000000
00000000
00000000
00000000
,
00000000
00330000
00000000
00000000
,
00000000
00000000
00000000
00200000
,
00000000
10300000
00100000
00010000
02000000
00000000
00000000
00000000
,
03001000
00000000
00020000
00000000
00000000
00031000
00000010
00000001
,
00000020
00000000
00000030
00000000
00001000
00000001
00000200
00000000
,
00000000
00002300
00010000
00000100
,
00013000
00200000
10000000
01000000
,
00310000
11000000
10010000
02010000
,
00100000
00000000
13000000
00000000
00020000
00000000
00130000
00010000
,
00002000
00003020
00000001
00000130
,
00001002
00000000
00000000
00000013
00001000
00010000
00000020
00000000
,
00000100
00000001
00000100
00001030
,
00000100
00001000
00000020
00000000
00000000
00000000
00000130
00001000
,
00010000
00000000
01000000
00200000
00000000
00000000
00302000
00000000
,
00000000
00013000
00000010
00000100
00002000
00000000
00010000
00000000
,
00003100
00000001
00000020
00000000
00000000
00001030
00000010
00000001
,
00000200
00000000
00001000
00000000
00000310
00010000
00002000
00000000
,
02003000
00000000
00000000
00000000
03200000
00000000
00000000
00000000
10300000
00000000
00000000
01000000
00000000
00000000
00010000
00000000
,
00000000
00001000
00000000
00000000
00000020
00000000
00000000
00000000
00000001
00000000
00000000
00000000
00000130
00000000
00001000
00000000
,
00000001
00000000
00000000
00000000
00000000
00000000
00000000
00000000
00000010
00000000
00000001
00000000
00000100
00000000
00001000
00010000
,
00001000
00000000
00000100
00000000
00000010
00000100
00000010
00000100
00000010
00000000
00001000
00000000
00001200
00000000
00000000
00000000
,
00010300
00001000
00100000
00100000
01000000
00010000
00001000
00000010
,
00001000
00010000
00002000
00000000
00013000
00000000
00000100
00000000
,
00000010
00000001
00000000
00000000
00000001
00000000
00000100
00000000
,
00001000
00000000
00010000
00000000
00100000
01000000
00000000
00000000
,
10000000
00000000
01000000
00010000
00000000
01000000
00100000
00000000
,
00000000
00010000
00000000
00001000
00010000
00000000
00000010
00000000
,
00000000
00000100
00000001
00000010
00001000
00010000
00000100
00001000
,
00000010
00000000
00010000
00001000
00000000
01000000
00200000
00000000
,
00000000
00310000
00100000
10000000
02000000
00000000
00000000
00000000
,
03100000
00000000
00020000
00000000
00000000
01030000
00001000
00010000
,
01000000
00000000
00100000
01000000
00100000
00000000
11000000
00000000
,
10000000
01000000
00010000
00001000
00000010
00000001
00000010
00001000
,
00010000
01000000
10000000
00000000
00000000
00000000
00000000
00000000
,
00000000
00000000
00000000
00000000
;
