
//----- song ID: sham -----//
#TITLE:シャムシールの舞;
#ARTIST:Zektbach;
#TITLETRANSLIT:Shamshir no mai;
#BANNER:Shamshir no mai.png;
#BACKGROUND:Shamshir no mai-bg.png;
#CDTITLE:./CDTitles/pnm 14 FEVER!.png;
#MUSIC:Shamshir no mai.ogg;
#SAMPLESTART:35.365;
#SAMPLELENGTH:15;
#DISPLAYBPM:100:155;
#BPMS:0=100,28=155,244=150,247=142,248=134;
#BGSTAGE:3;
#NOTES:
     dance-single:
     :
     Beginner:
     3:
     :
0000
0000
0000
0000
,
0000
0000
0000
0000
,
0000
0000
0000
0000
,
0001
0000
0000
0000
,
0001
0000
0000
0000
,
0010
0000
0000
0000
,
0010
0000
0000
0000
,
2000
0000
0000
0000
,
3000
0000
0000
0000
,
1000
0000
1000
0000
,
0100
0000
0000
0000
,
0010
0000
0000
0000
,
0010
0000
0000
0000
,
0001
0000
0001
0000
,
0010
0000
0000
0000
,
0001
0000
0000
0000
,
0100
0000
0000
0000
,
0001
0000
0100
0000
,
0001
0000
0000
0000
,
0001
0000
0001
0000
,
0010
0000
0000
0000
,
0001
0000
0000
0000
,
0010
0000
0000
0000
,
1000
0000
1000
0000
,
0010
0000
0000
0000
,
1000
0000
0000
0000
,
0010
0000
0000
0000
,
2000
0000
0000
0000
,
3000
0000
0000
0000
,
0002
0000
0000
0000
,
0003
0000
0000
0000
,
0001
0000
0001
0000
,
0100
0000
0000
0000
,
0010
0000
0000
0000
,
0000
0000
0000
0000
,
1000
0000
1000
0000
,
0100
0000
0000
0000
,
0010
0000
0000
0000
,
0000
0000
0000
0000
,
1001
0000
0000
0000
,
0010
0000
0010
0000
,
1001
0000
0000
0000
,
0010
0000
0010
0000
,
2000
0000
0000
0000
,
3000
0000
0000
0000
,
0002
0000
0000
0000
,
0003
0000
0000
0000
,
1001
0000
0000
0000
,
0000
0000
0000
0000
,
0001
0000
0001
0000
,
0010
0000
1000
0000
,
0010
0000
0000
0000
,
1000
0000
1000
0000
,
0010
0000
0000
0000
,
1000
0000
0010
0000
,
1000
0000
0000
0000
,
0010
0000
0010
0000
,
0001
0000
0000
0000
,
1001
0000
0000
0000
,
1000
0000
0000
0000
,
1001
0000
0000
0000
,
0010
0000
0000
0000
,
0100
0000
0000
0000
,
0010
0000
0000
0000
,
0001
0000
0000
0000
,
1000
0000
0000
0000
,
0001
0000
0000
0000
,
1000
0000
0000
0000
,
0000
0000
0000
0000
;
#NOTES:
     dance-single:
     :
     Easy:
     6:
     :
0000
0000
0000
0000
,
0000
0000
0000
0000
,
0000
0000
0000
0000
,
0002
0000
0000
0000
,
0003
0000
0000
0000
,
2000
0000
0000
0000
,
3000
0000
0000
0000
,
0001
0000
0001
0000
,
0100
0010
0100
0010
,
1000
0000
1000
0000
,
0100
0010
0100
0010
,
0002
0000
0000
0003
,
0001
0010
0100
0000
,
2000
0000
0000
3000
,
1000
0010
0100
0000
,
0002
0000
0000
0003
,
0001
0100
0010
0000
,
2000
0000
0000
3000
,
1000
0100
0010
0000
,
0001
0010
0001
1000
,
0001
0000
1001
0000
,
1000
0100
0010
0001
,
1000
0000
0001
0000
,
1000
0010
1000
0001
,
1000
0000
1001
0000
,
0001
0100
0010
1000
,
0001
0000
1000
0000
,
0002
0000
0000
0003
,
0020
0000
0000
0030
,
0200
0000
0000
0300
,
2000
0000
0000
3000
,
1000
0100
0010
0001
,
0100
0010
0100
0000
,
0001
0010
0100
1000
,
0010
0100
0010
0000
,
1000
0100
0001
0100
,
1000
0001
1000
0000
,
0001
0100
1000
0100
,
0001
1000
0001
0000
,
1001
0000
0110
0000
,
0001
1000
0010
0000
,
1001
0000
0110
0000
,
1000
0001
0010
0000
,
0001
0001
0010
0010
,
0001
0010
0001
0000
,
1000
1000
0010
0010
,
1000
0010
1000
0000
,
0002
0000
0000
0003
,
2000
0000
0000
3000
,
0001
1000
0001
0000
,
1000
1000
0100
0000
,
1000
0100
0010
0000
,
0001
1000
0001
0100
,
0002
0000
0000
0003
,
0001
0001
0100
0000
,
0001
0100
0010
0000
,
1000
0001
1000
0100
,
2000
0000
0000
3000
,
1000
0100
0010
0000
,
0002
0000
0000
0003
,
0001
0100
0010
0000
,
2000
0000
0000
3000
,
0200
0000
0000
0300
,
0020
0000
0000
0030
,
0002
0000
0000
0003
,
0001
1000
0001
0000
,
0220
0000
0000
0000
,
0000
0000
0000
0000
,
0330
0000
0000
0000
,
0000
0000
0000
0000
;
#NOTES:
     dance-single:
     :
     Medium:
     10:
     :
0000
0000
0000
0000
,
0000
0000
0000
0000
,
0000
0000
0000
0000
,
2000
0000
0000
3000
,
0002
0000
0000
0003
,
0200
0000
0000
0300
,
0020
0000
0000
0030
,
1000
0000
0100
0000
0010
0001
0100
0000
,
0001
0000
0100
0000
0010
1000
0100
0000
,
1000
0000
0001
0000
0010
0100
0010
0000
,
0001
0000
1000
0000
0010
0100
0010
0000
,
1000
0000
0010
0100
0001
0000
1000
0000
,
0002
0003
2000
3000
,
0001
0000
1000
0000
0100
0010
0001
0000
,
1000
0001
1000
0000
,
0001
0000
0010
0100
1000
0000
0001
0000
,
2000
3000
0002
0003
,
1000
0000
0001
0000
0100
0010
1000
0000
,
0001
1000
0001
1001
,
1000
0000
0010
0000
0100
0001
0010
0000
,
0002
0013
0020
0130
,
1000
0100
1000
0000
0001
0100
0001
0000
,
1000
0000
0010
0000
0001
0010
1000
0000
,
0001
0000
0010
0000
0100
1000
0010
0000
,
2000
3010
0020
0130
,
0001
0100
0001
0000
1000
0100
1000
0000
,
0001
0010
1000
0000
0010
0000
0001
0000
,
1000
0000
1000
0100
0000
0100
0010
0000
0010
0001
0000
0000
,
0001
0000
0001
0100
0000
0100
0010
0000
0010
1000
0000
0000
,
1000
0000
1000
0010
0000
0010
0100
0000
0100
0001
0000
0000
,
0001
0000
0001
0010
0000
0010
0100
0000
0100
1000
0000
0000
,
0001
0010
0100
1000
0001
0000
1000
0100
,
0010
0001
0100
0001
0020
0000
0030
0000
,
0001
0100
0010
0100
0001
0010
0100
0010
,
0001
0000
1001
0000
0001
1000
0001
0000
,
1000
0100
0010
0001
1000
0000
0001
0010
,
0100
1000
0010
1000
0200
0000
0300
0000
,
1000
0010
0100
0010
1000
0100
0010
0100
,
1000
0000
1001
0000
1000
0001
1000
0000
,
0001
0101
0110
1010
,
1000
0010
1000
0000
0001
0010
0001
0000
,
1000
1100
0110
0011
,
0001
0010
0001
0000
1000
0010
1000
0000
,
0001
0100
0010
0000
1000
0100
0010
0000
,
0001
0100
0010
0000
1000
0100
0010
0000
,
0001
0010
0100
0000
1000
0010
0100
0000
,
0001
0010
0100
0000
1000
0010
0100
0000
,
0002
0000
0003
1000
0001
1000
0001
0000
,
2000
3200
0320
0032
,
1003
1100
0001
0011
,
1000
0000
0100
0010
0001
0000
0100
0000
,
1000
0000
0100
0001
0100
0000
0010
0000
,
1000
0100
0010
0001
0100
0010
1000
0000
,
0010
1010
0001
0101
,
0001
0000
0100
0010
1000
0000
0100
0000
,
0001
0000
0100
1000
0100
0000
0010
0000
,
0001
0100
0010
1000
0100
0010
0001
0000
,
2000
0010
0010
3010
,
1010
0000
0000
0010
1000
0001
1000
0000
,
0002
0010
0010
0013
,
0011
0000
0000
0010
0001
1000
0001
0000
,
1000
0100
0010
0000
0100
0010
0001
0000
,
1000
0010
0100
0000
0010
0100
0001
0000
,
1000
0001
0100
0000
0001
1000
0010
0000
,
0200
0000
0000
0010
0310
0000
1000
0000
,
0002
2003
3200
0320
,
0032
0000
0000
0000
,
2000
0000
0000
0000
,
3003
0000
0000
0000
,
0000
0000
0000
0000
;
#NOTES:
     dance-single:
     :
     Hard:
     15:
     :
0000
0000
0000
0000
,
0000
0000
0000
0000
,
0000
0000
0000
0000
,
2000
0000
3200
0000
,
0320
0000
0032
0000
,
2003
0000
0020
0030
,
3002
0000
0020
0030
,
1003
0000
1001
0000
0001
0010
0100
1000
,
0010
0100
0010
0100
0001
0010
0000
0010
,
0001
1000
0100
0010
0100
1000
0001
0100
,
0010
1000
0001
0100
0010
1000
0001
0000
,
1001
0000
0000
0000
1000
0100
0010
0100
1000
0000
0010
0000
0100
0000
0001
0000
,
0020
0000
0000
0000
0031
0000
1000
0001
1000
0000
0100
0000
0100
0000
0000
0000
,
1000
0000
0100
0010
0001
0000
0100
0000
1000
0000
0100
0000
0001
0000
1000
0000
,
0010
0000
0100
0001
0100
0000
0001
1000
0001
0000
1000
0000
1000
0000
0000
0000
,
1001
0000
0000
0000
0001
0100
0010
0100
0001
0000
0010
0000
0100
0000
1000
0000
,
0020
0000
0000
0000
1030
0000
0001
1000
0001
0000
0100
0000
0100
0000
0000
0000
,
0001
0000
0100
0010
1000
0000
0100
0000
0001
0000
0100
0000
1000
0000
0001
0000
,
0010
0000
0100
1000
0100
0000
1000
0001
1000
0000
0000
0000
1001
0000
0000
0000
,
0001
0000
0100
0000
0010
1000
0001
1000
0010
0000
0100
0001
1000
0000
0100
0000
,
0010
0000
0001
0100
0001
0000
0010
0001
0010
0000
0001
0000
0100
0000
0000
0000
,
0010
0000
0010
1000
0001
0000
0010
0000
0100
0010
0100
0000
1000
0001
1000
0000
,
0001
0000
0010
0000
1000
0000
0010
0000
0001
0000
1000
0001
1000
0000
0000
0000
,
1000
0000
0010
0000
0100
0001
1000
0001
0100
0000
0010
1000
0001
0000
0010
0000
,
0100
0000
1000
0010
1000
0000
0100
1000
0100
0000
1000
0000
0010
0000
0000
0000
,
0100
0000
0100
0001
1000
0000
0100
0000
0010
0100
0010
0000
0001
1000
0001
0000
,
1000
0100
0001
0100
1000
0000
1001
0000
,
1000
0100
0010
0001
0010
0100
1000
0100
0010
0001
0010
0100
,
1000
0010
0100
0010
0100
0001
1000
0001
0100
0001
0100
0010
,
1000
0100
0010
0001
0010
0100
1000
0100
0010
0001
0010
0100
,
1000
0010
1000
0001
0100
0001
0010
0001
0010
0100
1000
0100
,
1000
0000
0010
0100
0010
0000
1000
0000
0001
0000
0010
0100
0010
0000
0001
0000
,
1000
0100
0010
0000
0001
0100
0010
0000
1000
0000
0001
1000
0001
0000
0000
0000
,
1000
0100
1000
0100
0010
0000
0001
0000
1000
0010
1000
0010
0100
0000
0001
0000
,
1000
0000
0010
0100
0001
0000
1000
0100
0010
0000
0001
1000
0001
0000
0100
0000
,
0001
0000
0010
0100
0010
0000
0001
0000
1000
0000
0010
0100
0010
0000
1000
0000
,
0001
0100
0010
0000
1000
0100
0010
0000
0001
0000
1000
0001
1000
0000
0000
0000
,
0001
0100
0001
0100
0010
0000
1000
0000
0001
0010
0001
0010
0100
0000
1000
0000
,
0001
0000
0010
0100
1000
0000
0001
0100
0010
0000
1000
0001
1000
0000
0100
0000
,
0010
0000
0001
0100
0001
0000
0100
0010
0100
0000
0010
1000
0001
1000
0010
0000
,
1000
0001
1001
0000
0001
1000
1001
0000
,
0001
0000
1000
0010
1000
0000
0010
0100
0010
0000
0100
0001
0100
0010
0100
0000
,
0001
1000
1001
0000
1000
0001
1001
0000
,
1000
0000
0100
0010
0001
0000
1000
0000
0001
0000
0100
0010
1000
0000
0001
0000
,
1000
0000
0010
0100
0001
0000
1000
0000
0001
0000
0010
0100
1000
0000
0001
0000
,
1000
0000
0100
0001
0100
0000
1000
0000
0001
0000
0100
1000
0100
0000
0001
0000
,
1000
0000
0010
0001
0010
0000
1000
0000
0001
0000
0100
1000
0100
0000
0010
0100
,
0020
0000
0000
0000
0030
0000
0010
0100
0010
0000
1000
0000
0001
0000
0010
0000
,
0200
0000
0301
0100
2000
0000
3001
0000
,
0011
0110
1100
1001
,
1000
0000
0100
0010
0001
0000
0100
0000
0010
0000
0100
0001
1000
0000
0100
0000
,
0010
0001
0010
0001
0010
0000
0001
0000
1000
0000
0010
0100
0010
0000
1000
0000
,
0001
0000
0100
0010
1000
0000
0100
0000
0010
0001
0010
0000
0100
1000
0100
0000
,
1100
0110
0011
1001
,
0001
0000
0010
0100
1000
0000
0010
0000
0100
0000
0010
1000
0001
0000
0010
0000
,
0100
1000
0100
1000
0100
0000
1000
0000
0001
0000
0100
0010
0100
0000
0001
0000
,
1000
0000
0010
0100
0001
0000
0010
0000
0100
1000
0100
0000
0010
0001
0010
0000
,
0001
0100
0010
1000
0010
0000
0000
0000
1010
0000
0000
0000
1001
0000
0000
0000
,
1000
0100
0010
0001
1000
0000
0001
0100
0001
0000
0001
0000
1000
0001
1000
0001
,
1000
0100
0010
0001
0010
0000
0000
0000
0011
0000
0000
0000
1001
0000
0000
0000
,
0001
0100
0010
1000
0001
0000
1000
0100
1000
0000
1000
0000
0001
1000
0001
1000
,
0100
0010
0100
0000
0010
0001
0010
0000
0001
1000
0001
0000
1000
0010
0100
0000
,
0010
0100
0010
0000
0100
0001
0100
0000
0001
1000
0001
0000
1000
0100
1000
0000
,
0001
0010
0100
0010
0001
1000
0100
0000
1000
0010
0100
0010
1000
0001
0100
0000
,
0020
0000
0000
0000
0030
0000
0010
1000
0100
0000
0010
0000
0001
0000
1000
0000
,
0002
0010
0100
0100
,
2003
0000
0000
0000
,
0002
0000
0000
0000
,
3003
0000
0000
0000
,
0000
0000
0000
0000
;
#NOTES:
     dance-double:
     :
     Easy:
     5:
     :
00000000
00000000
00000000
00000000
,
00000000
00000000
00000000
00000000
,
00000000
00000000
00000000
00000000
,
00002000
00000000
00000000
00000000
,
00003000
00000000
00000000
00000000
,
00020000
00000000
00000000
00000000
,
00030000
00000000
00000000
00000000
,
00001000
00000000
00001000
00000000
,
00010000
00000000
00010000
00000000
,
00001000
00000000
01000000
00000000
,
00010000
00000000
00000000
00000000
,
00010000
10000000
00010000
00000000
,
10000000
01000000
00100000
00000000
,
00200000
00000000
00000000
00300000
,
00002000
00000000
00000000
00003000
,
00001000
00010000
00001000
00000000
,
00010000
00000100
00001000
00000000
,
00002000
00000000
00000000
00003000
,
00000002
00000000
00000000
00000003
,
00000001
00000010
00000100
00001000
,
00000100
00000000
00010000
00000000
,
00001000
00010000
00001000
00000000
,
00010000
00000000
00011000
00000000
,
00010000
00001000
00100000
00010000
,
00100000
00000000
01000000
00000000
,
10000000
00010000
10000000
00000000
,
00010000
00000000
10010000
00000000
,
20000000
00000000
00000000
30000000
,
02000000
00000000
00000000
03000000
,
00200000
00000000
00000000
00300000
,
00002000
00000000
00000000
00003000
,
00010000
00001000
00010000
00000100
,
00001000
00000100
00000010
00000000
,
00000001
00000010
00000100
00001000
,
00000001
00000000
00001001
00000000
,
00000001
00001000
00000100
00001000
,
00000100
00010000
00001000
00000000
,
00010000
00001000
01000000
00010000
,
01000000
00000000
01100000
00000000
,
10000000
00100000
01000000
00000000
,
00010000
00100000
01000000
00000000
,
10000000
01000000
00100000
00000000
,
00001000
00010000
00001000
00000000
,
00011000
00000000
00010000
00000100
,
00001000
00000000
00000010
00000000
,
00000110
00000000
00000001
00001000
,
00000001
00000000
00000010
00000000
,
00000002
00000000
00000000
00000003
,
00002000
00000000
00000000
00003000
,
00001000
00000100
00010000
00000000
,
00010000
00000000
00001000
00000000
,
01000000
00010000
01000000
00000000
,
00010000
00100000
01000000
10000000
,
00020000
00000000
00000000
00030000
,
00010000
00000000
00100000
00000000
,
00010000
00100000
00001000
00000000
,
00010000
00000100
00001000
00000100
,
00002000
00000000
00000000
00003000
,
00001000
00000001
00000100
00000000
,
00000020
00000000
00000000
00000030
,
00000010
00010000
00001000
00000000
,
00002000
00000000
00000000
00003000
,
00020000
00000000
00000000
00030000
,
00200000
00000000
00000000
00300000
,
20000000
00000000
00000000
30000000
,
10000000
01000000
00010000
00000000
,
00002000
00000000
00000000
00000000
,
00000000
00000000
00000000
00000000
,
00003000
00000000
00000000
00000000
,
00000000
00000000
00000000
00000000
;
#NOTES:
     dance-double:
     :
     Medium:
     10:
     :
00000000
00000000
00000000
00000000
,
00000000
00000000
00000000
00000000
,
00000000
00000000
00000000
00000000
,
00002000
00000000
00000000
00003000
,
00020000
00000000
00000000
00030000
,
00000020
00000000
00000000
00000030
,
00002000
00000000
00000000
00003000
,
00000001
00000000
00000010
00000000
00000100
00001000
00000100
00000000
,
00010000
00000000
00000100
00000000
00010000
00001000
00010000
00000000
,
00001000
00000000
01000000
00000000
00010000
01000000
00010000
00000000
,
00100000
00000000
01000000
00000000
10000000
00010000
10000000
00000000
,
00010000
00000000
10000000
01000000
00100000
00000000
00001000
00000000
,
00020000
00030000
00002000
00003000
,
00010000
00000100
00001000
00000010
,
00000100
00000001
00000010
00000000
,
00000001
00000000
00000010
00000100
00001000
00000000
00000100
00000000
,
00020000
00030000
00002000
00003000
,
00010000
00000000
00001000
00000000
01000000
00010000
01000000
00000000
,
00100000
10000000
00010000
10010000
,
10000000
00000000
01000000
00000000
00100000
01000000
00100000
00000000
,
00010000
00000000
00100000
00000000
00001000
00010000
00001000
00000000
,
00010000
00001000
00000100
00000001
,
00001000
00000100
00000010
00000000
00000001
00000100
00000010
00000000
,
00001000
00000000
00000001
00000000
00000010
00000100
00000010
00000000
,
00000001
00000000
00001000
00000000
00000100
00010000
00000100
00000000
,
00010000
00001000
00010000
00100000
,
10000000
00100000
00010000
00000000
00100000
00000000
10000000
00000000
,
00010000
00000000
00010000
10000000
00000000
10000000
01000000
00000000
01000000
00100000
00000000
00000000
,
00100000
00000000
00100000
00001000
00000000
00001000
00010000
00000000
00010000
00001000
00000000
00000000
,
00010000
00000000
00010000
00000100
00000000
00000100
00001000
00000000
00001000
00000010
00000000
00000000
,
00000010
00000000
00000010
00000100
00000000
00000100
00000001
00000000
00000001
00001000
00000000
00000000
,
00000001
00000100
00000001
00000000
00001000
00000100
00001000
00000000
,
00000001
00000100
00000010
00010000
00002000
00000000
00003000
00000000
,
00001000
00100000
00010000
01000000
00010000
00100000
00001000
00100000
,
00010000
00000000
01000000
00000000
00100000
01000000
00100000
00000000
,
10000000
01000000
10000000
00000000
00010000
01000000
00010000
00000000
,
10000000
01000000
00100000
00001000
00020000
00000000
00030000
00000000
,
00010000
00000010
00001000
00000100
00001000
00000010
00010000
00000010
,
00001000
00000000
00000100
00000000
00000010
00000100
00000010
00000000
,
00000001
00000011
00000110
00001100
,
00001000
00000100
00010000
00000000
00001000
00010000
00001000
00000000
,
00011000
00101000
00110000
01010000
,
01000000
00100000
10000000
00000000
00100000
01000000
00010000
00000000
,
10000000
00000000
01000000
00010000
00001000
00000000
00000010
00000000
,
00000001
00000000
00000100
00000010
00000100
00000000
00000001
00000000
,
00000100
00000000
00001000
00010000
00100000
00000000
10000000
00000000
,
00100000
00000000
01000000
00100000
01000000
00000000
00010000
00000000
,
20000000
00000000
30000000
00010000
10000000
00000000
01000000
00000000
,
00200000
00302000
00023000
00030200
,
00001300
00000010
00000110
00000101
,
00000001
00000000
00001000
00000001
00001000
00000000
00000100
00000000
,
00010000
00000000
00001000
00100000
00001000
00000000
00010000
00000000
,
00100000
00000000
01000000
00000000
00010000
10000000
00010000
00000000
,
10000000
00100000
01100000
01010000
,
10000000
00000000
00010000
10000000
00010000
00000000
01000000
00000000
,
00001000
00000000
00010000
00000010
00010000
00000000
00001000
00000000
,
00000010
00000000
00000100
00000000
00001000
00000001
00001000
00000000
,
00000002
00000010
00000010
00000013
,
00000001
00000000
00000100
00001000
00010000
00000000
00100000
00000000
,
20000000
00100000
00100000
30100000
,
10000000
00000000
01000000
00010000
00001000
00000000
00000010
00000000
,
00000002
00000000
00000013
00000000
00000010
00000100
00000010
00000000
,
00000200
00000000
00001300
00000000
00001000
00000100
00010000
00000000
,
00001000
00100000
00001000
00000000
00100000
00010000
00100000
00000000
,
02000000
00000000
00000000
10000000
13000000
00000000
00010000
00000000
,
20000000
32000000
03200000
00320000
,
00032000
00000000
00000000
00000000
,
00000002
00000000
00000000
00000000
,
00003003
00000000
00000000
00000000
,
00000000
00000000
00000000
00000000
;
#NOTES:
     dance-double:
     :
     Hard:
     15:
     :
00000000
00000000
00000000
00000000
,
00000000
00000000
00000000
00000000
,
00000000
00000000
00000000
00000000
,
00020000
00000000
00032000
00000000
,
00003200
00000000
00000302
00000000
,
00000023
00000000
00002030
00000000
,
00023000
00000000
02030000
00000000
,
13000000
00000000
10010000
00000000
10000000
01000000
00100000
00010000
,
01000000
00100000
00010000
00001000
00000100
00000010
00000000
00000010
,
00001000
00000000
00001001
00000000
00000001
00000010
00000100
00001000
,
00000010
00000100
00001000
00010000
00100000
01000000
00010000
00100000
,
01000000
00000000
00000000
00000000
10000000
00010000
00100000
00010000
10000000
00000000
01000000
00000000
00010000
00000000
00001000
00000000
,
00020000
00000000
00000000
00000000
00031000
00000000
00010000
00001000
00010000
00000000
00000100
00000000
00001000
00000000
00000000
00000000
,
00000001
00000000
00001000
00000100
00000010
00000000
00000001
00000000
00000100
00000000
00001000
00000000
00000100
00000000
00000001
00000000
,
00000010
00000100
00000010
00000000
00000100
00001000
00000100
00000000
00010000
00000000
00001000
00000000
00010000
00000000
00000000
00000000
,
00011000
00000000
00000000
00000000
00001000
00100000
00010000
00100000
00001000
00000000
00010000
00000000
00100000
00000000
01000000
00000000
,
00020000
00000000
00000000
00000000
10030000
00000000
01000000
00100000
01000000
00000000
10000000
00000000
00010000
00000000
00000000
00000000
,
10000000
00000000
00100000
01000000
00010000
00000000
00100000
00000000
01000000
00000000
00010000
00000000
01000000
00000000
00100000
00000000
,
00001000
00100000
00001000
00000000
00010000
00001000
00010000
00000000
00001000
00000000
00000000
00000000
00011000
00000000
00000000
00000000
,
00010000
00000000
00000100
00000000
00001000
00000010
00000100
00000001
00001000
00000000
00000010
00000100
00000001
00000000
00001000
00000100
,
00000010
00000000
00000001
00000000
00000100
00000000
00001000
00010000
00001000
00000000
00010000
00000000
00001000
00000000
00000000
00000000
,
00001000
00000000
00010000
01000000
00010000
00000000
00001000
00000000
00100000
00000000
01000000
00010000
01000000
00000000
10000000
00000000
,
00010000
00100000
00010000
00000000
01000000
00010000
01000000
00000000
00010000
00000000
00100000
00000000
00001000
00000000
00000000
00000000
,
00001000
00000000
01000000
00000000
00010000
00100000
01000000
10000000
00010000
00000000
00100000
01000000
10000000
00000000
00010000
01000000
,
00100000
00000000
10000000
00000000
01000000
00000000
00010000
00001000
00010000
00000000
00001000
00000000
00010000
00000000
00000000
00000000
,
00010000
00000000
00001000
00000100
00001000
00000000
00010000
00000000
00000010
00000000
00000100
00001000
00000100
00000000
00000001
00000000
,
00001000
00000010
00001000
00000000
00000100
00001000
00000100
00000000
00001000
00000000
00000000
00000000
00001001
00000000
00000000
00000000
,
00000001
00000010
00000100
00001000
00000100
00000010
00000001
00001000
00000010
00001000
00000100
00010000
,
00001000
00100000
00010000
01000000
00010000
00100000
00001000
00010000
00000100
00001000
00000010
00001000
,
00000100
00010000
00001000
00100000
00010000
01000000
00010000
00100000
00001000
00010000
00001000
00100000
,
00010000
01000000
00100000
10000000
00100000
01000000
00010000
01000000
00100000
10000000
00010000
00100000
,
01000000
00000000
10000000
00010000
10000000
00000000
00100000
00000000
01000000
00000000
00010000
10000000
00010000
00000000
00100000
00000000
,
01000000
00100000
00010000
00000000
00100000
00001000
00010000
00000000
00001000
00000000
00010000
00001000
00010000
00000000
00000000
00000000
,
00001000
00010000
00001000
00010000
00000100
00000000
00001000
00000000
00000010
00000100
00000010
00000100
00000001
00000000
00000010
00000000
,
00000100
00000010
00000001
00000000
00000100
00000010
00001000
00000000
00000100
00000000
00000010
00000100
00000010
00000000
00000001
00000000
,
00000100
00000000
00000001
00001000
00000001
00000000
00000010
00000000
00000100
00000000
00001000
00000001
00001000
00000000
00000010
00000000
,
00000100
00000010
00001000
00000000
00000010
00010000
00001000
00000000
00010000
00000000
00001000
00010000
00001000
00000000
00000000
00000000
,
00010000
00001000
00010000
00001000
01000000
00000000
00010000
00000000
00100000
01000000
00100000
01000000
10000000
00000000
00100000
00000000
,
01000000
00100000
10000000
00000000
01000000
00100000
00010000
00000000
01000000
00000000
00100000
01000000
00100000
00000000
00000000
00000000
,
10000000
00000000
00010000
00100000
01000000
00000000
00010000
00001000
00010000
00000000
00001000
00000010
00000001
00000010
00000001
00000000
,
00001000
00000100
00000110
00000000
00000001
00000100
00000110
00000000
,
00001001
00000000
00001000
00000010
00000100
00000000
00001000
00010000
00001000
00000000
00010000
00100000
10000000
00100000
10000000
00000000
,
00010000
01000000
01100000
00000000
10000000
01000000
01100000
00000000
,
10000000
00000000
00100000
00010000
00100000
00000000
00010000
00000000
00001000
00000000
00000100
00000010
00000100
00000000
00000001
00000000
,
00001000
00000000
00000001
00000010
00000001
00000000
00000010
00000000
00001000
00000000
00010000
01000000
00010000
00000000
01000000
00000000
,
10000000
00000000
01000000
00010000
00001000
00000000
00010000
00001000
00010000
00000000
00001000
00000010
00000001
00000000
00001000
00000000
,
00000001
00000000
00000100
00001000
00010000
00000000
00001000
00010000
00001000
00000000
00010000
00100000
10000000
00000000
00000000
00000000
,
00020000
00000000
00000000
00000000
00030000
00000000
00010000
10000000
00010000
00000000
01000000
00000000
00100000
00000000
00010000
00000000
,
00002000
00000000
00013000
00010000
00002000
00000000
00013000
00000000
,
00011000
01010000
00011000
00001010
,
00000011
00000000
00000001
00000010
00000100
00000000
00001000
00000000
00000010
00000000
00000100
00000010
00001000
00000000
00000100
00000000
,
00010000
00001000
00010000
00001000
00010000
00000000
00100000
00000000
10000000
00000000
00100000
01000000
00100000
00000000
00010000
00000000
,
10000000
00000000
01000000
00010000
10000000
00000000
01000000
00000000
00010000
00001000
00010000
00000000
00001000
00000000
00000010
00000001
,
00000010
00000110
00010100
00011000
,
00001000
00000000
00010000
00100000
01000000
00000000
00010000
00000000
00100000
00000000
01000000
00010000
00001000
00000000
00000010
00000000
,
00000100
00001000
00000100
00010000
00000100
00000000
00001000
00000000
00000010
00000000
00000100
00000010
00000100
00000000
00000010
00000000
,
00001000
00000000
00000100
00010000
00001000
00000000
01000000
00000000
00010000
00100000
00010000
00000000
01000000
00000000
00100000
00000000
,
10000000
01000000
00100000
00001000
00010000
00000000
00000000
00000000
00011000
00000000
00000000
00000000
00000110
00000000
00000000
00000000
,
00002002
00000000
00000000
00000000
00003003
00000000
00001000
00000100
00000010
00000000
00000001
00000000
00001000
00000001
00001000
00000000
,
00000001
00000100
00000010
00010000
00001000
00000000
00000000
00000000
00011000
00000000
00000000
00000000
01100000
00000000
00000000
00000000
,
20020000
00000000
00000000
00000000
30030000
00000000
00010000
01000000
00100000
00000000
10000000
00000000
00010000
10000000
00010000
00000000
,
10000000
01000000
00100000
00000000
01000000
00100000
00010000
00000000
00100000
00001000
00010000
00000000
00000100
00001000
00000100
00000000
,
00000010
00000001
00000100
00000000
00000001
00000100
00001000
00000000
00010000
00000100
00010000
00000000
00001000
01000000
00010000
00000000
,
00100000
00010000
10000000
01000000
10000000
00010000
01000000
00000000
00010000
00100000
00001000
00010000
00000100
00001000
00000010
00000000
,
00000200
00000000
00000000
00000000
00000300
00000000
00000100
00000001
00000010
00000000
00001000
00000000
00010000
00000000
01000000
00000000
,
20000000
32000000
03020000
00032000
,
00023000
00000000
00000000
00000000
,
00002000
00000000
00000000
00000000
,
00033000
00000000
00000000
00000000
,
00000000
00000000
00000000
00000000
;
