
//----- song ID: sets -----//
#TITLE:雪上断火;
#ARTIST:Des-ROW・組;
#TITLETRANSLIT:Setsujou danka;
#ARTISTTRANSLIT:Des-ROW・Gumi;
#MUSIC:Setsujou danka.ogg;
#BANNER:Setsujou danka.png;
#BACKGROUND:Setsujou danka-bg.png;
#CDTITLE:./CDTitles/pnm 12 いろは.png;
#SAMPLESTART:108.553;
#SAMPLELENGTH:15;
#BPMS:0=180,212=105,276=180;
#BGSTAGE:4;
#NOTES:
     dance-single:
     :
     Beginner:
     3:
     :
0000
0000
0000
0000
,
0000
0000
0000
0000
,
0000
0000
0000
0000
,
0000
0000
0000
0000
,
0000
0000
0000
0000
,
0000
0000
0000
0000
,
0000
0000
0000
0000
,
1001
0000
0000
0000
,
0000
0000
0000
0000
,
0000
0000
0000
0000
,
0000
0000
0000
0000
,
1000
0000
1000
0000
,
0000
0000
0000
0000
,
0001
0000
0001
0000
,
0000
0000
0000
0000
,
1000
0000
1000
0000
,
0001
0000
0001
0000
,
0000
0000
0000
0000
,
0000
0000
0000
0000
,
0010
0000
0000
0000
,
0100
0000
0000
0000
,
0010
0000
0000
0000
,
0100
0000
0000
0000
,
0001
0000
0000
0000
,
0001
0000
0000
0000
,
1000
0000
0000
0000
,
1000
0000
0000
0000
,
0001
0000
0000
0000
,
0100
0000
0000
0000
,
0010
0000
0000
0000
,
0100
0000
0000
0000
,
0001
0000
0000
0000
,
1000
0000
0000
0000
,
0001
0000
0000
0000
,
1000
0000
0000
0000
,
0010
0000
0010
0000
,
0010
0000
0000
0000
,
0100
0000
0100
0000
,
0100
0000
0000
0000
,
0001
0000
0001
0000
,
0001
0000
0000
0000
,
1000
0000
1000
0000
,
1000
0000
0000
0000
,
0001
0000
0001
0000
,
0001
0000
0000
0000
,
0010
0000
0010
0000
,
0010
0000
0000
0000
,
0100
0000
0100
0000
,
0100
0000
0000
0000
,
1000
0000
1000
0000
,
1000
0000
0000
0000
,
1001
0000
0000
0000
,
0000
0000
0000
0000
,
0001
0000
0000
0000
,
0001
0000
0000
0000
,
1000
0000
0000
0000
,
1000
0000
0000
0000
,
0010
0000
0000
0000
,
0010
0000
0000
0000
,
0100
0000
0000
0000
,
0100
0000
0000
0000
,
0001
0000
0001
0000
,
0001
0000
1000
0000
,
1000
0000
1000
0000
,
0000
0000
0000
0000
,
1001
0000
0000
0000
,
0110
0000
0000
0000
,
1001
0000
0000
0000
,
0110
0000
0000
0000
,
0000
0000
0000
0000
,
0001
0000
0000
0000
,
1000
0000
0000
0000
,
0010
0000
0000
0000
,
0100
0000
0000
0000
,
0001
0000
0000
0000
,
1000
0000
0000
0000
,
0100
0000
0000
0000
,
1000
0000
0000
0000
,
0001
0000
0001
0000
,
0001
0000
0000
0000
,
1000
0000
1000
0000
,
1000
0000
0000
0000
,
0010
0000
0010
0000
,
0010
0000
0000
0000
,
0100
0000
0100
0000
,
0100
0000
0000
0000
,
0110
0000
0000
0000
,
0000
0000
0000
0000
;
#NOTES:
     dance-single:
     :
     Easy:
     7:
     :
0000
0000
0000
0000
,
0000
0000
0000
0000
,
0000
0000
0000
0000
,
0000
0000
0000
0000
,
0000
0000
0000
0000
,
0000
0000
0000
0000
,
0000
0000
0000
0000
,
1001
0000
0000
0000
,
0000
0000
0000
0000
,
0000
0000
0000
0000
,
0000
0000
0000
0000
,
0001
1000
0100
0000
,
0010
0001
1000
0000
,
1000
0001
0100
0000
,
0010
1000
0001
0000
,
0100
0001
0010
0000
,
0100
1000
0010
0000
,
0100
0110
1000
0001
,
2000
0000
0000
3000
,
0010
0010
0100
0100
,
0001
0000
0001
0000
,
1000
1000
0100
0100
,
0010
0000
0001
0000
,
0100
0100
0001
0001
,
1000
0000
0001
0000
,
0100
0100
0010
0010
,
1000
1000
0001
0001
,
0010
0100
1000
0001
,
0100
0010
0100
0000
,
0001
0010
0100
1000
,
0010
1000
0010
0000
,
0100
0100
0001
1000
,
0100
0100
1000
0000
,
0001
0100
0100
0001
,
1000
0100
0110
0000
,
0001
0100
1000
0000
,
1000
0100
0001
0000
,
0001
0010
0100
1000
,
0001
0100
0110
0000
,
1000
0100
0001
0000
,
0001
0100
1000
0000
,
0010
0100
0001
1000
,
0100
0010
0011
0000
,
1000
1000
0010
0010
,
0100
0100
0001
0001
,
0010
0100
1000
0001
,
0100
0001
1001
0000
,
1000
1000
0100
0100
,
0010
0010
0011
0000
,
1000
0010
0100
0001
,
0010
0100
1000
0001
,
1001
0000
0000
0000
,
0000
0000
0000
0000
,
0001
1000
0100
1000
,
0010
0010
0100
0001
,
1000
1000
0100
0010
,
0001
0100
0001
0000
,
1000
0100
0001
0100
,
1000
0010
0001
0010
,
1000
1000
0100
0010
,
0001
0001
0100
0000
,
0110
0000
1001
0000
,
0002
0010
1000
0103
,
0110
1001
0001
1000
,
2000
0010
0001
3100
,
0011
0000
0000
1000
,
1100
0000
0000
0000
,
1001
0000
0000
0010
,
0110
0000
0000
0000
,
0000
0000
0000
0000
,
1000
1000
0100
0010
,
0001
0001
0100
0000
,
0001
0011
0001
0011
,
1000
0010
0100
0000
,
0001
0001
0010
0100
,
1000
1000
0010
0010
,
0100
0101
1000
1100
,
0001
1000
1001
0000
,
1000
0100
0001
0100
,
1000
0010
0110
0000
,
0001
0100
1000
0100
,
0001
0010
0100
1000
,
0010
1000
0100
0010
,
0001
0010
0011
0000
,
0001
1000
0010
0001
,
0010
1000
0100
1000
,
1001
0000
0000
0000
,
0000
0000
0000
0000
;
#NOTES:
     dance-single:
     :
     Medium:
     11:
     :
0000
0000
0000
0000
,
0000
0000
0000
0000
,
0000
0000
0000
0000
,
0000
0000
0000
0000
,
0000
0000
0000
0000
,
0000
0000
0000
0000
,
0000
0000
0000
0000
,
1001
0000
0000
0000
,
0000
0000
0000
0000
,
0000
0000
0000
0000
,
0000
0000
0000
0000
,
0001
0000
0100
0010
0001
0000
0010
0000
,
1000
0000
0100
0010
1000
0000
0010
0000
,
0001
0000
0100
0010
0001
0000
0010
0000
,
1000
0000
0100
0010
1000
0000
0010
0000
,
0001
0000
1000
0010
0100
0000
1000
0000
,
0100
0000
0001
0010
0100
0000
0001
0000
,
0100
1100
0001
0100
,
0002
0000
0000
0003
,
0010
0010
0100
0100
,
1000
1000
0001
0001
,
0100
0100
0010
0010
,
0100
0000
0010
1000
0001
0000
0000
0000
,
0001
0001
0100
0100
,
0001
0000
0001
0010
0100
0000
0000
0000
,
1000
1000
0001
0001
,
0100
0000
0100
0010
1000
0000
0000
0000
,
1000
0000
0001
0000
0100
0100
0001
0001
,
1000
0000
0010
0000
1000
1000
0100
0100
,
0010
0000
0001
0000
0010
0100
1000
0000
,
1000
0000
0010
1000
0001
0010
0001
0010
,
0100
0000
1000
0000
0001
0100
0010
0000
,
0001
0000
0010
1000
0001
0010
0001
0010
,
0100
0000
1100
0000
0001
0010
0100
0000
,
1000
0000
0010
1000
0001
0010
0001
0010
,
0100
1100
0001
0101
,
1000
0000
0100
1000
0000
0000
0010
0000
0100
0000
0000
0000
,
0001
0011
1000
1010
,
0001
0000
0010
0001
0000
0000
0100
0000
0010
0000
0000
0000
,
1000
1100
0010
0011
,
1000
0000
0010
0100
0000
0000
0001
0000
1000
0000
0000
0000
,
0001
0011
0100
1100
,
0001
0000
0100
0010
0000
0000
1000
0000
0001
0000
0000
0000
,
2100
3001
1000
0010
,
0102
1003
0001
0010
,
2100
3001
0100
0010
,
1000
0000
0001
0100
0000
0000
0001
0000
0010
0000
0000
0000
,
2100
3001
2010
3001
,
1000
0000
0100
1000
0000
0000
0010
0000
0100
0000
0000
0000
,
0102
1003
0012
1003
,
0001
0000
0100
0001
0000
0000
0010
0000
0100
0000
0000
0000
,
1001
0000
0000
0000
,
0000
0000
0000
0000
,
1000
0000
0000
0000
0001
0000
0000
0000
0100
0000
0001
0000
0000
0010
0000
0000
,
0100
1000
0100
1000
0001
0100
0010
0000
,
1000
0000
0001
0000
0010
0000
0000
0000
0001
0000
0010
0000
0000
0100
0000
0000
,
1000
0010
1000
0010
0100
0001
0010
0000
,
0100
0000
1000
0000
0010
0000
0000
0000
0100
0000
0001
0000
0000
0010
0000
0000
,
0001
1000
0001
1000
0100
0010
0001
0000
,
1000
0000
0010
0000
0001
0000
0000
0000
0010
0000
0100
0000
0000
0001
0000
0000
,
0010
0100
0010
0100
1000
0010
0001
0010
,
1000
1000
1001
0000
0001
0010
0001
0001
,
0000
0100
0010
0001
0010
1000
0100
0010
,
0001
0000
1000
0000
0010
0010
0010
0100
,
0001
0010
1000
0010
0001
0100
1000
0100
,
0120
1000
0100
1030
,
0210
0001
0010
0301
,
0012
0100
0010
0103
,
2010
0100
0010
3100
,
0000
0000
0000
0000
,
1000
0000
0001
0000
0001
0010
0100
0000
,
1000
0000
0010
1000
0001
0010
0001
0010
,
0100
0000
1000
0000
0001
0100
0010
0000
,
0001
0000
0010
1000
0001
0010
0001
0010
,
0100
0000
1000
0000
0010
1000
0100
0000
,
1000
0000
0010
1000
0001
0010
0001
0010
,
0100
1100
0001
0101
,
0100
0000
0010
1000
0001
0010
0001
0010
,
0100
1000
0010
0001
,
0010
0000
0000
1000
0000
0000
0100
0000
0010
0000
0000
0000
,
0001
0100
0010
0001
,
0010
0000
0000
1000
0000
0000
0100
0000
0010
0001
0000
0010
,
0001
1100
0001
1100
,
0001
0000
0000
1000
0000
0000
0001
0000
0100
0000
0000
0000
,
0001
0010
0100
1000
,
0001
0100
0010
1000
0001
0010
0001
0010
,
0100
0000
0000
0000
,
0000
0000
0000
0000
;
#NOTES:
     dance-single:
     :
     Hard:
     15:
     :
0000
0000
0000
0000
,
0000
0000
0000
0000
,
0000
0000
0000
0000
,
0000
0000
0000
0000
,
0000
0000
0000
0000
,
0000
0000
0000
0000
,
0000
0000
0000
0000
,
1001
0000
0000
0000
,
0000
0000
0000
0000
,
0000
0000
0000
0000
,
0000
0000
0000
0000
,
1000
0100
1000
0001
1001
0000
1000
0000
,
0001
0100
0010
1000
1001
0000
0001
0000
,
1000
0010
1000
0001
0101
0000
0100
0000
,
0001
0010
0001
1000
1100
0000
0100
0000
,
0010
0001
1000
0010
1010
0000
1000
0000
,
0001
0100
0001
1000
1100
0000
0010
0000
,
0100
0000
1001
0100
0010
0000
1001
0000
,
0100
0100
0100
0100
0200
0000
0300
0000
,
0001
0100
0001
1000
0001
0010
0100
1000
,
0010
1000
0001
1000
0100
0010
0001
1000
,
0010
1000
0100
0010
0001
0100
0001
0010
,
0100
1000
0010
0100
0001
0000
1000
0000
,
0001
0000
1000
0000
0001
0100
0010
0000
,
1000
0000
0001
0000
1000
0100
0010
0000
,
0001
1100
1000
0101
,
2000
3200
0320
0032
,
1003
0000
0110
0000
0001
0001
1000
1000
,
0100
0000
0010
0001
1000
0000
0001
0000
,
1010
0000
0000
0000
0101
0000
0000
0000
1000
0000
0010
0000
0100
0001
1000
0000
,
0100
0000
0010
0000
0001
1000
0001
1000
0001
0000
0010
0000
0100
0000
1000
0000
,
0001
0000
0110
0000
1000
1000
0001
0001
,
0010
0000
0100
1000
0001
0000
0100
0000
,
1001
0000
0001
0010
0110
0000
1000
0010
,
0110
1001
0220
0330
,
1000
0000
0001
0100
0000
0001
1000
0100
1000
0001
0000
1000
,
0100
0000
0010
0001
1000
0001
0100
0000
1001
0000
0000
0000
,
0001
0000
1000
0010
0000
1000
0001
0100
0001
1000
0000
0001
,
0010
0000
0100
1000
0001
1000
0010
0000
1001
0000
0000
0000
,
1000
0000
0001
0100
0000
0001
0010
0000
0100
1000
0001
1000
,
0010
0000
0100
0001
0000
0100
0010
0000
1000
0001
0010
0001
,
1000
0000
0001
0100
0010
0100
0001
0000
1000
0100
0010
0100
,
1000
0000
0010
1000
0001
1000
0100
0000
1001
0000
0000
0000
,
1000
0000
0001
0100
0000
0001
0010
0000
0100
1000
0001
1000
,
0010
0000
0100
0001
0000
0100
0010
0000
1000
0001
0010
0100
,
1000
0000
0001
1000
0010
0100
0001
0000
1000
0100
0010
0100
,
1000
0000
0010
1000
0001
1000
0100
0000
1001
0000
0000
0000
,
1000
0000
0100
1000
0010
0100
0001
0000
0010
0001
0100
0010
,
1000
0000
0001
0010
0100
1000
0001
0000
1001
0000
0000
0000
,
0001
1000
0001
0010
0100
1000
0010
1000
0001
0010
0100
0010
,
0001
0000
1000
0000
0010
0000
0100
0000
0001
0000
0010
0000
0100
0000
1000
0000
0001
0000
1000
0000
0000
0001
0000
0000
,
1001
0000
0000
0000
,
0000
0000
0000
0000
,
1001
0010
1001
0000
0001
0100
1001
0000
,
1010
1000
0101
0001
1001
1000
0200
0000
,
1300
0001
0011
0000
0001
1000
1010
0000
,
0002
0010
1000
0100
2003
0100
0001
3010
,
1001
0100
1001
0000
1000
0100
1001
0000
,
0011
0001
1100
1000
1001
0001
0200
0000
,
0301
1000
1010
0000
1000
0001
0011
0000
,
2000
0010
0001
0100
3002
0100
1000
0013
,
0001
0000
0101
0000
0001
0001
1001
0000
,
0001
0000
0100
0001
0100
0000
0001
0000
0100
0010
1000
0000
1010
0000
0101
0000
,
1000
0000
1100
0000
1000
1000
1001
0000
,
1000
0000
0100
1000
0100
0000
1000
0000
0100
0010
0001
0000
0011
0000
1100
0000
,
2001
0001
0010
0000
0100
0100
3001
0000
,
0012
0010
1000
0000
0100
0100
1003
0000
,
2010
0010
0001
0000
0100
0100
3001
0000
,
1002
1000
0010
0000
0100
0100
1003
0001
,
0000
0000
0000
0000
,
0011
0000
0101
0000
1000
0001
1000
0010
,
0100
0001
1000
0000
0100
1000
0001
0000
1000
0000
0000
0000
0001
0000
0000
0000
,
1010
0000
1100
0000
0001
1000
0001
0010
,
0100
1000
0001
0000
0100
0001
1000
0000
0001
0000
0000
0000
1001
0000
0000
0000
,
0110
0000
1000
0010
0110
0000
0001
0010
,
0110
0000
1001
0000
1000
0001
1000
0001
,
0010
0000
0100
1000
0001
0000
1000
0010
1000
0000
0001
0100
0001
0000
0010
0001
,
1000
0010
1000
0001
0100
0001
0010
0100
,
1000
0001
0100
0010
1000
0001
0010
0001
1000
0010
0100
0001
,
1000
0001
0010
0100
1000
0001
0100
0001
1000
0000
0000
0000
,
0001
1000
0100
0010
0001
1000
0010
1000
0001
0010
0100
1000
,
0001
1000
0010
0100
0001
1000
0100
1000
0001
0100
0001
1000
,
0100
0000
0010
0100
1000
0010
0100
0000
0001
0010
0001
0100
,
0010
0000
1000
0100
0010
0001
1000
0000
1001
0000
0000
0000
,
1000
0001
1000
0010
0100
0001
0010
0001
1000
0010
0100
0010
,
1000
0000
0001
0000
0010
0000
0100
0000
1000
0000
0010
0000
0100
0000
0001
0000
1000
0000
0001
0000
0000
1000
0000
0000
,
1001
0000
0000
0000
,
0000
0000
0000
0000
;
#NOTES:
     dance-single:
     :
     Challenge:
     16:
     :
0000
0000
0000
0000
,
0000
0000
0000
0000
,
0000
0000
0000
0000
,
0000
0000
0000
0000
,
0000
0000
0000
0000
,
0000
0000
0000
0000
,
0000
0000
0000
0000
,
1001
0000
0000
0000
,
0000
0000
0000
0000
,
0000
0000
0000
0000
,
0000
0000
0000
0000
,
0101
0100
0010
1000
1001
0000
0010
0000
,
1100
0100
0010
0001
1001
0000
0100
0000
,
1010
0001
1000
0100
1001
0000
0100
0000
,
0011
1000
0001
0100
1001
0000
0100
0000
,
1010
0001
0010
0100
0011
0000
1000
0000
,
0101
1000
0100
0010
1100
0000
0001
0000
,
1000
0001
0110
1000
0001
0000
1001
0000
,
0100
0100
0100
0100
0200
0000
0300
0000
,
0001
1000
0001
0100
0010
1000
0001
0010
0100
1000
0001
1000
,
0010
0100
0010
1000
0001
0010
0100
1000
0001
0100
0010
1000
,
0001
0010
0001
1000
0100
1000
0001
0100
0010
1000
0100
1000
,
0001
0010
0001
1000
0010
0100
0001
0000
1001
0000
0000
0000
,
1000
0000
0000
1010
0000
0000
0001
0010
0100
1000
0000
0001
,
0100
0000
0000
0101
0000
0000
1000
0100
0010
0001
0000
0000
,
1000
0000
0001
0100
0000
0001
0010
0000
0100
1000
0000
0010
,
1000
0100
1000
0001
0010
0001
1000
0000
1001
0000
0000
0000
,
0011
0000
0000
1100
0000
0000
0001
0010
0100
1000
0000
0001
,
0100
0000
0001
1000
0000
0001
0010
0000
0000
1001
0000
0000
,
1010
0000
0000
0101
0000
0000
1000
0010
0100
0001
0000
0010
,
0100
0000
1000
0001
0100
0001
1000
0000
0000
1001
0000
0000
,
1000
0010
0100
0001
0000
1000
0100
0000
1000
0001
0000
1000
,
0010
0000
0100
0001
1000
0100
0010
0000
0001
1000
0010
0100
,
0101
0000
0000
0001
0010
0100
1100
0000
0000
1000
0001
0010
,
0001
1000
0010
0100
0001
1000
2002
0000
0000
3003
0000
0000
,
1000
0001
1000
0010
0100
0001
1000
0100
1000
0001
0100
0010
,
0100
0000
0001
1000
0100
0010
0001
0000
1001
0000
0000
0000
,
0001
1000
0001
0010
0100
1000
0001
0100
0001
1000
0100
0010
,
0100
0000
1000
0001
0100
0010
1000
0000
1001
0000
0000
0000
,
0001
0000
0100
0010
1000
0001
0010
0000
0100
1000
0001
0100
,
0010
0100
0001
0010
0100
1000
0001
0100
0001
1000
0100
0010
,
0100
1000
0010
0100
0001
1000
0100
1000
0010
0100
0001
0010
,
0100
0000
1000
0001
0100
0010
1000
0000
1001
0000
0000
0000
,
0011
0000
1000
0001
1000
0100
0010
0001
1000
0010
1000
0001
,
0101
0000
1000
0100
0010
0001
1000
0010
1000
0001
0010
0100
,
1100
0000
1000
0001
0100
0010
1000
0001
0010
0100
1000
0001
,
1001
0000
1000
0010
0100
0001
0010
0100
1000
0000
0000
0000
,
1001
0000
0001
1000
0100
0010
0011
0000
1000
0001
0100
0010
,
1010
0000
1000
0001
0100
0010
1000
0001
0010
0000
0000
0000
,
0100
1000
0001
0100
0001
1000
0100
1000
0010
0100
0001
1000
,
0100
0000
0010
0000
0001
0000
0100
0000
0001
0000
0010
0000
0100
0000
1000
0000
0001
0000
1000
0000
0000
0001
0000
0000
,
1001
0000
0000
0000
,
0000
0000
0000
0000
,
0001
0001
1001
1000
0100
0010
0110
0001
,
0101
0100
0110
0010
1010
1000
0200
0000
,
0310
0001
0011
1000
0010
0100
1001
0000
,
0001
0010
0100
1000
0100
0010
0001
0000
,
1000
1000
1001
0001
0100
0010
0110
1000
,
1100
0100
0110
0010
0011
0001
0200
0000
,
0310
1000
1010
0001
0010
0100
1001
0110
,
1000
0010
0100
0001
0100
0010
1000
0001
,
1000
0001
1000
0001
0100
0000
0100
0000
0001
1000
0001
1000
0010
0000
0010
0000
,
1000
0100
0010
0001
0100
0001
0010
0100
1000
0010
0100
0001
0011
0000
0101
0000
,
0100
0001
0010
0000
0100
1000
0010
0000
0100
0001
1000
0001
0100
0000
0100
0000
,
0010
1000
0100
1000
0010
0100
0001
0010
0001
0100
0010
1000
1100
0000
1010
0000
,
2001
0000
3100
0000
1000
1000
1000
0000
,
1002
0000
0000
0000
0103
0000
0000
0000
0001
0000
0001
1000
0001
0000
0001
0000
,
0021
0000
0130
0000
1000
1000
1000
0000
,
1020
0000
0130
0000
0001
0001
1000
0100
,
0000
0000
0000
0000
,
0010
0000
0001
0100
0000
0001
0010
0100
1000
0010
0000
1000
,
0001
0010
0001
1000
0100
1000
0010
0000
0110
0000
0000
0000
,
0010
0000
1000
0100
0000
1000
0010
0100
0001
0010
0000
0001
,
1000
0010
1000
0001
0100
0001
0010
0000
0110
0000
0000
0000
,
1001
0000
1000
0010
0100
0001
0101
0000
0001
0010
0100
1000
,
1100
0000
0001
0100
0010
1000
0100
1000
0010
0100
0001
0010
,
0100
1000
0001
1000
0010
0100
0001
1000
0100
0010
0100
1000
,
0001
0100
0010
1000
0100
1000
0001
0000
1001
0000
0000
0000
,
1000
0001
0100
0010
1000
0001
0010
0001
0100
0010
1000
0001
,
0010
0001
1000
0010
0100
0001
0010
0100
1000
0000
0000
0000
,
0001
1000
0100
0010
0001
1000
0010
1000
0100
0010
0001
1000
,
0010
1000
0001
0010
0100
1000
0010
0100
0001
1000
0001
0010
,
0011
0000
1000
0001
1000
0010
1010
0000
1000
0010
0100
0001
,
0101
0000
0100
0010
1000
0001
0010
0000
1001
0000
0000
0000
,
1001
0001
1000
0010
0100
0001
0010
0001
1000
0010
0100
0001
,
1001
0000
1000
0000
0100
0000
0010
0000
0001
0000
0100
0000
0010
0000
1000
0000
0100
0000
1000
0000
0000
0001
0000
0000
,
1001
0000
0000
0000
,
0000
0000
0000
0000
;
#NOTES:
     dance-double:
     :
     Easy:
     6:
     :
00000000
00000000
00000000
00000000
,
00000000
00000000
00000000
00000000
,
00000000
00000000
00000000
00000000
,
00000000
00000000
00000000
00000000
,
00000000
00000000
00000000
00000000
,
00000000
00000000
00000000
00000000
,
00000000
00000000
00000000
00000000
,
00011000
00000000
00000000
00000000
,
00000000
00000000
00000000
00000000
,
00000000
00000000
00000000
00000000
,
00000000
00000000
00000000
00000000
,
00001000
00010000
00000010
00000000
,
00010000
00001000
00100000
00000000
,
00001000
00010000
00000010
00000000
,
00010000
00001000
00100000
00000000
,
00001000
00010000
00000100
00000000
,
00010000
00001000
01000000
00000000
,
00100000
01100000
10000000
00010000
,
20000000
00000000
00000000
30000000
,
00100000
00100000
01000000
01000000
,
00010000
00000000
10000000
00000000
,
00010000
00010000
00100000
00100000
,
00001000
00000000
00010000
00000000
,
00000100
00000100
00001000
00001000
,
00000001
00000000
00000100
00000000
,
00000001
00000001
00001000
00001000
,
00000010
00000010
00000100
00000100
,
00000001
00000010
00000100
00001000
,
00000100
00001000
00000001
00000000
,
00000010
00001000
00010000
00001000
,
00010000
00001000
00100000
00000000
,
00010000
00010000
00100000
01000000
,
10000000
10000000
00100000
00000000
,
01000000
00010000
00010000
00100000
,
01000000
10000000
10010000
00000000
,
10000000
01000000
00010000
00000000
,
01000000
00010000
00001000
00000000
,
00010000
00000100
00000010
00000001
,
00001000
00000010
00000110
00000000
,
00000001
00000100
00001000
00000000
,
00000100
00001000
00010000
00000000
,
00001000
01000000
00010000
00100000
,
01000000
10000000
10010000
00000000
,
10000000
10000000
01000000
01000000
,
00010000
00010000
00001000
00001000
,
00010000
00000010
00000100
00000001
,
00000010
00000001
00001001
00000000
,
00000001
00000001
00000100
00000100
,
00000010
00010000
00011000
00000000
,
00001000
00100000
01000000
10000000
,
00100000
10000000
00010000
01000000
,
01100000
00000000
00000000
00000000
,
00000000
00000000
00000000
00000000
,
10000000
00010000
01000000
00100000
,
00010000
00001000
00000100
00000010
,
00001000
00000001
00001000
00000100
,
00000010
00001000
00010000
01000000
,
00100000
00010000
10000000
00010000
,
01000000
00100000
00010000
00001000
,
00000100
00000001
00000001
00000010
,
00001000
01000000
00010000
00000000
,
00110000
00000000
00001000
00000000
,
00001000
00010000
00000100
00000010
,
00000011
00001100
00000001
00000100
,
00001000
00010000
01000000
10000000
,
10100000
00000000
00000000
00010000
,
00110000
00000000
00000000
00000000
,
00011000
00000000
00000000
00000010
,
00001010
00000000
00000000
00000000
,
00000000
00000000
00000000
00000000
,
00000001
00000001
00000010
00000100
,
00001000
00001000
00000010
00000000
,
00010000
00010000
00001000
00001000
,
00100000
00010000
01000000
00000000
,
00001000
00001000
00010000
00000100
,
00001000
00000100
00000010
00000010
,
00000001
00001000
00000010
00001000
,
00000100
00010000
00011000
00000000
,
00010000
00100000
10000000
00000000
,
10000000
01000000
00010000
00000000
,
00001000
01000000
00100000
00010000
,
00001000
00000100
00000010
00010000
,
00001000
00000010
00000001
00000000
,
00000001
00000100
00000010
00000000
,
00001000
00000100
00000010
00000001
,
00000100
00001000
00010000
00100000
,
10000000
00000000
00000000
00000000
,
00000000
00000000
00000000
00000000
;
#NOTES:
     dance-double:
     :
     Medium:
     11:
     :
00000000
00000000
00000000
00000000
,
00000000
00000000
00000000
00000000
,
00000000
00000000
00000000
00000000
,
00000000
00000000
00000000
00000000
,
00000000
00000000
00000000
00000000
,
00000000
00000000
00000000
00000000
,
00000000
00000000
00000000
00000000
,
00011000
00000000
00000000
00000000
,
00000000
00000000
00000000
00000000
,
00000000
00000000
00000000
00000000
,
00000000
00000000
00000000
00000000
,
00001000
00000000
00010000
00000100
00000010
00000000
00001000
00000000
,
00000010
00000000
00000001
00000010
00000100
00000000
00010000
00000000
,
00001000
00000000
00001000
01000000
00100000
00000000
00010000
00000000
,
00100000
00000000
10000000
01000000
00100000
00000000
00001000
00000000
,
00010000
00000000
00000010
00001000
00000100
00000000
00010000
00000000
,
00001000
00000000
00100000
00010000
01000000
00000000
00001000
00000000
,
00010000
00011000
00000000
00001000
,
00020000
00000000
00000000
00030000
,
00000010
00000010
00000100
00000100
,
00001000
00001000
00010000
00010000
,
01000000
01000000
10000000
10000000
,
00100000
00100000
01100000
00000000
,
00001000
00001000
00010000
00010000
,
01000000
01000000
00010000
00010000
,
00001000
00001000
00000010
00000010
,
00000100
00000100
00000110
00000000
,
00000001
00000000
00001000
00000000
00000001
00000001
00000100
00000100
,
00000010
00000000
00010000
00000000
00001000
00001000
00100000
00100000
,
00010000
00000000
01000000
00000000
00010000
00100000
01000000
00000000
,
10000000
00000000
00100000
10000000
00010000
00100000
00010000
00100000
,
01000000
00010000
00001000
00001000
,
00010000
00000000
00000010
00001000
00000001
00000010
00000001
00000010
,
00000100
00010000
00001000
00001000
,
00010000
00000000
00100000
10000000
00010000
00100000
00010000
00100000
,
01000000
01010000
00001000
01010000
,
10000000
00000000
00000000
01010000
00000000
00000000
00001000
00000000
00010000
00000000
00000000
00000000
,
00000010
00001010
00010000
00001010
,
00000001
00000000
00000000
00001010
00000000
00000000
00010000
00000000
00001000
00000000
00000000
00000000
,
00100000
00110000
00001000
00110000
,
10000000
00110000
00001000
00010000
,
00000100
00001100
00010000
00001100
,
00000001
00000000
00000000
00001100
00000000
00000000
00010000
00000000
00001000
00000000
00000000
00000000
,
00100000
00110000
10000000
01010000
,
00001000
00110000
10000000
01010000
,
00001000
00001010
00000001
00001100
,
00010000
00001010
00000001
00001100
,
00010000
00110000
10000000
01010000
,
00001000
00110000
10000000
01010000
,
00001000
00001010
00000001
00001100
,
00010000
00001010
00000001
00000100
,
00001001
00000000
00000000
00000000
,
00000000
00000000
00000000
00000000
,
00001000
00000000
00000000
00000000
00000010
00000000
00000000
00000000
00010000
00000000
00001000
00000000
00000000
00100000
00000000
00000000
,
01000000
00010000
00001000
00010000
00001000
00000100
00000001
00000000
,
00000100
00000000
00000000
00000000
00000010
00000000
00000000
00000000
00001000
00000000
00000100
00000000
00000000
00000010
00000000
00000000
,
00000001
00000100
00000001
00000100
00001000
00010000
01000000
00000000
,
00100000
00000000
00000000
00000000
00001000
00000000
00000000
00000000
00010000
00000000
00000100
00000000
00000000
00000010
00000000
00000000
,
00001000
00010000
00001000
00010000
00000100
00001000
00000010
00000000
,
00000100
00000000
00000001
00000000
00000010
00000000
00000000
00000000
00000100
00000000
00001000
00000000
00000000
00000010
00000000
00000000
,
00010000
00001000
00010000
00001000
00010000
00100000
01000000
00000000
,
00010000
00010000
00100000
00000000
00001000
00010000
00000100
00000100
,
00000000
00010000
00001000
00000100
00001000
00010000
00000100
00000100
,
00010000
00000000
00001000
00000000
00010000
01000000
10000000
00100000
,
10000000
01000000
00010000
00001000
00000100
00000001
00000010
00000100
,
00002100
00000010
00000100
00003010
,
00021000
00000100
00001000
00030100
,
00012000
00100000
00010000
00103000
,
00120000
01000000
00100000
01030000
,
00000000
00000000
00000000
00000000
,
00010000
01000000
00001000
00010000
,
00010000
00000000
00000010
00001000
00000001
00000010
00000001
00000010
,
00000100
00010000
00001000
01000000
,
01000000
00000000
00100000
10000000
00010000
00100000
00010000
00100000
,
01000000
00010000
00001000
00000100
,
00000100
00000000
00000010
00001000
00000001
00000010
00000001
00000010
,
00000100
00010000
00001000
00010000
,
00010000
00000000
00100000
10000000
00010000
00100000
00010000
00100000
,
01000000
10000000
01000000
00010000
,
00001000
00000000
00000000
00000100
00000000
00000000
00000001
00000000
00000010
00000000
00000000
00000000
,
00000001
00000100
00001000
00010000
,
01000000
00000000
00000000
10000000
00000000
00000000
00100000
00000000
01000000
00010000
00000000
01000000
,
00010000
00100000
00001000
00010000
,
00000010
00000000
00000000
00001000
00000000
00000000
00000100
00000000
00000010
00000000
00000000
00000000
,
00000001
00000001
00000100
00001000
,
00010000
00000000
00100000
10000000
00010000
00100000
00010000
00100000
,
01000000
00000000
00000000
00000000
,
00000000
00000000
00000000
00000000
;
#NOTES:
     dance-double:
     :
     Hard:
     15:
     :
00000000
00000000
00000000
00000000
,
00000000
00000000
00000000
00000000
,
00000000
00000000
00000000
00000000
,
00000000
00000000
00000000
00000000
,
00000000
00000000
00000000
00000000
,
00000000
00000000
00000000
00000000
,
00000000
00000000
00000000
00000000
,
00011000
00000000
00000000
00000000
,
00000000
00000000
00000000
00000000
,
00000000
00000000
00000000
00000000
,
00000000
00000000
00000000
00000000
,
00001000
00001000
00001000
00010000
00000100
00000000
00001100
00000000
,
00010000
00010000
00010000
00001000
00100000
00000000
00110000
00000000
,
00001000
00010000
00000100
00001000
00000010
00000000
00010000
00000000
,
00001000
01000000
00010000
00100000
00001000
00000000
00010000
00000000
,
00001000
00001000
00000100
00000010
00010000
00000000
00011000
00000000
,
00010000
00010000
01000000
00100000
00001000
00000000
00011000
00000000
,
00010000
00000010
00001000
00000000
00001000
00000000
00000001
00000000
,
00000010
00000010
00000010
00000010
00000020
00000000
00000030
00000000
,
00000001
00000100
00001000
00010000
00100000
00010000
00001000
00000100
,
00000010
00001000
00000010
00010000
00001000
00010000
00000100
00000010
,
00000001
00000100
00000001
00000100
00001000
00010000
00001000
00010000
,
01000000
10000000
00010000
01000000
00100000
00000000
10100000
00000000
,
10000000
00000000
00010000
00000000
01000000
00100000
00010000
00000000
,
00001000
00000000
00000010
00000000
00000001
00000010
00000100
00000000
,
00010000
00011000
00100000
00110000
,
00002000
00023000
00230000
02300000
,
03001000
00000000
00011000
00000000
00010000
00010000
00000100
00000100
,
00001000
00000000
00000010
00000100
00000001
00000000
00001000
00000000
,
00000011
00001100
00010000
01000000
,
10000000
00000000
00010000
00000000
01000000
00010000
10000000
00000000
01000000
00000000
00100000
00010000
00100000
00000000
01000000
00000000
,
00010000
00000000
00011000
00000000
00001000
00001000
01000000
01000000
,
00100000
00000000
00010000
00001000
00000010
00000000
00000100
00000000
,
00010000
00000010
00001010
00000000
00000001
00001000
00001010
00000000
,
00010010
00001001
00000220
00000330
,
00000001
00000000
00000001
00000100
00000000
00000100
00001000
00000000
00001000
00010000
00000000
00010000
,
00100000
00000000
00100000
01000000
00000000
01000000
00010000
00000000
10010000
00000000
00000000
00000000
,
10000000
00000000
10000000
01000000
00000000
01000000
00010000
00000000
00010000
00001000
00000000
00001000
,
00000010
00000000
00000010
00000100
00000000
00000100
00001000
00000000
00001001
00000000
00000000
00000000
,
00000001
00000000
00000001
00000100
00000000
00000100
00001000
00000000
00001000
00010000
00000000
00010000
,
00001000
00000000
00001000
00100000
00000000
00100000
00010000
00000000
00010000
01000000
00000000
01000000
,
00100000
00000000
00100000
10000000
00000000
10000000
01000000
00000000
01000000
00010000
00000000
00010000
,
00001000
00000000
00001000
00000010
00000000
00000010
00000001
00000000
00001001
00000000
00000000
00000000
,
00001000
00000000
00000001
00000100
00000000
00001000
00000100
00000000
00001000
00010000
00000000
00100000
,
10000000
00000000
00100000
00010000
00000000
00100000
00010000
00000000
00001000
00000100
00000000
00000001
,
00001000
00000000
00000001
00000010
00000000
00001000
00000010
00000000
00001000
00010000
00000000
01000000
,
10000000
00000000
00000000
00000000
01000000
00000000
00010000
00000000
00000000
00000000
01000000
00000000
00010000
00000000
00000000
00001000
00000000
00000000
00000010
00000000
00000000
00000001
00000000
00000000
,
00001000
00000000
00000001
00000100
00000000
00000010
00001000
00000000
00000100
00010000
00000000
00001000
,
00010000
00000000
00001000
01000000
00000000
01000000
00010000
00000000
00110000
00000000
00000000
00000000
,
10000000
00000000
01000000
00100000
00000000
00010000
01000000
00000000
00001000
00010000
00000000
00001000
,
00000010
00000000
00000000
00000000
00000100
00000000
00001000
00000000
00000000
00000000
00000010
00000000
00000100
00000000
00000000
00000000
00000100
00000000
00000001
00000000
00000000
00001000
00000000
00000000
,
00001001
00000000
00000000
00000000
,
00000000
00000000
00000000
00000000
,
00000001
00000000
00000000
00000000
00000001
00000000
00001000
00000000
00000010
00000000
00010000
00000000
00001000
00010000
00000000
00100000
,
01000000
00000000
00010000
00000000
00100000
00000000
10000000
00000000
00100000
00010000
00100000
00001000
00011000
00000000
00010000
00001000
,
00000100
00000000
00000010
00000000
00010000
00001000
00000010
00000000
00000100
00000000
00000001
00000000
00000100
00001000
00000010
00010000
,
00001000
00000000
00000100
00001000
00010000
01000000
10000000
00000000
00100000
00000000
00010000
00000000
00001000
00000000
00011000
00000000
,
00010000
00000000
00000100
00000000
00001100
00000000
00000000
00000000
00010000
00000000
00001000
00000000
00010000
00000010
00000000
00001000
,
00000100
00000000
00000001
00000100
00001000
00000100
00001000
00000100
00010000
00001000
00000010
00000001
00000100
00001000
00010000
00000000
,
00000100
00000000
00000010
00000000
00000011
00000000
00000001
00000000
00001000
00000000
00000010
00000000
00010000
00001000
00000000
00010000
,
00000100
00000010
00000001
00000100
00001000
00010000
00100000
10000000
,
00010000
00100000
01000000
10000000
01000000
00100000
00010000
00000000
00100000
00001000
00010000
00001000
00010000
00000100
00001000
00000000
,
00000010
00000000
00001000
00000000
00000001
00000100
00001000
00010000
00100000
01000000
00000000
10000000
01000000
00000000
00010000
00000000
,
10000000
01000000
00010000
00000000
01000000
00010000
00001000
00000000
00010000
00001000
00000010
00000001
00001000
00000000
00000100
00000000
,
00010000
00001000
00000100
00001000
00010000
00000100
00010000
00001000
00000100
00001000
00010000
00000100
00010000
00000000
00000000
00000000
,
00012000
00103000
00010000
01000000
,
01200000
00310000
00001000
00000010
,
00000021
00000130
00010000
00001000
,
00022000
00000000
00000000
00033000
,
00000000
00000000
00000000
00000000
,
00001000
00010000
00100000
01000000
00010000
10000000
01000000
00100000
,
00010000
00100000
00010000
00000000
00100000
01000000
10000000
00000000
00100000
00000000
00010000
00000000
00001000
00000000
00000000
00000000
,
00010000
00001000
00000010
00000100
00000001
00000100
00001000
00000010
,
00000100
00000001
00001000
00000000
00000100
00001000
00000001
00000000
00000100
00000000
00001000
00000000
00010000
00000000
00000000
00000000
,
00001000
00010000
01000000
00010000
00001000
01000000
00100000
00010000
,
00100000
10000000
01000000
00010000
00001000
00000010
00000001
00000001
,
00001000
00000000
00000001
00000010
00000100
00000000
00001000
00000100
00000010
00000000
00001000
00000000
00010000
00000000
00001000
00000000
,
01000000
00100000
10000000
00100000
00010000
00001000
00000100
00000001
,
00000010
00000000
00000001
00001000
00000000
00000010
00010000
00000000
00001000
01000000
00000000
00010000
,
10000000
01000000
00010000
00001000
00000010
00000100
00010000
00001000
,
01000000
00000000
00100000
10000000
00000000
00010000
01000000
00000000
00001000
00010000
00000000
00000100
,
00000010
00001000
00010000
01000000
10000000
00100000
00010000
00001000
,
00010000
00000000
00000100
00000010
00000000
00000001
00000010
00000000
00001000
00000010
00000000
00001000
,
00010000
00001000
01000000
00100000
10000000
00100000
00010000
00001000
,
00100000
00000000
00010000
00100000
00000000
01000000
10000000
00000000
01000000
00010000
00000000
00001000
,
00000010
00000001
00000100
00001000
00010000
00100000
10000000
01000000
,
00100000
00000000
00000000
00000000
,
00000000
00000000
00000000
00000000
;
#NOTES:
     dance-double:
     :
     Challenge:
     17:
     :
00000000
00000000
00000000
00000000
,
00000000
00000000
00000000
00000000
,
00000000
00000000
00000000
00000000
,
00000000
00000000
00000000
00000000
,
00000000
00000000
00000000
00000000
,
00000000
00000000
00000000
00000000
,
00000000
00000000
00000000
00000000
,
00011000
00000000
00000000
00000000
,
00000000
00000000
00000000
00000000
,
00000000
00000000
00000000
00000000
,
00000000
00000000
00000000
00000000
,
00001000
00001000
00010000
00000100
00001000
00000000
00001010
00000000
,
00010000
00010000
00001000
01000000
00010000
00000000
00110000
00000000
,
00001000
00010000
00000100
00001000
00000010
00000000
00000001
00000000
,
00000010
00001000
00000100
00010000
00001000
00000000
00011000
00000000
,
00010000
00001000
01000000
00010000
00100000
00000000
10000000
00000000
,
00100000
00010000
01000000
00001000
00010000
00000000
00011000
00000000
,
00100000
00110000
10000000
10010000
,
10000000
10000000
10000000
10000000
20000000
00000000
30000000
00000000
,
02000000
03020000
00032000
00023000
,
02030000
23000000
30200000
00320000
,
00032000
00023000
02030000
03020000
,
00032000
00003020
00000032
00000203
,
00000320
00000032
00000023
00020030
,
00032000
00003020
00002030
00023000
,
02030000
23000000
30200000
00320000
,
00032000
00023000
00030200
00000310
,
00000011
00000000
00001100
00000000
00000001
00000001
00000100
00000100
,
00001000
00001000
00010000
00010000
00100000
00100000
01000000
01000000
,
01001000
00000000
00110000
00000000
00010000
00010000
00100000
00100000
,
01000000
01000000
10000000
10000000
00100000
00100000
00010000
00010000
,
00011000
00000000
00010010
00000000
00001100
00000100
00000010
00000010
,
00000001
00000001
00001000
00001000
00000010
00000010
00010000
00010000
,
00011000
00000000
01001000
00000000
00110000
00100000
01000000
01000000
,
10000000
10000000
00100000
00100000
10010000
00000000
00000000
00000000
,
10000000
01000000
10000000
00010000
00100000
01000000
00100000
00010000
00100000
00001000
00010000
00001000
,
00010000
00000100
00001000
00000001
00000100
00000001
00000010
00000100
00001000
00000000
00000000
00000000
,
00000010
00010000
00001000
00010000
00000100
00001000
00000100
00010000
00001000
00100000
00010000
00100000
,
00001000
00010000
00001000
01000000
00010000
00100000
01000000
10000000
00010000
00000000
00000000
00000000
,
10000000
01000000
10000000
01000000
00010000
01000000
00010000
00001000
00010000
00001000
00000010
00001000
,
00000010
00000001
00000010
00000100
00001000
00000100
00001000
00000001
00000100
00000010
00000100
00000001
,
00001000
00000001
00001000
00000010
00010000
00000010
00010000
00001000
01000000
00001000
01000000
00010000
,
10000000
00010000
10000000
01000000
00100000
00010000
00100000
01000000
10000000
00000000
00000000
00000000
,
00010000
00000000
00000000
00000000
00000000
00000000
01000000
00000000
00000000
00100000
00000000
00000000
01000000
00000000
00000000
00000000
00000000
00000000
00010000
00000000
00000000
00000000
00000000
00000000
10000000
00000000
00000000
00000000
01000000
00000000
00000000
00000000
00100000
00000000
00000000
00000000
00010000
00000000
00000000
00000000
00100000
00000000
00000000
00000000
00001000
00000000
00000000
00000000
,
00010000
00001000
00000010
00000001
00000010
00000100
00001000
00000100
00001000
00000100
00000010
00000001
,
00001000
00000001
00000100
00000010
00001000
00000010
00010000
00001000
00010000
00100000
10000000
00100000
,
01000000
00010000
10000000
00010000
00100000
01000000
10000000
00010000
01000000
00000000
00000000
00000000
,
00001000
00010000
00001000
00010000
00001000
00010000
00100000
00010000
00100000
00010000
00100000
00010000
,
00100000
10000000
00100000
10000000
00100000
10000000
01000000
00100000
00010000
00000000
00000000
00000000
,
01000000
00001000
00010000
00001000
00000100
00000010
00001000
00000001
00000100
00000010
00001000
00000001
,
00000100
00001000
00010000
00100000
01000000
00010000
10000000
01000000
00100000
00000000
00000000
00000000
,
00110000
00000000
00000000
00000000
,
00000000
00000000
00000000
00000000
,
00001000
00000000
00010000
00000000
00011000
00000000
00001000
00000000
00000010
00000000
00000001
00000000
00000001
00000100
00000000
00001000
,
00010000
00000000
00000000
00000000
00001000
00000000
00000000
00000000
00100000
00000000
00000000
00000000
01000000
00000000
00000000
00000000
10000000
00000000
00100000
00000000
00010000
00000000
00001000
00000000
00010000
00001000
00010000
00000000
01000000
00000000
10000000
00000000
,
00010000
00100000
01000000
00010000
00000100
00001000
01000000
00010000
00001000
00000010
00000001
00000100
00001000
00010000
00000000
00010000
,
00001000
00000000
00000010
00000000
00001000
00000000
00010000
00000000
01000000
00000000
10000000
00000000
00010000
00000000
00000000
00000000
10000000
00010000
10000000
00010000
10000000
00000000
00100000
00000000
01000000
00000000
00000000
00000000
01010000
00000000
00000000
00000000
,
00010000
00000000
01000000
00100000
00010000
00000000
00000010
00000000
00001000
00000000
00100000
00000000
00010000
00001000
00000100
00000001
,
00000010
00000000
00000000
00000000
00000000
00000000
00000100
00000000
00001000
00000000
00000100
00000000
00000010
00000000
00000001
00000000
00001000
00000010
00001000
00000000
00000100
00000000
00000010
00001000
00000010
00000000
00001000
00000000
00010000
00000000
00000010
00000000
,
00001000
00000010
00010000
00001000
00000100
00010000
00000100
00001000
00010000
00001000
00010000
01000000
10000000
00100000
00010000
00000100
,
00001000
00000010
00000100
00000001
00001000
00010000
00001000
00000010
00010000
00001000
00010000
00000010
00001000
00000000
00001001
00000000
,
00000001
00000010
00000001
00000000
00000010
00000000
00000100
00000000
00001000
00000000
00000010
00000000
00010000
00000000
00000000
00000000
00000000
00000000
00001000
00000000
00001000
00000000
00010000
00000000
00100000
00000000
00000000
00000000
01100000
00000000
00000000
00000000
,
00001000
00000000
00010000
01000000
10000000
10000000
01000000
00010000
00001000
00000010
00000000
00000001
00000100
00000000
00001000
00000000
,
00010000
00001000
00000100
00000000
00000100
00001000
00010000
00000000
01000000
00010000
00001000
01000000
00010000
00000000
00100000
00000000
,
00010000
10000000
00010000
10000000
00010000
00100000
01000000
10000000
00010000
10000000
01010000
11000000
01010000
00000000
11000000
00000000
,
02010000
00010000
00100000
00000000
00100000
00001000
03001000
00000000
,
00012000
00000000
00100000
00000000
00100000
00000000
00000000
00000000
00010000
00000000
01000000
00000000
01003000
00000000
00001000
00010000
,
00021000
00000100
00000100
00000000
00001000
00000010
00030010
00000000
,
00001020
00001000
00000100
00000000
00000100
00010000
00010030
00000000
,
00000000
00000000
00000000
00000000
,
00011000
00000000
00010000
00001000
00100000
00010000
10000000
00010000
01000000
00100000
01000000
00010000
,
10000000
00000000
00010000
00000000
00100000
00000000
01000000
00000000
10000000
00000000
01000000
00000000
00100000
00000000
00010000
00000000
00100000
00000000
00001000
00000000
00000000
00010000
00000000
00000000
,
00011000
00000000
00001000
00010000
00000010
00001000
00000001
00001000
00000100
00000010
00000100
00001000
,
00000001
00000000
00001000
00000000
00000010
00000000
00000100
00000000
00000001
00000000
00000100
00000000
00000010
00000000
00001000
00000000
00000010
00000000
00010000
00000000
00000000
00001000
00000000
00000000
,
00010000
00001000
01000000
00010000
00100000
00010000
01000000
00001000
00010000
00001000
00100000
00010000
,
01000000
00010000
00100000
00001000
00010000
00001000
00010000
00000100
00001000
00000010
00001000
00000100
,
00010000
00001000
00010000
00000010
00001000
00000100
00001000
00000010
00010000
00001000
00010000
00000100
,
00001000
00000000
00000100
00000000
00000010
00000000
00000001
00000000
00001000
00000000
00000010
00000000
00000100
00000000
00000001
00000000
00000010
00000000
00000100
00000000
00000000
00010000
00000000
00000000
,
00001000
00000000
00000000
00000000
00000000
00000000
00010000
00000000
00000000
00001000
00000000
00000000
00010000
00000000
00000000
00000000
00000000
00000000
00001000
00000000
00000000
00000000
00000000
00000000
01000000
00000000
00000000
00000000
00010000
00000000
00000000
00000000
00100000
00000000
00000000
00000000
01000000
00000000
00000000
00000000
10000000
00000000
00000000
00000000
01000000
00000000
00000000
00000000
,
00100000
00000000
00010000
00000000
00100000
00000000
00001000
00000000
00010000
00000000
00001000
00000000
00010000
00000000
00000100
00000000
00000010
00000000
00000001
00000000
00000000
00001000
00000000
00000000
,
00000001
00000100
00000001
00000100
00000001
00000100
00001000
00000100
00001000
00000100
00001000
00000100
,
00001000
00010000
00001000
00010000
00001000
00010000
00100000
00010000
00100000
00010000
00100000
00010000
,
00100000
10000000
00100000
10000000
00100000
10000000
01000000
00010000
01000000
00010000
01000000
00010000
,
00001000
00000000
00000010
00000000
00001000
00000000
00000010
00000000
00001000
00000000
00000010
00000000
00000001
00000000
00000010
00000000
00000100
00000000
00001000
00000000
00000000
00000010
00000000
00000000
,
00010000
00001000
00010000
00100000
10000000
00010000
10000000
00010000
10000000
01000000
00010000
00001000
,
00000010
00000000
00000001
00000000
00001000
00000000
00000001
00000000
00001000
00000000
00000001
00000000
00000100
00000000
00001000
00000000
00010000
00000000
00100000
00000000
00000000
01000000
00000000
00000000
,
11000000
00000000
00000000
00000000
,
00000000
00000000
00000000
00000000
;
