
//----- song ID: sazu -----//
#TITLE:逆月;
#ARTIST:BEMANI Sound Team "HuΣeR" feat.Fernweh;
#TITLETRANSLIT:Sakazuki;
#MUSIC:Sakazuki.ogg;
#BANNER:Sakazuki.png;
#BACKGROUND:Sakazuki-bg.png;
#CDTITLE:./CDTitles/SDVX IV HEAVENLY HAVEN.png;
#SAMPLESTART:44.154;
#SAMPLELENGTH:15;
#BPMS:0=140,72=280,136=140,168=280,296=140,328=280;
#BGSTAGE:3;
#NOTES:
     dance-single:
     :
     Beginner:
     4:
     :
0000
0000
0000
0000
,
0000
0000
0000
0000
,
0000
0000
0000
0000
,
0000
0000
0000
0000
,
0000
0000
0000
0000
,
0000
0000
0000
0000
,
1000
0000
1000
0000
,
0010
0000
0000
0000
,
0010
0000
0010
0000
,
0001
0000
0000
0000
,
1001
0000
0000
0000
,
0000
0000
0000
0000
,
0110
0000
0000
0000
,
0000
0000
0000
0000
,
0001
0000
0001
0000
,
0010
0000
0000
0000
,
0010
0000
0010
0000
,
1000
0000
0000
0000
,
1000
0000
0000
0000
,
0000
0000
0000
0000
,
0010
0000
0000
0000
,
0000
0000
0000
0000
,
0010
0000
0000
0000
,
0000
0000
0000
0000
,
0001
0000
0000
0000
,
0000
0000
0000
0000
,
0001
0000
0000
0000
,
0000
0000
0000
0000
,
0100
0000
0000
0000
,
0000
0000
0000
0000
,
0100
0000
0000
0000
,
0000
0000
0000
0000
,
1000
0000
0000
0000
,
0000
0000
0000
0000
,
1000
0000
0000
0000
,
1000
0000
1000
0000
,
0010
0000
0000
0000
,
0100
0000
0010
0000
,
0010
0000
0000
0000
,
0010
0000
0010
0000
,
0001
0000
0000
0000
,
1001
0000
0000
0000
,
0001
0000
0000
0000
,
0000
0000
0000
0000
,
0001
0000
0000
0000
,
0001
0000
0000
0000
,
0010
0000
0000
0000
,
0000
0000
0000
0000
,
0100
0000
0000
0000
,
0010
0000
0000
0000
,
0010
0000
0000
0000
,
0000
0000
0000
0000
,
0010
0000
0000
0000
,
0010
0000
0000
0000
,
1000
0000
0000
0000
,
0000
0000
0000
0000
,
1000
0000
0000
0000
,
1000
0000
0000
0000
,
1001
0000
0000
0000
,
0000
0000
0000
0000
,
1000
0000
0000
0000
,
1000
0000
0000
0000
,
0100
0000
0000
0000
,
0000
0000
0000
0000
,
0010
0000
0000
0000
,
0000
0000
0000
0000
,
0010
0000
0000
0000
,
0010
0000
0000
0000
,
0001
0000
0000
0000
,
0000
0000
0000
0000
,
0001
0000
0000
0000
,
0001
0000
0000
0000
,
0010
0000
0000
0000
,
0000
0000
0000
0000
,
0020
0000
0000
0000
,
0030
0000
0000
0000
,
0010
0000
0000
0000
,
0010
0000
0000
0000
,
2000
0000
0000
0000
,
3000
0000
0000
0000
,
1000
0000
0000
0000
,
1000
0000
0000
0000
,
1000
0000
0000
0000
,
0000
0000
0000
0000
,
0010
0000
0000
0000
,
1000
0000
0000
0000
,
0010
0000
0000
0000
,
0000
0000
0000
0000
,
0010
0000
0000
0000
,
0010
0000
0000
0000
,
0001
0000
0000
0000
,
0000
0000
0000
0000
,
0001
0000
0000
0000
,
0100
0000
0000
0000
,
0001
0000
0000
0000
,
0000
0000
0000
0000
,
0001
0000
0000
0000
,
0001
0000
0000
0000
,
0010
0000
0000
0000
,
0000
0000
0000
0000
,
0010
0000
0000
0000
,
0010
0000
0000
0000
,
1000
0000
0000
0000
,
0000
0000
0000
0000
,
1000
0000
0000
0000
,
1000
0000
0000
0000
,
1001
0000
0000
0000
,
0000
0000
0000
0000
;
#NOTES:
     dance-single:
     :
     Easy:
     9:
     :
0000
0000
0000
0000
,
0000
0000
0000
0000
,
0000
0000
0000
0000
,
0000
0000
0000
0000
,
0000
0000
0000
0000
,
0000
0000
0000
0000
,
2000
3010
0020
0130
,
0101
0000
0001
0100
0010
0000
1000
0000
,
0002
1003
2000
3001
,
2002
0000
0000
3003
,
0220
0000
0000
0000
,
0000
0000
0000
0330
,
2002
0000
0000
0000
,
0000
0000
0000
3003
,
0001
0000
0011
0000
0010
0001
0010
0000
,
0001
0000
0101
0000
0100
0001
0100
0000
,
0010
0000
1010
0000
1000
0010
1000
0000
,
0100
1000
2200
3300
,
1000
0000
0100
0000
,
1000
0000
0100
0010
,
0001
0000
1000
0000
,
0001
0100
0001
0000
,
1000
0000
0001
0000
,
0010
0000
0100
1000
,
0100
0000
1000
0010
,
2000
0000
3000
0000
,
1000
0000
0001
0000
,
0100
0000
0010
0100
,
0010
0000
1000
0000
,
0001
0010
0100
0000
,
1000
0000
0001
0000
,
0100
0000
0010
1000
,
0001
0000
0100
0010
,
0100
0000
0000
0000
,
2002
0000
0000
3003
,
0220
0000
0000
0330
,
0001
0100
0001
0000
0100
0010
0100
0000
,
0010
1000
0010
0000
1000
0000
0000
0000
,
2002
0000
0000
3003
,
0220
0000
0000
0000
0330
0000
1000
0100
,
1000
0000
0100
0010
0100
0000
0010
0001
,
0020
0000
0000
0030
,
0001
0100
0001
0000
,
1000
0100
0010
0100
,
1000
0000
1000
0100
,
0010
0000
0011
0000
,
0001
1000
0001
0000
,
0001
0100
0001
0000
,
0001
0010
0001
0010
,
0002
0000
0003
0000
,
1000
0100
1000
0000
,
0001
0100
0010
0100
,
0001
0000
0001
0100
,
0010
0000
1010
0000
,
1001
0000
1000
0001
,
1000
0000
1000
0100
,
2000
0000
0000
0000
,
0000
0000
3000
0000
,
2002
0000
0000
0000
,
0000
0000
3003
0000
,
0001
0000
0010
0000
,
0100
1000
0100
0000
,
1000
0000
0001
0000
,
0100
0010
0100
0000
,
0001
0000
1000
0000
,
2002
0000
3003
0000
,
0001
0000
0001
0000
,
0100
0001
0100
0000
,
0010
0000
0010
0000
,
1000
0010
1000
0000
,
0001
0000
0010
0000
,
0100
1000
0001
0000
,
0100
0000
0010
0000
,
2002
0000
3003
0000
,
2000
0000
3010
0000
,
0020
0000
0130
0000
,
0100
0100
0001
0001
,
0010
0001
0010
0000
0001
0000
0000
0000
,
0002
0000
0013
0000
,
0020
0000
0130
0000
,
0100
0000
1000
0010
1000
0000
0001
1000
,
0002
0000
0000
0003
,
1000
0000
0100
0000
,
0001
0100
1000
0000
,
0001
0000
0100
0010
,
1000
0000
1001
0000
,
0001
0000
0110
0000
,
0100
0000
1001
0000
,
1000
0010
0100
0001
,
2000
0000
3000
0000
,
0001
0000
0100
0000
,
1000
0100
0001
0000
,
1000
0000
0100
0010
,
0001
0000
1001
0000
,
1000
0000
0110
0000
,
0100
0000
1001
0000
,
0001
1000
0001
1000
,
0002
0000
0003
0000
,
1000
0100
0010
0000
,
0002
0000
0003
0000
,
0001
0100
0010
0000
,
2000
0000
3000
0000
,
0001
0010
0001
0000
,
1000
0100
1000
0000
,
0001
1000
0001
1000
,
0001
0000
2002
0000
,
3003
0000
0000
0000
,
0000
0000
0000
0000
;
#NOTES:
     dance-single:
     :
     Medium:
     13:
     :
0000
0000
0000
0000
,
0000
0000
0000
0000
,
0000
0000
0000
0000
,
0000
0000
0000
0000
,
0000
0000
0000
0000
,
0000
0000
0000
0000
0000
0000
1000
0001
,
2000
0000
3200
0000
0310
0001
0010
0001
,
1000
0000
0001
0100
1000
0100
0001
0000
,
2000
0000
3010
0010
0200
0000
0301
0001
,
2000
0000
0000
3000
,
0001
0000
0000
0002
0000
0000
0000
0000
0000
0000
0000
0000
0000
0000
0000
0000
,
0000
0000
0000
0000
0000
0000
0000
0000
0003
0000
0010
0000
0000
0010
0000
0000
,
0100
0000
0000
0200
0000
0000
0000
0000
0000
0000
0000
0000
0300
0000
0000
0000
,
1000
0100
1000
0000
0001
0100
0001
0000
,
1000
0000
0000
1000
0000
0000
0010
0000
0000
0010
0000
0000
0110
0000
0000
0000
,
0001
0000
0000
0001
0000
0000
0010
0000
0000
0010
0000
0000
0110
0000
0000
0000
,
1000
0000
0000
1100
0000
0000
0100
0000
0000
0110
0000
0000
0010
0000
0001
0000
,
0010
0000
0000
0001
0000
0000
1000
0000
0002
0000
0000
0000
0003
0000
0000
0000
,
1000
0100
0001
0100
,
1000
0000
0100
0000
0010
0000
0001
1000
,
0001
0100
1000
0100
,
0001
0000
0100
0000
0010
0100
0010
0000
,
1000
0010
0100
0010
,
1000
0100
0010
0001
,
1000
0100
1000
0000
0100
0000
0001
0000
,
0200
0000
0310
0000
,
0001
0100
1000
0100
,
0001
0000
0100
0000
0010
0000
1000
0001
,
1000
0100
0001
0100
,
1000
0000
0100
0000
0010
0100
0010
0000
,
0001
0010
0100
0010
,
0001
0100
0010
1000
,
0001
0100
0001
0000
0100
0000
1000
0000
,
0200
0000
0310
1000
,
2000
0000
3100
0000
0020
0000
0031
1000
,
0001
0000
0001
0100
1000
0100
0001
0000
,
1000
1010
0010
0110
,
0100
0001
1000
0001
2000
0000
3000
0000
,
0002
0000
0013
0000
0200
0000
1300
0001
,
1000
0000
1000
0010
0001
0010
1000
0000
,
0001
0101
0100
0110
,
2002
0000
0000
3003
,
1000
0100
0010
0001
,
1000
0000
0100
0000
0010
0000
0001
1000
,
0001
0100
0010
1000
,
0010
0000
0100
0000
0001
1000
0001
0000
,
1000
0100
0011
0000
,
0001
0100
1010
0000
,
1000
0001
0100
0000
0010
0000
1000
0010
,
1000
0100
0020
0000
,
0031
0010
0100
1000
,
0001
0000
0010
0000
0100
0000
1000
0001
,
1000
0010
0100
0001
,
0100
0000
0010
0000
1000
0001
1000
0000
,
0001
0010
0100
1100
,
1000
0010
0100
0101
,
0001
1000
0010
0000
0100
0000
0001
1000
,
0002
0000
1003
0000
,
0001
0000
0000
0011
0000
0000
0001
0000
,
0000
0101
0000
0000
0100
0000
0010
1000
,
0010
0000
0000
1010
0000
0000
1000
0000
,
0000
1100
0000
0000
0100
0000
1000
0000
,
0001
0100
0001
0000
0010
0000
0100
0000
,
1000
0001
1000
0000
0001
0000
0010
0000
,
1000
0000
0000
0010
0000
0000
0001
0000
,
2000
0000
3001
0000
,
1000
0100
1000
1010
,
0010
0100
0001
0101
,
0100
0010
1000
0001
,
0010
0100
0010
0000
0001
0000
0000
0000
,
2000
0000
3100
0010
0001
0000
0100
0010
,
1000
0001
0100
0001
,
1000
0100
1000
0000
0010
0000
0100
0000
,
2002
0000
3003
0000
,
2000
0000
3200
0000
,
0320
0000
0032
0000
,
2003
3100
0200
0310
,
0010
0001
1000
0001
0020
0000
0030
0000
,
0002
0000
0203
0000
,
0320
0000
2030
0000
,
3002
0000
0103
0100
0200
0000
0010
0010
,
0020
0000
0000
0330
,
1000
0010
0001
0010
,
1000
0000
0010
0000
0001
0000
0010
1000
,
0010
1000
0100
0001
,
0100
0000
1000
0000
0001
0100
0001
0000
,
1000
0100
1001
0000
,
0001
0100
1001
0000
,
1000
0010
0110
0100
,
1001
0000
0001
0010
,
0100
1000
0010
1000
,
0100
0000
0010
0000
0001
0000
0100
0010
,
1000
0001
0100
1000
,
0100
0000
0001
0000
1000
0010
1000
0000
,
0002
0000
0000
0000
0103
0010
1000
0000
,
0200
0000
0000
0000
1300
0010
0100
0000
,
0002
0000
0000
0000
,
0000
0000
0003
0000
,
0001
0000
0100
0001
0000
0000
1000
0000
,
0010
1000
0000
0000
0100
0000
0110
0000
,
1000
0000
0100
1000
0000
0000
0001
0000
,
0010
0001
0000
0000
0100
0000
0110
0000
,
1000
0000
0001
0100
0000
0000
0010
0000
,
1000
0100
0000
0000
0010
0000
0001
1000
,
0001
0000
0100
0010
1000
0000
0100
0010
,
0001
1000
0100
0220
,
0330
0000
0000
0000
,
0000
0000
0000
0000
;
#NOTES:
     dance-single:
     :
     Hard:
     16:
     :
0000
0000
0000
0000
,
0000
0000
0000
0000
,
0000
0000
0000
0000
,
0000
0000
0000
0000
,
0000
0000
0000
0000
,
0000
0000
0000
0000
0000
0000
1000
0100
,
0002
0000
0000
0000
0203
0000
0000
0000
1300
0000
0001
0000
0100
0000
0001
1000
,
0010
0000
0010
0010
1000
1000
0001
0001
,
0200
0000
1300
0100
0002
0000
1003
0100
,
0002
0000
0000
0003
,
0110
0000
0000
2002
0000
0000
0000
0000
0000
0000
0000
0000
0000
0000
0000
0000
,
0000
0000
0000
0000
0000
0000
0000
0000
3003
0000
1010
0000
0000
0110
0000
0000
,
0101
0000
0000
2002
0000
0000
0000
0000
0000
0000
0000
0000
3003
0000
0000
0000
,
2010
3100
0012
0103
,
0001
0100
0000
0001
0100
0000
0010
1000
0000
0010
1000
0000
0001
0000
0000
0000
,
1000
0100
0000
1000
0100
0000
0010
0001
0000
0010
0001
0000
1000
0000
0000
0000
,
0001
0100
0000
0100
0010
0000
0010
1000
0000
1000
0001
0000
1000
0000
0000
0000
,
0002
0000
0000
0010
0000
0000
1000
0000
0200
0000
0000
0000
0303
0000
0000
0000
,
1000
0010
1000
0000
1000
0001
1000
0000
,
1000
0100
1000
0000
1000
0100
0010
0001
,
0100
0010
0100
0000
0100
1000
0100
0000
,
0100
0001
0100
0000
0001
0010
0100
1000
,
0001
0010
0001
0000
0001
1000
0001
0000
,
0001
0100
0001
0000
0001
0100
0010
1000
,
0100
0010
0100
0000
0110
0000
0010
0001
,
0200
2300
3002
0023
,
0130
0001
0100
0000
0100
1000
0100
0000
,
0100
0001
0100
0000
0001
0010
0100
1000
,
0010
1000
0010
0000
0010
0001
0010
0000
,
0010
1000
0010
0000
1000
0100
0010
0001
,
0100
0010
1000
0000
0100
0010
0001
0000
,
0010
0100
1000
0000
0010
0100
0001
0000
,
1000
0100
0010
0001
0100
0010
1000
0001
,
2000
0000
3000
0000
,
2000
0000
0000
0000
3200
0000
0000
0000
0301
0000
0100
0000
1000
0000
0001
0010
,
0100
0000
1000
1000
0010
0010
0100
0100
,
0001
0010
1100
0000
1000
0010
0101
0000
,
0001
1000
0110
0010
1001
0000
0001
1000
,
0002
0000
0000
0000
0023
0000
0000
0000
1030
0000
0010
0000
0001
0000
1000
0100
,
0010
0000
0001
0001
0100
0100
0010
0010
,
2000
0000
3100
0001
2000
0000
3010
0001
,
2000
0000
0000
3000
,
1000
1100
0001
0011
,
1000
0000
1010
0000
0001
0000
0100
0001
,
0010
0110
0100
0110
,
0001
0000
1001
0000
0001
0010
0100
1000
,
0001
0101
0100
0110
,
1000
1100
0100
0110
,
0001
0010
0100
0000
0110
0000
0100
1000
,
0001
0100
0001
0000
1000
0100
1000
0000
,
0001
0011
1000
1100
,
0001
0000
0101
0000
1000
0000
0010
1000
,
0100
0110
0010
0110
,
1000
0000
1001
0000
1000
0100
0010
0001
,
1000
1010
0010
0110
,
0001
0011
0010
0110
,
1000
0100
0010
0000
0110
0000
0010
0001
,
2000
0000
0000
0000
3001
0100
0010
1000
,
0010
0000
0000
1010
0000
0000
0010
0000
,
0000
0011
0000
0000
1000
0010
0100
0001
,
0100
0000
0000
0101
0000
0000
0100
0000
,
0000
1100
0000
0000
1001
0000
0001
0010
,
0100
1000
0001
1000
0010
1000
0001
0000
,
0010
0001
1000
0001
0100
0001
1000
0000
,
0010
0000
1000
0100
0000
0100
0010
0000
,
0002
1000
1000
1003
,
1000
0100
1000
0100
0001
1000
0001
1000
,
0010
0001
0010
0001
1000
0100
0010
0000
,
0001
0100
0001
0100
1000
0001
1000
0001
,
0010
1000
0010
1000
0001
0100
0010
0000
,
1000
0010
0100
0001
0010
0100
1000
0001
,
0100
0010
1000
0010
0100
0001
0010
0100
,
1000
0001
1000
0000
0110
0000
0001
1000
,
0002
0000
0003
0000
,
0002
0000
0000
0000
0023
0000
0000
0000
0130
0000
1000
0000
0001
0000
0100
0010
,
1000
0000
1000
0010
0001
0010
1000
0100
,
0020
0001
0130
0000
2000
0001
3100
0000
,
2000
3020
0230
0302
1003
0000
1000
0010
,
2000
0000
0000
0000
3200
0000
0000
0000
0310
0000
0001
0000
1000
0000
0010
0100
,
0001
0000
0001
0100
1000
0100
0001
0010
,
0002
0000
1003
0010
0002
0000
1003
0100
,
0002
0000
0000
0003
,
0001
0100
0010
0000
1000
0100
0010
0000
,
0001
0010
1000
0000
0010
0001
1000
0100
,
0010
0000
0011
0000
0001
1000
0100
1000
,
0020
0000
0230
0000
0301
0100
1000
0100
,
0001
0000
0011
0000
0010
0100
1000
0010
,
0100
0000
0110
0000
0010
0100
0010
1000
,
0001
0100
1000
0000
1100
0000
1000
0100
,
0001
0010
0001
0000
1000
0010
1000
0000
,
0001
0100
0010
0100
1000
0100
0010
0000
,
1000
0100
0010
0100
0001
0100
0010
0000
,
0001
1000
0010
0000
0100
0001
1000
0000
,
0001
0100
0001
0100
1000
0100
1000
0100
,
0001
0000
0001
0010
0100
1000
0001
0000
,
1000
0000
1000
0010
0100
0001
1000
0000
,
0001
0010
1000
0000
1000
0000
1000
0010
,
0001
1000
0001
1000
0002
0000
0003
0000
,
0001
0010
0000
0010
1000
0000
1000
0100
,
0000
0100
0001
0000
1000
0001
0100
0010
,
1000
0010
0000
0010
0001
0000
0001
0100
,
0000
0100
1000
0000
0001
1000
0100
0010
,
0001
0100
0000
0100
1000
0000
1000
0010
,
0000
0010
0001
0000
0011
0000
1100
0000
,
1000
0100
0001
0100
1000
0010
0001
0010
,
1000
0001
1000
0001
1000
0000
0200
0020
,
0330
0000
0000
0000
,
0000
0000
0000
0000
;
#NOTES:
     dance-single:
     :
     Challenge:
     18:
     :
0000
0000
0000
0000
,
0000
0000
0000
0000
,
0000
0000
0000
0000
,
0000
0000
0000
0000
,
0000
0000
0000
0000
,
0000
0000
0000
0000
0000
0000
0001
0100
,
0020
0000
1000
0000
0230
0000
0001
0000
0310
0000
1010
0000
1100
0000
0100
0010
,
0001
0000
0002
0023
2030
3002
0203
2300
,
3002
0003
0001
1000
0002
0003
0001
1000
,
0002
0000
0000
0003
,
1001
0000
0000
2002
0000
0000
0000
0000
0000
0000
0000
0000
0000
0000
0000
0000
,
0000
0000
0000
0000
0000
0000
0000
0000
3003
0000
0110
0000
0000
0110
0000
0000
,
1001
0000
0000
2002
0000
0000
0000
0000
0000
0000
0000
0000
3003
0000
0000
0000
,
2010
3002
1003
0000
0012
2003
3001
0000
,
0001
0011
0000
0001
0101
0000
0001
0011
0000
0001
0101
0000
0100
0000
0110
0000
,
1000
1010
0000
1000
1100
0000
1000
1010
0000
1000
1100
0000
0100
0000
0110
0010
,
0001
0101
0000
1000
1100
0000
0001
0011
0000
1000
1010
0000
0001
0010
0100
1000
,
0001
0000
0000
1000
0000
0000
0001
0000
2002
0000
0000
0000
3003
0000
0000
0000
,
1001
1000
0100
0010
0001
0100
0010
1000
,
1001
0001
0100
1000
0100
0001
1000
1000
,
1001
0001
0010
0100
1000
0010
0100
0001
,
1001
1000
0010
0100
0001
0001
1000
1000
,
1001
0001
0010
0100
1000
0100
0010
0001
,
1001
1000
0010
0100
0001
0100
0010
1000
,
0001
0001
1001
0000
0110
0000
0001
1000
,
0001
0100
0001
0100
0001
0000
1000
0000
0010
1000
0010
0000
0100
0000
0001
0000
,
1001
1000
0010
0100
0001
0010
0100
1000
,
1001
0001
0010
1000
0010
0001
1000
1000
,
1001
0001
0100
0010
1000
0100
0010
0001
,
1001
1000
0100
0010
0001
0001
1000
1000
,
1001
0001
0100
0010
1000
0010
0100
0001
,
1001
1000
0100
0010
0001
0010
0100
1000
,
0001
0001
1001
0000
0110
0000
0001
1000
,
0002
0000
1003
0100
,
0002
0000
0000
0000
2003
0000
0000
0000
3010
0000
0011
0000
0101
0000
0100
0010
,
2000
0010
3002
0100
1003
1010
0110
0101
,
0001
0100
0010
0100
0002
0000
0003
0000
1000
0100
0010
0100
2000
0000
3000
0000
,
0001
0010
0100
1000
1010
0000
0110
0000
0101
0000
0000
0000
0001
0000
1000
0000
,
0001
0000
0100
0010
1000
0000
0100
0010
0001
0000
1000
0100
0010
0000
0001
0100
,
1000
0000
0001
0010
1000
0000
0100
0010
0001
0000
0011
0000
0110
0000
1100
0000
,
0001
0010
0100
1000
0001
0000
0001
0000
0001
0010
0100
1000
0001
0000
0001
0000
,
0001
0010
0100
1000
0001
0010
0100
1000
0001
0000
0001
0000
0002
0000
0003
0000
,
0011
0101
1100
0101
,
0011
0000
0110
0000
1100
0000
1000
0010
,
1010
0011
1010
1100
,
0011
0000
0101
0000
0100
0100
0010
0010
,
1010
0000
1100
0000
0101
0000
0100
0010
,
0011
0000
0101
0000
0110
0000
0010
1000
,
0010
0010
0010
0000
1010
0000
1100
0100
,
0010
0001
0010
0001
0010
0000
0001
0000
1000
0100
1000
0000
0100
0000
1000
0000
,
0001
0010
0001
0010
0001
0010
0100
1000
0100
1000
0100
1000
,
0001
0100
0001
0100
0001
0100
0010
1000
0010
1000
0010
1000
,
0001
0100
0010
0100
0010
1000
0001
0010
0100
0010
0100
1000
,
0001
0000
0010
0000
0100
0000
1000
0000
0100
0000
0010
0000
0001
0000
0000
0001
0000
0000
1000
0000
0000
1000
0000
0000
,
0010
1000
0010
0100
0001
1000
0100
0010
0001
0010
0100
1000
,
0001
0100
0001
1000
0100
1000
0001
0010
0001
1000
0010
1000
,
0010
0100
0010
0000
0110
0000
1000
0001
,
1000
0001
1000
0001
1000
0000
0100
0000
0020
0000
0000
0000
0030
0000
0000
0000
,
0001
0000
0000
0011
0000
0000
0001
0000
,
0000
1001
0000
0000
0001
0100
0010
1000
,
1000
0000
0000
1010
0000
0000
1000
0000
,
0000
1001
0000
0000
1000
0000
0100
0010
,
0001
0100
0010
1000
0010
0100
0001
1000
,
0010
1000
0100
0010
0001
0100
0010
1000
,
0100
0000
0000
0110
0000
0000
0011
0000
,
2000
0001
0001
3001
,
1000
0100
1000
0100
0001
0100
0001
0100
,
0001
1000
0001
1000
0010
1000
0010
1000
,
0010
0001
0010
0001
1000
0001
1000
0001
,
1000
0010
0100
0001
0100
0010
2000
0000
0000
3001
0000
0000
,
1001
0000
0000
1000
0100
1000
0001
1000
0100
1000
0001
1000
,
0100
0000
0010
0000
0001
0000
0010
0000
0100
0000
0010
0000
0001
0000
0000
0000
0000
0000
1000
0000
0000
0001
0000
0000
,
0100
0100
0110
0000
1001
0000
0001
0010
,
0100
1000
0100
1000
0100
0000
0010
0000
0001
1000
0001
1000
0001
0000
0100
0000
,
0020
0000
0000
0000
1000
0000
0000
0000
0230
0000
0001
0000
0320
0000
1030
0100
,
0010
0000
0011
0001
1001
1000
1100
0100
,
2000
0010
0002
3003
0002
0010
2000
3003
,
1000
0010
0001
0100
1000
0000
0010
0100
,
0010
0000
0000
0000
1001
0000
0000
0000
1000
0000
0100
0000
0001
0000
1000
0010
,
0001
0000
0001
0100
1000
0001
0010
1000
,
1000
0010
0100
0001
1000
0000
1000
0000
1000
0010
0100
0001
1000
0000
1000
0000
,
1000
0010
0100
0001
1000
0010
0100
0001
1000
0000
1000
0000
2000
0000
3000
0000
,
1010
0110
1010
1001
,
0011
0000
0110
0000
0011
0000
0001
1000
,
1001
0110
1001
1010
,
1100
0000
0110
0000
0010
0010
0001
0001
,
0011
0000
1100
0000
0100
0100
1000
1000
,
1100
0000
0011
0000
0010
0010
0001
0001
,
1000
0010
0110
0000
1001
0000
0001
0100
,
0010
0100
0010
0100
0010
0000
1000
0000
0001
1000
0001
0000
0010
0000
0100
0000
,
1000
0001
0100
0010
1000
0100
0010
0001
1000
0001
0010
0100
,
1000
0001
0100
0001
1000
0100
0010
0001
1000
0010
0100
0001
,
1000
0010
1000
0100
1000
0010
0100
0001
0010
0001
0100
0001
,
0010
0000
0100
0000
1000
0000
0010
0000
0100
0000
0001
0000
1000
0000
0000
1000
0000
0000
0001
0000
0000
0001
0000
0000
,
1000
0010
0100
0001
0010
0100
1000
0100
0010
0001
0100
0010
,
1000
0001
0100
0010
1000
0001
0010
0100
1000
0001
0100
0010
,
1000
0100
0001
0000
1001
0000
1000
0010
,
0001
1000
0001
1000
0001
0000
1000
0000
0002
0000
0000
0000
0003
0000
0000
0000
,
0011
0000
0010
1010
0000
0010
0011
0000
,
0010
1010
0000
0010
0011
0000
0110
0000
,
0110
0000
0100
0101
0000
0100
1100
0000
,
0100
0101
0000
0100
1100
0000
0110
0000
,
1001
1000
0010
0100
0001
1000
1100
0100
,
0010
0001
0100
0001
0011
0000
1100
0000
,
1000
0100
0010
0001
0100
0010
0100
0010
,
1000
0000
0010
0000
0100
0000
0001
0000
0010
0000
0100
0000
2000
0000
0000
0000
0000
0000
0001
0000
0000
3001
0000
0000
,
0000
0000
0000
0000
;
#NOTES:
     dance-double:
     :
     Easy:
     9:
     :
00000000
00000000
00000000
00000000
,
00000000
00000000
00000000
00000000
,
00000000
00000000
00000000
00000000
,
00000000
00000000
00000000
00000000
,
00000000
00000000
00000000
00000000
,
00000000
00000000
00000000
00000000
,
00002000
00000000
00013000
00000000
00020000
00000000
00031000
00100000
,
00010000
00000000
01000000
00000000
00100000
10000000
00100000
00000000
,
20000000
30000000
00020000
00030000
,
20020000
00000000
00000000
30030000
,
02200000
00000000
00000000
00000000
,
03300000
00000000
00000000
00000000
,
00022000
00000000
00000000
00000000
,
00033000
00000000
00000000
00000000
,
00001000
00001000
00010000
00010000
,
00000100
00001000
00000100
00000000
00000010
00000000
00000000
00000000
,
00000001
00001000
00000001
00000000
00000100
00000000
00000000
00000000
,
00000001
00000100
00002000
00013000
,
00001000
00000000
00010000
00000000
,
00001000
00100000
00001000
00000000
,
00010000
00000000
00001000
00000000
,
01000000
00010000
01000000
00000000
,
00100000
00000000
01000000
00000000
,
00010000
00000000
10000000
00000000
,
01000000
00100000
00010000
00000000
,
00200000
00000000
00300000
00000000
,
00100000
00000000
00001000
00000000
,
00010000
00001000
00010000
00000000
,
00000010
00000000
00001000
00000000
,
00000100
00010000
00000100
00000000
,
00001000
00000000
00000010
00000000
,
00000100
00000000
00000001
00000000
,
00000010
00000100
00000010
00000000
,
00000001
00000000
00000000
00000000
,
00001001
00000000
00000000
00000000
,
00000110
00000000
00000000
00000000
,
00000001
00000000
00000100
00000000
00001000
00010000
00001000
00000000
,
00010000
00100000
10000000
00000000
,
10010000
00000000
00000000
00000000
,
01100000
00000000
00000000
00000000
,
10000000
00000000
01000000
00000000
00100000
00000000
00001000
00010000
,
00002000
00000000
00000000
00003000
,
00001000
00010000
00001000
00000000
,
00010000
00001000
00010000
00000010
,
00001000
00000000
00000001
00000100
,
00000010
00000000
00000110
00000000
,
00000001
00000000
00000100
00000000
,
00001000
00010000
00001000
00000000
,
00010000
00000000
00100000
10000000
,
00200000
00000000
00300000
00000000
,
00100000
10000000
01000000
00000000
,
00100000
00010000
01000000
00000000
,
00100000
00000000
00100000
01000000
,
00010000
01000000
00001000
00000000
,
00011000
00000000
00010000
00001000
,
00010000
00000000
00001000
00010000
,
00002000
00000000
00000000
00000000
,
00000000
00000000
00003000
00000000
,
00022000
00000000
00000000
00000000
,
00000000
00000000
00033000
00000000
,
00001000
00000000
00100000
00000000
,
00010000
01000000
00100000
00000000
,
10000000
00000000
01000000
00000000
,
00010000
00001000
00010000
00000000
,
00001000
00000000
00000010
00000000
,
00000002
00000000
00001003
00000000
,
00000001
00000100
00000001
00000000
,
00001000
00000010
00001000
00000000
,
00000010
00010000
00001000
00000000
,
00010000
00001000
01000000
00000000
,
00010000
00000000
00110000
00000000
,
00100000
01000000
10000000
00000000
,
00010000
01000000
00010000
00000000
,
20000000
00000000
30000000
00000000
,
00020000
00000000
00030000
00000000
,
00200000
00000000
00300000
00000000
,
00100000
00100000
00001000
00001000
,
00010000
00001000
00010000
00000000
00001000
00000000
00000000
00000000
,
00020000
00000000
00032000
00000000
,
00003020
00000000
00000031
00000000
,
00000100
00000100
00000010
00000010
,
00000220
00000000
00000000
00000330
,
00000001
00000000
00000100
00000000
,
00001000
00010000
00001000
00000000
,
00010000
00000000
01000000
10000000
,
00010000
00000000
10010000
00000000
,
10000000
00000000
00100000
00000000
,
00010000
00001000
00010000
00000000
,
00001000
00000010
00000001
00000000
,
00002000
00000000
00003000
00000000
,
00001000
00000000
00000001
00000000
,
00000010
00000100
00000010
00000000
,
00000001
00000000
00000100
00001000
,
00010000
00000000
00011000
00000000
,
00001000
00000000
00010000
00000000
,
00100000
01000000
00100000
00000000
,
20020000
00000000
00000000
00000000
,
00000000
00000000
30030000
00000000
,
10000000
01000000
00100000
00000000
,
00020000
00000000
00030000
00000000
,
00100000
00001000
00010000
00000000
,
00002000
00000000
00003000
00000000
,
00010000
00000000
00000010
00000000
,
00001000
00000100
00001000
00000000
,
00000001
00000100
00000010
00001000
,
00000001
00000000
00002002
00000000
,
00003003
00000000
00000000
00000000
,
00000000
00000000
00000000
00000000
;
#NOTES:
     dance-double:
     :
     Medium:
     13:
     :
00000000
00000000
00000000
00000000
,
00000000
00000000
00000000
00000000
,
00000000
00000000
00000000
00000000
,
00000000
00000000
00000000
00000000
,
00000000
00000000
00000000
00000000
,
00000000
00000000
00000000
00000000
00000000
00000000
00001000
00010000
,
00002000
00000000
00003020
00000000
00000031
00001000
00000001
00000000
,
00000100
00000000
00001000
00010000
00000100
00010000
00001000
00000000
,
00020000
00000000
00031000
00001000
02000000
00000000
03010000
00010000
,
20000000
00000000
00000000
30000000
,
00100000
00000000
00000000
02200000
00000000
00000000
00000000
00000000
00000000
00000000
00000000
00000000
00000000
00000000
00000000
00000000
,
00000000
00000000
00000000
00000000
00000000
00000000
00000000
00000000
03300000
00000000
10000000
00000000
00000000
01000000
00000000
00000000
,
00010000
00000000
00000000
00022000
00000000
00000000
00000000
00000000
00000000
00000000
00000000
00000000
00033000
00000000
00000000
00000000
,
00001000
00000000
00011000
00000000
00010000
00001000
00000010
00000000
,
00000001
00000000
00000000
00000001
00000000
00000000
00001000
00000000
00000000
00001000
00000000
00000000
00001100
00000000
00000000
00000000
,
00000100
00000000
00000000
00000100
00000000
00000000
00010000
00000000
00000000
00010000
00000000
00000000
00011000
00000000
00000000
00000000
,
00001000
00000000
00000000
00100000
00000000
00000000
00010000
00000000
00000000
01000000
00000000
00000000
00100000
00000000
10000000
00000000
,
01000000
00000000
00000000
00100000
00000000
00000000
01000000
00000000
02200000
00000000
00000000
00000000
03300000
00000000
00000000
00000000
,
10000000
01000000
00010000
01000000
,
10000000
01000000
00010000
00001000
,
00000010
00000001
00000100
00000001
,
00000010
00000000
00000001
00000000
00001000
00000001
00001000
00000000
,
00000001
00000100
00001000
00000100
,
00000001
00000100
00001000
00010000
,
00100000
10000000
00100000
00000000
01000000
00000000
00010000
10000000
,
00020000
00000000
10030000
00000000
,
10000000
00100000
00010000
00100000
,
10000000
00100000
00010000
00001000
,
00000100
00000001
00000010
00000001
,
00000100
00000000
00000001
00000000
00001000
00000001
00001000
00000000
,
00000001
00000010
00001000
00000010
,
00000001
00000010
00001000
00010000
,
01000000
10000000
01000000
00000000
00100000
00000000
00010000
10000000
,
00020000
00000000
10030000
10000000
,
02000000
03100000
00200000
00310000
,
10010000
00000000
10000000
01000000
00010000
00000000
00001000
00000000
,
00000010
00000001
00000010
00000000
00000001
00001000
00000001
00000000
,
00000100
00000000
00001000
00010000
00002000
00000000
00003000
00000000
,
00001000
00000000
00010000
00000000
00100000
00000000
00010000
00001000
,
00010000
00000000
01000000
00000000
00010000
00001000
00010000
00000000
,
00001000
00000010
00001000
00010000
,
00022000
00000000
00000000
00033000
,
00001000
00010000
00001000
01000000
,
00010000
00000000
00100000
00000000
00010000
00000000
01000000
00100000
,
01000000
10000000
01000000
00010000
,
10000000
01000000
00010000
00001000
,
00000010
00000001
00000101
00000000
,
00000100
00000010
00001010
00000000
,
00001000
00000100
00000001
00000100
,
00001000
00000100
00001000
00000000
00000020
00000000
00000000
00000000
,
00001030
00000010
00010000
00001000
,
00100000
00000000
00010000
00000000
01000000
00000000
00100000
10000000
,
01000000
00100000
01000000
00010000
,
00001000
00000000
00010000
00000000
00001000
00010000
00001000
00000000
,
00010000
00000000
00000100
00000000
00001000
00000010
00001000
00000000
,
00000100
00000000
00000010
00000000
00000001
00000010
00000001
00000000
,
00001000
00000010
00000100
00000000
00001000
00000000
00010000
00001000
,
00020000
00000000
00031000
00000000
,
00001000
00000000
00000000
01001000
00000000
00000000
01000000
00000000
,
00000000
01010000
00000000
00000000
00010000
00000000
10000000
01000000
,
10000000
00000000
00000000
10100000
00000000
00000000
00100000
00000000
,
00000000
01100000
00000000
00000000
01000000
00000000
00010000
00000000
,
00100000
00001000
00100000
00000000
00001000
00000000
00010000
00000000
,
00000100
00001000
00000100
00000000
00000010
00000000
00000001
00000000
,
00001000
00000000
00000000
00000010
00000000
00000000
00000100
00000000
,
00000002
00000000
00001003
00000000
,
00000001
00000010
00000011
00000001
,
00000100
00001000
00010000
00100000
,
10000000
01000000
11000000
10000000
,
01000000
00000000
00100000
00010000
00100000
00000000
00010000
00000000
,
20000000
31000000
00010000
00001000
,
00000010
00000000
00000001
00001000
00000001
00000000
00000100
00000000
,
00000010
00001000
00000010
00000000
00000100
00000000
00000001
00000000
,
00002002
00000000
00003003
00000000
,
00000002
00000000
00000203
00000000
,
00002300
00000000
00023000
00000000
,
02030000
13000000
20000000
30100000
,
00100000
00010000
00001000
00000000
00022000
00000000
00033000
00000000
,
00002000
00003010
00000020
00000130
,
00000200
00000000
00010300
00000000
00001000
00010000
00001000
00000000
,
00020000
00130000
00200000
01300000
,
02200000
00000000
00000000
03300000
,
10000000
00010000
01000000
00100000
,
10000000
00000000
01000000
00000000
00010000
00000000
00001000
00010000
,
00001000
00000010
00000001
00001000
,
00000100
00000001
00000100
00001000
,
00000010
00000100
00000010
00000000
00010000
00000000
00000000
00000000
,
00010000
00001000
00010000
00000000
00000100
00000000
00000000
00000000
,
00000100
00010000
00011000
00001000
,
00011000
00000000
00001000
00010000
,
01000000
10000000
00100000
00010000
,
00001000
00010000
01000000
10000000
,
01000000
00010000
00001000
00000010
,
00000001
00000000
00000100
00000000
00000010
00001000
00000010
00000000
,
00000100
00001000
00010000
00001000
,
00000010
00000001
00000100
00001000
,
00020000
00000000
00000000
00000000
,
00000000
00000000
00030000
00000000
,
00010000
00000000
00000000
00011000
00000000
00000000
00001000
00000000
,
00000000
00101000
00000000
00000000
00100000
00000000
00010000
00000000
,
01000000
00000000
00000000
01100000
00000000
00000000
00100000
00000000
,
00000000
10100000
00000000
00000000
10000000
00000000
00010000
01000000
,
00010000
00000000
00000000
00110000
00000000
00000000
00100000
00000000
,
00000000
00101000
00000000
00000000
00001000
00000000
00010000
00000000
,
00000100
00001000
00000100
00000000
00000010
00000000
00000001
00001000
,
00000100
00010000
00001000
00022000
,
00033000
00000000
00000000
00000000
,
00000000
00000000
00000000
00000000
;
#NOTES:
     dance-double:
     :
     Hard:
     16:
     :
00000000
00000000
00000000
00000000
,
00000000
00000000
00000000
00000000
,
00000000
00000000
00000000
00000000
,
00000000
00000000
00000000
00000000
,
00000000
00000000
00000000
00000000
,
00000000
00000000
00000000
00000000
00000000
00000000
00010000
00001000
,
00000020
00000000
00000000
00000000
00000032
00000000
00000000
00000000
00000103
00000000
00001000
00000000
00010000
00000000
00100000
10000000
,
00100000
00000000
10000000
10000000
00100000
00100000
00010000
00001000
,
00020000
00000000
00031000
00001000
00020000
00000000
00031000
00001000
,
00020000
00000000
00000000
00030000
,
00011000
00000000
00000000
00000220
00000000
00000000
00000000
00000000
00000000
00000000
00000000
00000000
00000000
00000000
00000000
00000000
,
00000000
00000000
00000000
00000000
00000000
00000000
00000000
00000000
00000330
00000000
00000001
00000000
00000100
00001000
00000000
00001000
,
00010000
00000000
00000000
00022000
00000000
00000000
00000000
00000000
00000000
00000000
00000000
00000000
00033000
00000000
00000000
00000000
,
00001000
00010000
01000000
00000000
00010000
01000000
10000000
00000000
,
00100000
10000000
00000000
00100000
10000000
00000000
01000000
00100000
00000000
01000000
00100000
00000000
01000000
00000000
00010000
00000000
,
00001000
00010000
00000000
00001000
00010000
00000000
00001000
00000010
00000000
00001000
00000010
00000000
00000001
00000000
00001000
00000000
,
00000001
00000100
00000000
00000100
00001000
00000000
00001000
00010000
00000000
00010000
00100000
00000000
10000000
00000000
00000000
00000000
,
00020000
00000000
00000000
00100000
00000000
00000000
00100000
00000000
20000000
00000000
00000000
00000000
30030000
00000000
00000000
00000000
,
10000000
01000000
10000000
01000000
00100000
00010000
00100000
00000000
,
00010000
01000000
00001000
00010000
00001000
00010000
00000100
00000000
,
00001000
00000100
00000010
00000001
00001000
00000100
00000010
00000000
,
00000001
00000100
00000001
00000000
00001000
00000100
00001000
00000000
,
00000001
00000100
00000001
00000100
00000010
00001000
00000010
00000000
,
00001000
00000100
00010000
00001000
00010000
00001000
01000000
00000000
,
00010000
01000000
00100000
10000000
00010000
01000000
00100000
00000000
,
20000000
00000000
31000000
00010000
02000000
00000000
13000000
00010000
,
10000000
00100000
01000000
00100000
01000000
00010000
10000000
00000000
,
01000000
00100000
00010000
00100000
00001000
00010000
00001000
00000000
,
00010000
00000010
00001000
00000010
00000100
00000010
00001000
00000000
,
00000001
00000010
00000100
00000000
00001000
00000010
00000100
00000000
,
00000001
00000010
00000001
00000100
00000001
00000010
00000100
00000000
,
00001000
00000100
00010000
00001000
00010000
00000100
00001000
00000100
,
00010000
00001000
00010000
00000000
00011000
00000000
00001000
01000000
,
00020000
00000000
00030000
00000000
,
20000000
00000000
00000000
00000000
32000000
00000000
00000000
00000000
03010000
00000000
01000000
00000000
10000000
00000000
00100000
01000000
,
00100000
00000000
10000000
10000000
00100000
00010000
00001000
00000000
,
00010000
00000100
00011000
00000000
00001000
01000000
00011000
00000000
,
00010000
00001000
00000010
00000001
00002000
00000000
00003001
00000000
,
00000002
00000000
00000000
00000000
00000203
00000000
00000000
00000000
00001300
00000000
00000100
00000000
00000001
00000000
00000010
00000100
,
00000010
00000000
00000001
00000001
00000010
00001000
00010000
01000000
,
20000000
00000000
31000000
01000000
00020000
00000000
00031000
00001000
,
00020000
00000000
00000000
00030000
,
00001000
00010000
00001000
00000010
,
00000001
00000000
00001000
00000000
00000100
00000000
00000010
00000001
,
00000100
00000110
00000010
00000110
,
00000100
00000010
00001000
00000000
00000010
00010000
00001000
00010000
,
00001000
00000000
00011000
00000000
00010000
00001000
01000000
00000000
,
00010000
00000000
01010000
00000000
01000000
00100000
10000000
00000000
,
00010000
00100000
01000000
00000000
01100000
00000000
00100000
00010000
,
10000000
00100000
10000000
00000000
00010000
01000000
00010000
00000000
,
10000000
00100000
01000000
00010000
,
10000000
00000000
00010000
00000000
00100000
00000000
01000000
10000000
,
00100000
01100000
01000000
01100000
,
00100000
01000000
00010000
00000000
01000000
00001000
00010000
00001000
,
00010000
00000000
00011000
00000000
00001000
00010000
00000010
00000000
,
00001000
00000000
00001010
00000000
00000010
00000100
00000001
00000000
,
00001000
00000100
00000010
00000000
00000110
00000000
00000100
00001000
,
00000002
00000000
00000003
00000000
,
00000001
00000000
00000000
00000011
00000000
00000000
00000010
00000000
,
00000000
00000110
00000000
00000000
00000100
00001000
00000100
00010000
,
00001000
00000000
00000000
00011000
00000000
00000000
00010000
00000000
,
00000000
00011000
00000000
00000000
00001000
00100000
00001000
00100000
,
00010000
00000000
01000000
00100000
10000000
00000000
01000000
00100000
,
00010000
00000000
10000000
01000000
00010000
00000000
00001000
00000010
,
00000001
00000000
00000100
00000010
00000000
00000010
00000100
00000000
,
00002002
00000000
00003003
00000000
,
00001000
00000010
00001000
00000010
00001000
00000100
00001000
00000000
,
00000100
00010000
00000100
00010000
00001000
00010000
00001000
00000000
,
00100000
00010000
00100000
00010000
01000000
00010000
01000000
00000000
,
00100000
10000000
00100000
10000000
00010000
10000000
00010000
00000000
,
10000000
00100000
01000000
00010000
00100000
01000000
10000000
00000000
,
01000000
00100000
01000000
00010000
00001000
00010000
00001000
00000000
,
00010000
00001000
00000010
00000001
00001000
00000000
00000100
00000010
,
00000002
00000000
00000003
00000000
,
00000002
00000000
00000000
00000000
00000203
00000000
00000000
00000000
00001300
00000000
00000100
00000000
00000001
00000000
00000010
00000100
,
00001000
00000000
00000001
00000001
00000010
00001000
00010000
00000000
,
00001000
01000000
00011000
00000000
00010000
00000100
00011000
00000000
,
00001000
00010000
00100000
10000000
00020000
00000000
10030000
00100000
,
20000000
00000000
00000000
00000000
32000000
00000000
00000000
00000000
03010000
00000000
01000000
00000000
10000000
00000000
00100000
01000000
,
00010000
00000000
10000000
10000000
00100000
00010000
00001000
00000100
,
00000002
00000000
00000103
00000100
00002000
00000000
00013000
00010000
,
00002000
00000000
00000000
00003000
,
00001000
00010000
00001000
00000000
00100000
00010000
01000000
00000000
,
00100000
10000000
01000000
00000000
00010000
00001000
00010000
00001000
,
00000010
00000000
00000011
00000000
00000001
00001000
00000001
00000000
,
00000200
00000000
00002300
00000000
00013000
00100000
01000000
00100000
,
10000000
00000000
10100000
00000000
00100000
01000000
00010000
00100000
,
00010000
00000000
00110000
00000000
00100000
00001000
00010000
00001000
,
00000010
00000001
00001000
00000000
00001001
00000000
00000001
00000100
,
00000010
00001000
00000010
00000000
00000100
00000001
00000100
00000000
,
00000001
00001000
00000010
00000100
00000001
00001000
00000100
00000000
,
00010000
00001000
00100000
00010000
00100000
01000000
10000000
00000000
,
00100000
01000000
10000000
01000000
00100000
10000000
01000000
00000000
,
00010000
00001000
00010000
00001000
00000100
00001000
00000100
00000000
,
00000001
00000000
00001000
00000100
00000010
00000000
00000001
00000000
,
00000100
00000000
00001000
00010000
00001000
00000000
01000000
00000000
,
00100000
10000000
01000000
00000000
01100000
00000000
00100000
00010000
,
01000000
00100000
01000000
00100000
02000000
00000000
03000000
00000000
,
00010000
00100000
00000000
00100000
00001000
00000000
00001000
00010000
,
00000000
00010000
00000100
00000000
00001000
00000010
00000100
00000001
,
00001000
00000100
00000000
00000100
00000010
00000000
00000010
00000001
,
00000000
00000001
00000100
00000000
00001000
00000000
00011000
00000000
,
00010000
00100000
00000000
00100000
01000000
00000000
01000000
00010000
,
00000000
00010000
10000000
00000000
01000000
00100000
01000000
00000000
,
10000000
01000000
00100000
00001000
00010000
00000100
00000010
00000001
,
00000100
00000000
00001000
00010000
00001000
00000000
00002000
00020000
,
00033000
00000000
00000000
00000000
,
00000000
00000000
00000000
00000000
;
#NOTES:
     dance-double:
     :
     Challenge:
     18:
     :
00000000
00000000
00000000
00000000
,
00000000
00000000
00000000
00000000
,
00000000
00000000
00000000
00000000
,
00000000
00000000
00000000
00000000
,
00000000
00000000
00000000
00000000
,
00000000
00000000
00000000
00000000
00000000
00000000
00010000
00001000
,
00000020
00000000
00000001
00000000
00000032
00000000
00001000
00000000
00001003
00000000
00000010
00000000
00000110
00000000
00000100
00001000
,
00010000
00000000
00020000
00230000
20300000
32000000
03020000
00032000
,
00003020
00000030
00000010
00000100
00000020
00000030
00000010
00001000
,
00020000
00000000
00000000
00030000
,
00011000
00000000
00000000
00022000
00000000
00000000
00000000
00000000
00000000
00000000
00000000
00000000
00000000
00000000
00000000
00000000
,
00000000
00000000
00000000
00000000
00000000
00000000
00000000
00000000
00033000
00000000
01100000
00000000
00000000
01100000
00000000
00000000
,
00011000
00000000
00000000
00022000
00000000
00000000
00000000
00000000
00000000
00000000
00000000
00000000
00033000
00000000
00000000
00000000
,
00000110
00000110
00001001
00001001
,
00000001
00000100
00000000
00000010
00001000
00000000
00010000
01000000
00000000
00100000
10000000
00000000
00010000
00000000
00010000
00000000
,
10000000
01000000
00000000
00100000
00010000
00000000
00001000
00000100
00000000
00000010
00000001
00000000
00001000
00000000
00001000
00000000
,
00000001
00000100
00000000
00000100
00001000
00000000
00001000
00010000
00000000
00010000
00100000
00000000
00100000
10000000
01000000
00100000
,
00010000
00000000
00000000
10000000
00000000
00000000
00010000
00000000
20020000
00000000
00000000
00000000
30030000
00000000
00000000
00000000
,
10000000
01000000
00010000
00001000
00000010
00000001
00001000
00000010
,
00000001
00000010
00010000
00001000
01000000
10000000
00010000
00100000
,
10000000
01000000
00010000
00001000
00010000
00100000
10000000
01000000
,
00010000
00001000
00010000
00100000
00010000
00001000
00000100
00000001
,
00000010
00000001
00000100
00001000
00010000
00100000
10000000
01000000
,
00010000
00001000
00000010
00001000
00010000
00001000
00000100
00000001
,
00000010
00000010
00000010
00000000
00000110
00000000
00000100
00001000
,
00000001
00001000
00000001
00000000
00000100
00000000
00000010
00000000
00001000
00000000
00000001
00000000
00001000
00000000
00000000
00000000
,
00000001
00000100
00001000
00010000
00100000
10000000
00010000
00100000
,
10000000
00100000
00001000
00010000
00000100
00000001
00001000
00000010
,
00000001
00000100
00001000
00010000
00001000
00000010
00000001
00000100
,
00001000
00010000
00001000
00000010
00001000
00010000
01000000
10000000
,
00100000
10000000
01000000
00010000
00001000
00000010
00000001
00000100
,
00001000
00010000
00100000
00010000
00001000
00010000
01000000
10000000
,
00100000
00100000
00100000
00000000
01100000
00000000
01000000
00010000
,
20000000
30000000
10000000
01000000
,
00020000
00000000
00000000
00000000
00032000
00000000
00000000
00000000
00003010
00000000
00001000
00000000
00010000
00000000
00001000
00000100
,
00000001
00000000
00000001
00000010
00001000
00010000
01000000
10000000
,
00010000
01000000
00100000
10000000
00200000
00000000
00300000
00000000
10000000
01000000
00100000
00001000
00020000
00000000
00030000
00000000
,
00010000
00000100
00001000
00000010
00000100
00000000
00000001
00000000
00000011
00000000
00000000
00000000
00000010
00000000
00000001
00000000
,
00001000
00000000
00000001
00000100
00000010
00000000
00001000
00000100
00000010
00000000
00000100
00001000
00000100
00000000
00010000
00000100
,
00010000
00000000
00001000
00010000
00001000
00000000
00100000
00010000
00200000
00000000
00320000
00000000
02030000
00000000
03200000
00000000
,
10300000
01000000
10000000
01000000
00100000
00000000
00100000
00000000
00010000
00100000
00010000
00100000
00001000
00000000
00001000
00000000
,
00010000
00000100
00010000
00000100
00001000
00000100
00001000
00000100
00000010
00000000
00000010
00000000
00000020
00000000
00000030
00000000
,
00000001
00000010
00000100
00001000
00000001
00000100
00001000
00010000
,
00100000
01000000
00010000
10000000
01000000
00100000
00001000
00001000
,
00010000
00100000
01000000
00100000
00010000
00001000
00000010
00000100
,
00000010
00001000
00010000
00001000
00010000
00010000
00001000
00001000
,
00010000
00000100
00001000
00000100
00000010
00000001
00000100
00001000
,
00010000
00100000
01000000
00100000
10000000
01000000
00010000
01000000
,
00100000
00100000
00001000
00000000
00010000
00000000
00000100
00001000
,
00000001
00000010
00000001
00000000
00001000
00000000
00000010
00000000
00000100
00000000
00001000
00000000
00000100
00000000
00000001
00000000
,
00000010
00001000
00010000
01000000
00100000
00001000
00010000
00000100
,
00000010
00001000
00010000
01000000
00100000
00001000
00010000
00000100
,
00000010
00000001
00000100
00001000
00010000
00100000
10000000
00010000
,
01000000
00001000
00010000
00000100
00001000
00001000
00000001
00000001
,
00000010
00000001
00000010
00000100
00000010
00000100
00001000
00000100
00001000
00000100
00010000
00000100
,
00010000
00001000
00010000
00001000
00100000
00001000
00100000
00010000
00100000
01000000
10000000
01000000
,
10000000
00100000
10000000
00000000
01000000
00010000
00001000
00000010
,
00000001
00001000
00000001
00000000
00001000
00000000
00000001
00000000
00002000
00000000
00000000
00000000
00003000
00000000
00000000
00000000
,
00000001
00000000
00000000
00000101
00000000
00000000
00000100
00000000
,
00000000
00001100
00000000
00000000
00001000
00010000
00100000
01000000
,
10000000
00000000
00000000
11000000
00000000
00000000
01000000
00000000
,
00000000
01010000
00000000
00000000
00010000
00000000
10000000
01000000
,
00100000
00010000
00100000
00010000
00001000
00000100
00001000
00000100
,
00000010
00000001
00000010
00000001
00000100
00000001
00000010
00000100
,
00001000
00000000
00000000
00001100
00000000
00000000
00000100
00000000
,
00020000
00001000
00001000
00031000
,
00010000
00001000
00010000
00001000
00100000
01000000
00100000
01000000
,
00010000
00001000
00010000
00001000
00000010
00000100
00000010
00000100
,
00010000
00001000
00010000
00001000
01000000
00100000
01000000
00100000
,
00010000
00000000
00000000
00001000
00010000
00001000
00020000
00000000
00000000
00030000
00000000
00000000
,
00011000
00000000
00000000
00001000
00010000
00000100
00010000
00001000
00010000
00000100
00010000
00001000
,
00010000
00000000
00000100
00000000
00001000
00000000
00000100
00000000
00000010
00000000
00000001
00000000
00001000
00000000
00000000
00000000
00000000
00000000
00000001
00000000
00000000
00000100
00000000
00000000
,
00001000
00001000
00010000
00000000
00011000
00000000
00001000
00010000
,
00100000
01000000
00100000
00000000
10000000
00000000
00010000
00000000
00100000
01000000
00100000
00000000
00010000
00000000
10000000
00000000
,
00020000
00000000
00000000
00000000
01000000
00000000
00000000
00000000
00130000
00000000
00001000
00000000
00010000
00000000
00000100
00001000
,
00000020
00000000
00000031
00000010
00010000
00001000
01000000
10000000
,
02000000
00010000
00020000
03030000
00020000
00100000
00200000
00330000
,
00100000
00100000
00001000
00001000
00011000
00000000
00010000
00001000
,
00000020
00000000
00000000
00000000
00000032
00000000
00000000
00000000
00001003
00000000
00000100
00000000
00000001
00000000
00000100
00001000
,
00000100
00000000
00001000
00000010
00010000
00001000
00100000
00010000
,
01000000
00100000
00010000
00001000
00010000
00000000
00001000
00000000
01000000
00100000
00010000
00001000
00010000
00000000
00001000
00000000
,
01000000
00100000
00010000
00001000
01000000
00100000
00010000
00001000
00010000
00000000
00010000
00000000
00020000
00000000
00030000
00000000
,
00010000
00000010
00000100
00000001
00001000
00000100
00000001
00001000
,
00000010
00000001
00001000
00000010
00010000
00001000
01000000
00010000
,
10000000
01000000
00100000
00010000
10000000
01000000
00010000
00001000
,
00000010
00000001
00000100
00000010
00001000
00000100
00010000
00001000
,
00100000
01000000
00010000
00001000
00010000
00100000
00010000
00001000
,
00100000
01000000
00010000
00001000
00010000
00100000
00010000
00001000
,
00000100
00000010
00001000
00000000
00001001
00000000
00000001
00000010
,
00000200
00000001
00000010
00001300
,
00000001
00000010
00000100
00000010
00000100
00001000
00000100
00010000
00001000
00010000
00001000
00100000
,
00010000
00100000
01000000
10000000
01000000
00100000
00010000
01000000
00010000
10000000
01000000
10000000
,
00100000
01000000
00100000
01000000
00010000
01000000
00001000
00010000
00001000
00010000
00000010
00010000
,
00000010
00000000
00001000
00000000
00000010
00000000
00000100
00000000
00000001
00000000
00001000
00000000
00000100
00000000
00000000
00000010
00000000
00000000
00000001
00000000
00000000
00000010
00000000
00000000
,
00000001
00000100
00000010
00010000
00001000
01000000
00010000
00100000
01000000
10000000
00100000
01000000
,
00010000
01000000
00001000
00010000
00000010
00001000
00000010
00000100
00000001
00001000
00000010
00000100
,
00000001
00001000
00000001
00000000
00001001
00000000
00000001
00000100
,
00001000
00010000
00100000
10000000
00020000
00000000
00030000
00000000
,
00010000
00100000
01000000
00010000
00001000
00000010
00001000
00010000
,
00001000
00000100
00000001
00001000
00000100
00000010
00000001
00000000
,
00000001
00000010
00000100
00010000
00000010
00000100
00001000
00010000
,
00100000
01000000
00001000
00010000
01000000
10000000
01000000
00000000
,
10000000
00100000
00010000
00001000
00010000
01000000
00010000
00001000
,
00000010
00001000
00010000
00001000
00000100
00000001
00001000
00000000
,
00000001
00000100
00001000
00010000
00100000
10000000
00010000
00100000
,
01000000
00010000
00001000
00000010
00000100
00000000
00001000
00000001
,
00000000
00000000
00000000
00000000
;
