
//----- song ID: saip -----//
#TITLE:Saiph;
#ARTIST:BEMANI Sound Team "Yvya";
#BANNER:Saiph.png;
#BACKGROUND:Saiph-bg.png;
#CDTITLE:./CDTitles/GITADORA HIGH-VOLTAGE.png;
#MUSIC:Saiph.ogg;
#SAMPLESTART:85.928;
#SAMPLELENGTH:15;
#BPMS:0=162;
#NOTES:
     dance-single:
     :
     Beginner:
     5:
     :
0000
0000
0000
0000
,
0000
0000
0000
0000
,
0000
0000
0000
0000
,
0000
0000
0000
0000
,
0000
0000
0000
0000
,
1001
0000
0000
0000
,
0001
0000
0010
0000
,
0001
0001
0010
0000
,
0010
0000
1000
0000
,
0010
0010
1000
0000
,
1000
0000
0100
0000
,
1000
1000
0100
0000
,
0100
0000
0001
0000
,
0100
0100
0001
0000
,
0001
0000
0010
0000
,
0001
0010
0001
0000
,
0001
0001
0010
0000
,
1000
1000
0010
0000
,
1001
0000
1001
0000
,
1000
1000
0010
0000
,
1000
0000
0100
0000
,
1000
1000
0010
0000
,
1001
0000
1001
0000
,
0001
0001
0010
0000
,
0001
0000
0010
0000
,
1000
1000
1000
0000
,
1000
0000
0100
0000
,
0010
0010
0010
0000
,
0001
0000
0100
0000
,
0010
0010
0010
0000
,
1000
0000
0010
0000
,
0001
0010
0001
0000
,
0001
0000
0010
0000
,
1000
0010
1000
0000
,
1000
1000
0010
0000
,
1000
0000
0010
0000
,
0001
0001
0010
0000
,
0001
0000
0010
0000
,
0001
0001
0100
0000
,
0001
0000
0100
0000
,
1000
1000
0100
0000
,
1000
0000
0100
0000
,
1000
1000
0010
0000
,
1000
1000
0010
0000
,
0010
0010
0001
0000
,
0010
0010
0001
0000
,
0001
0001
0010
0000
,
0001
0001
0010
0000
,
0010
0010
1000
0000
,
0010
0010
1000
0000
,
1000
0000
0100
0000
,
0010
0010
0010
0000
,
0001
0000
0100
0000
,
0010
0010
0010
0000
,
1000
0000
0010
0000
,
0100
0100
0100
0000
,
0001
0000
0010
0000
,
0100
0100
0100
0000
,
1000
1000
0010
0000
,
0100
0000
0010
0000
,
0001
0001
0010
0000
,
0100
0000
0010
0000
,
0001
0001
0001
0000
,
0010
0010
0010
0000
,
2000
0000
0000
0000
,
3000
0000
0000
0000
,
1001
0000
1001
0000
,
1000
1000
0010
0000
,
1001
0000
1001
0000
,
0001
0001
0010
0000
,
1000
1000
1000
0000
,
0010
0010
0010
0000
,
0002
0000
0000
0000
,
0003
0000
0000
0000
,
1001
0000
0000
0000
,
0001
0000
0001
0000
,
0010
1000
0010
0000
,
1000
0000
0010
0000
,
1000
1000
0100
0000
,
1000
1000
0010
0000
,
0010
0010
0001
0000
,
0001
0001
0010
0000
,
0001
0100
0001
0000
,
0010
0010
1000
0000
,
1000
0010
1000
1000
,
0000
0000
0000
0000
;
#NOTES:
     dance-single:
     :
     Easy:
     9:
     :
0000
0000
0000
0000
,
0000
0000
0000
0000
,
0000
0000
0000
0000
,
0000
0000
0000
0000
,
0000
0000
0000
0000
,
1001
0000
0000
0000
,
1000
0001
1000
0000
0001
1000
0001
0000
,
1000
0000
0100
0000
0010
0001
0010
0000
,
0001
0000
0100
0000
0010
1000
0010
0000
,
1000
0000
0001
0000
0100
0010
0100
0000
,
0001
0000
1000
0000
0100
0010
0100
0000
,
1000
0000
0100
0000
0010
0001
0100
0000
,
0001
0000
0010
0000
0100
1000
0010
0000
,
0100
0000
0001
0000
1000
0100
0010
0000
,
0001
0100
0001
0000
1000
0100
1000
0000
,
0001
0010
0001
0000
1000
0010
1000
0000
,
0001
1000
0001
0000
1000
0001
1000
0000
,
0100
0010
0100
0000
0010
0100
0010
0000
,
0001
0011
0001
0011
,
0001
0000
1000
0000
0010
0100
0001
0000
,
1000
1010
1000
1010
,
1000
0010
1000
0000
0100
0000
1000
0000
,
0001
0010
1000
0010
,
0001
0000
1000
0001
1000
0000
1001
0000
,
0001
0100
1000
0100
,
0001
0000
1000
0001
1000
0000
1001
0000
,
1000
0000
0100
0000
0010
0001
1000
0000
,
0010
0100
0010
0000
0100
0010
0100
0000
,
0001
0000
0100
0000
0010
1000
0001
0000
,
0010
0100
0010
0000
0100
0010
0100
0000
,
1000
0100
1000
0000
0001
0100
0001
0000
,
1000
0010
1000
0000
0001
0010
0001
0000
,
1000
0010
0001
0010
,
1000
0001
1001
0000
,
1000
0010
1000
0000
0010
0100
0010
0000
,
1000
0010
0100
0010
1000
0000
0000
0000
,
0001
0010
0001
0000
0010
0100
0010
0000
,
0001
0010
0100
0010
0001
0000
0000
0000
,
1000
0100
1000
0000
0100
0010
0100
0000
,
1000
0100
0010
0100
1000
0000
0000
0000
,
0001
0100
0001
0000
0100
0010
0100
0000
,
0001
0100
0010
0100
0001
0000
0000
0000
,
1000
0010
1000
0010
1000
0000
0100
0000
,
0010
0001
0010
0001
0010
0000
0110
0000
,
0001
0010
0001
0010
0001
0000
0100
0000
,
0010
1000
0010
1000
0010
0000
0110
0000
,
1000
0010
0100
0001
,
1000
0100
0010
0000
0001
0100
0010
0000
,
2000
0000
0000
3000
,
0001
1000
0010
0100
,
0001
0010
0001
0000
0100
0001
0100
0000
,
0001
0010
0001
0000
0100
0001
0100
0000
,
0010
1000
0010
0000
1000
0100
1000
0000
,
0010
1000
0010
0000
1000
0100
1000
0000
,
0001
0100
0001
0000
1000
0100
1000
0000
,
0001
0010
0001
0000
1000
0010
1000
0000
,
0001
0100
0010
0000
1000
0100
0010
0000
,
1001
0000
0000
0000
,
1000
0100
0001
0100
,
1000
0100
0010
0000
0001
0000
1001
0000
,
0001
0100
1000
0100
,
0001
0100
0010
0000
1000
0000
1001
0000
,
0001
1000
0010
0000
1000
0001
0010
0000
,
0001
1000
0100
0000
1000
0001
0100
0000
,
0020
0000
0000
0030
,
1000
0010
1000
0010
1000
0001
1000
0000
,
0001
0100
0001
0000
1000
0100
1000
0000
,
1100
1001
0011
1001
,
0001
0010
0001
0000
1000
0010
1000
0000
,
1010
1001
0101
1001
,
1000
0000
0100
0000
0010
0100
0010
0000
,
0001
0000
0100
0000
0010
0100
0010
0000
,
1000
0010
0100
0000
0001
0010
0100
1000
,
0000
0001
1000
0001
,
1001
0000
0000
0000
,
1000
0000
0100
0000
0010
0001
0100
0000
,
0001
0000
1000
0000
0010
0100
0001
0000
,
0010
0001
0010
0000
0100
1000
0001
0000
,
1000
0000
0010
0000
0100
0001
0010
0000
,
0100
0000
1000
0000
0010
1000
0100
0000
,
0010
0000
0001
0000
1000
0010
0100
0000
,
0001
0100
1000
0100
,
0001
0010
1000
0010
,
0001
0010
0100
0000
1000
0010
0100
0000
,
0001
1000
0001
0000
0100
0010
0100
0010
,
0000
0000
0000
0000
;
#NOTES:
     dance-single:
     :
     Medium:
     12:
     :
0000
0000
0000
0000
,
0000
0000
0000
0000
,
0000
0000
0000
0000
,
0000
0000
0000
0000
,
0000
0000
0000
0000
,
1001
0000
0000
0000
,
1000
0001
0010
0100
1000
0010
0100
0001
,
1000
0000
0001
0010
0100
0010
0001
1000
,
0010
0000
1000
0001
0100
0010
0100
0001
,
1000
0000
0001
0010
0100
1000
0010
0100
,
0001
0010
0001
0100
0001
1000
0001
0000
,
1001
0000
1000
0100
0010
0100
1000
0001
,
0100
0000
0001
1000
0010
0100
0010
1000
,
0001
0000
1000
0100
0010
0001
0100
0010
,
1000
0100
1000
0010
1000
0001
1000
0000
,
0001
0100
0001
0010
0001
0100
0010
0000
,
1000
0010
0001
0010
1000
0001
1000
0000
,
0001
0010
1000
0010
0001
1000
0001
0000
,
1000
0100
1000
0100
0000
1000
0100
1000
,
0000
0010
0100
0000
0110
0000
1001
0000
,
0001
0010
0001
0010
0001
0001
1000
1000
,
0000
0001
0100
1000
0100
0001
1000
0000
,
0001
0010
0001
0100
0000
0010
1000
0010
,
0000
1000
0100
0010
0001
1000
0100
0000
,
1000
0001
0100
0010
0000
0100
0100
0000
,
0110
0000
1001
0001
0010
0100
1000
0000
,
0001
0000
0100
0010
0000
1010
0000
1001
,
0000
0001
0100
1000
0100
0001
1000
0000
,
0001
0000
1000
0100
0000
0100
0010
0001
,
0000
0001
0010
1000
0010
0001
1000
0000
,
0002
0000
1000
1003
0000
1100
0000
0001
,
0000
0101
0000
0110
0000
0001
1000
0001
,
1000
0000
0010
0100
0000
0001
0000
0100
,
0010
0000
1000
0002
0000
0000
0003
0000
,
1000
0100
1000
0100
0001
0100
0001
0100
,
1000
0100
0001
0100
1000
0100
1000
0000
,
0001
0100
0001
0100
1000
0100
1000
0100
,
0001
0100
1000
0100
0001
0100
0001
0000
,
1000
0010
1000
0010
0001
0010
0001
0010
,
1000
0010
0001
0010
1000
0010
1000
0000
,
0001
0010
0001
0010
1000
0010
1000
0010
,
0001
0010
1000
0010
0001
0010
0001
0000
,
1000
0100
0010
0001
0100
0010
1000
0100
,
0010
0001
0100
0010
0001
0010
0100
0000
,
0001
0100
0010
1000
0100
0010
0001
0100
,
0010
1000
0100
0010
1000
0010
0100
0000
,
1000
0100
0001
0000
0001
0100
1000
0000
,
0001
0100
1000
0000
1000
0100
0001
0000
,
2000
0000
3001
0100
0010
0100
0010
1000
,
0002
0023
0230
2300
,
3001
0000
0000
0010
0000
0000
0001
0000
0000
0010
0000
0000
0001
0000
0001
0000
,
1000
0000
0000
0010
0000
0000
1000
0000
0000
0010
0000
0000
1000
0000
0000
0000
,
0001
0000
0000
0100
0000
0000
0001
0000
0000
0100
0000
0000
0001
0000
0001
0000
,
1000
0000
0000
0100
0000
0000
1000
0000
0000
0100
0000
0000
1000
0000
0000
0000
,
0001
0000
0000
0010
0000
0000
0100
0000
0000
1000
0000
0000
0010
0000
1000
0000
,
0100
0000
0000
0010
0000
0000
0001
0000
0000
1000
0000
0000
0010
0000
0100
0000
,
0001
0000
0000
0010
0000
0000
1000
0000
0000
0010
0000
0000
0001
0000
0100
0000
,
0010
0000
0000
1000
0000
0000
1001
0000
0000
0000
0000
0000
0000
0000
0000
0000
,
1000
0000
0000
0001
0000
0000
0100
0000
0000
0000
0110
0000
0000
0000
2002
0000
,
0000
0000
0000
3003
0000
1000
0001
1000
,
0001
0000
0000
0010
0000
0000
0100
0000
0000
0000
0110
0000
0000
0000
1001
0000
,
0000
0110
0000
2002
0000
0000
3003
0000
,
1000
0100
0000
0100
0000
0000
0010
0000
0001
0100
0000
0100
0000
0000
0010
0000
,
1000
0001
0000
0001
0000
0000
0100
0000
0001
0000
1000
0000
0100
0000
1000
0000
,
0010
0000
0000
0100
0000
0000
0220
0000
0000
0000
0000
0000
0000
0000
0000
0000
,
0330
0001
1000
0010
0100
0001
1000
0000
,
0001
0100
0010
1000
0100
0001
0100
1000
,
0001
0100
0010
0001
1000
0100
0001
0000
,
1000
0100
0001
0100
1000
0010
0001
0010
,
1000
0100
0010
0001
1000
0100
0010
0001
,
1000
0000
0000
0010
0000
0000
0100
0000
0001
0000
0000
0010
0000
0000
0100
0000
,
1000
0000
0000
0001
0000
0000
1000
0000
0000
0000
0001
0000
1000
0000
0000
0000
,
0010
1000
0010
1000
0100
1000
0001
0010
,
0000
0001
1000
0010
0100
0001
1000
0000
,
0002
0000
0000
0000
,
0000
0000
0000
0003
,
0001
1000
0100
1000
0010
0100
0001
0010
,
0100
0100
1000
1000
0001
1000
0001
0000
,
1001
0000
1000
0010
0100
0001
0010
0100
,
0010
0000
0001
0100
0010
1000
0100
1000
,
0001
0000
1000
0100
0010
0001
0100
0010
,
1000
0100
1000
0010
0100
0001
0010
0001
,
1000
0001
0100
0001
0010
0100
0010
0001
,
1000
0010
0100
0001
1000
0100
0010
0001
,
1000
0000
0010
0000
0001
0000
0010
0000
1000
0000
0100
0000
1000
0001
1000
0001
,
0000
0000
0000
0000
;
#NOTES:
     dance-single:
     :
     Hard:
     16:
     :
0000
0000
0000
0000
,
0000
0000
0000
0000
,
0000
0000
0000
0000
,
0000
0000
0000
0000
,
0000
0000
0000
0000
,
1001
0000
0000
0000
,
1000
0100
0010
0000
0001
1000
0100
0000
0010
0100
1000
0000
0001
0010
0100
0000
,
1000
0000
0001
0100
0001
0010
0001
0010
0001
0000
1000
0000
0010
0000
0100
0000
,
0001
0000
1000
0100
1000
0010
1000
0010
1000
0000
0001
0000
0010
0000
0100
0000
,
1000
0000
0010
0100
0001
0010
0001
0010
0001
0000
1000
0000
0100
0000
0010
0000
,
0001
0010
0100
0000
1000
0010
0100
0000
0001
1000
0010
0100
0001
1000
0010
0100
,
0001
0000
0010
0100
1000
0001
1000
0001
0100
0000
1000
0000
0100
0000
0001
0000
,
1000
0000
0010
0100
0001
1000
0001
1000
0100
0000
0001
0000
0100
0000
1000
0000
,
0001
0000
0100
0010
1000
0100
1000
0100
0010
0000
0001
0000
0100
0000
0001
0000
,
0010
0100
1000
0100
0010
0100
1000
0000
0001
0100
0010
0100
0001
0100
0010
0000
,
1000
0010
0100
0010
1000
0010
0100
0000
0001
0010
0100
0010
0001
0010
0100
0000
,
2000
3020
0032
2003
3200
0302
2003
3020
,
0032
0023
2030
3200
0302
2003
3020
0032
,
1003
0000
0010
0100
0010
0100
0010
0000
0000
0000
0100
0010
0100
0010
0100
0000
,
0000
0000
0001
0000
1000
0100
1000
0000
0010
0100
0001
0000
1000
0001
1000
0000
,
0001
0000
0010
0001
0010
0001
0010
0000
0100
1000
0100
1000
0100
0000
1000
0000
,
0000
0000
0001
1000
0100
0000
0001
0000
0100
0010
0001
0000
1000
0100
0010
0000
,
0001
0000
1000
0001
1000
0001
1000
0000
0000
0000
0001
1000
0001
1000
0001
0000
,
0000
0000
1000
0010
0100
0010
0100
0000
0001
0100
0001
0000
1000
0100
1000
0000
,
0010
0000
0100
0010
0100
0000
0110
0000
0000
0000
0010
0100
0010
0000
0110
0000
,
1000
0001
1000
0001
1000
0000
0001
0010
0100
1000
0001
0010
0100
0000
0000
0000
,
1000
0100
0010
0011
0001
1001
1000
1010
,
0000
0000
0010
0100
0010
0000
1000
0000
0001
0010
0001
0000
1000
0010
1000
0000
,
0010
0100
0001
0101
0100
0110
0010
1010
,
0000
0000
1000
0001
1000
0000
0100
0000
0010
0001
0010
0000
0100
1000
0001
0000
,
2000
0000
3100
0200
0000
0320
0000
0032
,
0000
0000
2003
0000
0000
0000
3020
0000
0000
0000
0130
0001
1000
0010
1000
0000
,
0002
0000
0000
0000
0013
0000
2000
0000
0000
0000
3020
0000
0000
0000
0031
1000
,
0002
0000
0103
0220
0000
0000
0330
0000
,
1000
0010
0100
0000
0001
1000
0100
0000
0020
0000
0031
0000
0002
0000
1003
0000
,
0001
0100
0010
0000
0100
0001
1000
0000
0200
0000
0310
0000
0020
0000
0031
0000
,
0001
1000
0100
0000
0010
0001
1000
0000
0020
0000
0130
0000
0200
0000
0301
0000
,
0001
0100
0001
0100
0001
0000
1000
0100
1000
0100
1000
0000
0010
0000
0000
0000
,
1000
0100
0010
0000
0001
0100
0010
0000
2000
0000
3001
0000
0002
0000
0103
0000
,
0001
0100
0010
0000
1000
0100
0010
0000
0002
0000
1003
0000
2000
0000
3010
0000
,
1000
0001
0100
0000
0010
1000
0100
0000
0020
0000
0031
0000
0002
0000
1003
0000
,
0001
0100
0010
1000
0001
0100
0010
0000
1000
0100
0010
0001
1000
0100
0010
0000
,
0001
1000
0001
1000
0100
1000
0100
1000
0001
0010
0001
1000
0001
0010
0001
0000
,
1000
0001
1000
0001
0100
0001
0100
0001
1000
0010
1000
0001
1000
0010
1000
0000
,
0001
1000
0001
1000
0010
0100
0010
0100
0001
1000
0100
0010
0001
1000
0100
0000
,
1000
0001
1000
0001
0010
0100
0010
0100
1000
0001
0100
0010
1000
0001
0100
0000
,
0001
1000
0001
1000
0010
0000
0100
0000
0001
0010
0001
0010
0100
0000
1000
0000
,
0010
0010
0100
0100
0001
0001
1000
1000
,
0200
0000
0000
0000
0310
0001
0010
0000
0100
0010
0100
0000
1000
0001
1000
0000
,
0010
1000
0010
0100
0001
0100
0010
0000
1000
0001
0010
0100
0010
0001
1000
0000
,
0001
0010
0000
0100
0010
0000
0001
0010
0000
0100
0010
0000
0001
1000
0100
0000
,
1000
0010
0000
0100
0010
0000
1000
0010
0000
0100
0010
0000
1000
0001
0010
0000
,
0001
0100
0000
0010
1000
0000
0001
0100
0000
0010
1000
0000
0001
0100
0010
0000
,
1000
0100
0000
0010
0001
0000
1000
0100
0000
0010
0001
0000
1000
0100
0010
0000
,
0001
1000
0000
0100
0010
0000
0001
0100
0000
0010
1000
0000
0010
0100
0001
0000
,
1000
0001
0000
0010
0100
0000
1000
0010
0000
0100
0001
0000
0010
0001
1000
0000
,
0001
0010
0000
1000
0010
0000
0001
0010
0000
1000
0010
0000
0001
1000
0001
0000
,
1000
0000
0000
0001
0000
0000
1001
0000
0000
0000
0000
0000
0000
0000
0000
0000
,
0001
0000
0100
0010
0000
0010
1000
0000
0001
0000
0100
0000
0000
0000
0020
0000
,
1000
0000
0000
0000
0001
0000
0000
0000
1030
0000
0001
0100
0010
1000
0001
0000
,
1000
0000
0010
0100
0000
0100
0001
0000
1000
0000
0100
0000
0000
0000
1100
0000
,
0000
0000
0101
0000
0000
0000
1001
0000
0000
0000
0001
0100
0010
1000
0010
0000
,
1000
0100
0000
1000
0100
0000
0010
0000
0001
0100
0000
0001
0100
0000
0010
0000
,
1000
0010
0000
1000
0010
0000
0100
0000
0001
0010
0000
0001
0010
0000
0100
0000
,
1000
0000
0000
0001
0000
0000
0200
0000
0000
0000
0000
0000
0000
0000
0000
0000
,
0300
0000
0100
0010
1000
0001
1000
0000
0001
0100
0010
0000
1000
0100
0010
0000
,
0001
1000
0000
0001
1000
0000
0010
1000
0000
0010
1000
0000
0001
0100
0000
0001
,
0100
0000
0001
0010
0000
0001
0010
0000
0100
1000
0000
0100
1000
0000
0100
0010
,
0001
0000
0001
0100
0000
0100
0010
0000
0010
1000
0000
1000
0001
0000
0001
0010
,
0000
0010
0100
0000
0100
0001
0000
0001
0100
0000
1000
0100
1000
0100
0010
0001
,
0010
0000
0000
0001
0000
0000
0011
0000
1000
0000
0000
0100
0000
0000
1100
0000
,
1000
0000
0000
0010
0000
0000
0110
0000
0000
0000
1000
0001
1000
0100
0010
0000
,
0001
0100
0001
0100
0010
0100
0010
1000
0010
1000
0001
1000
0001
0000
0020
0000
,
0000
0000
0000
0030
,
2002
0000
0000
0000
,
0000
0000
0000
3003
,
1000
0000
0010
0000
1000
0100
0010
0000
0001
0100
0010
0000
1000
0100
0010
0000
,
0001
1000
0100
1000
0001
0100
0010
0000
2000
0000
3020
0000
0230
0000
0302
0000
,
1003
0000
0100
0000
0010
0001
1000
0000
0010
1000
0001
0000
0100
0010
1000
0000
,
0100
0000
0010
0000
0001
1000
0100
0000
0010
0001
0100
0000
0010
1000
0010
0000
,
0100
0000
0001
0000
0010
0100
1000
0000
0100
0010
0001
0000
1000
0001
0100
0000
,
0010
1000
0010
0000
0100
0000
0001
0000
0010
0001
0010
0000
0100
0000
1000
0000
,
0001
0100
0001
0000
0010
0000
0100
0000
1000
0100
1000
0000
0001
0000
0100
0000
,
0020
2030
3002
0203
,
0302
0000
0000
0000
0023
0000
0000
0000
0130
1000
0001
0010
0001
1000
0100
0010
,
0000
0000
0000
0000
;
#NOTES:
     dance-single:
     :
     Challenge:
     18:
     :
0000
0000
0000
0000
,
0000
0000
0000
0000
,
0000
0000
0000
0000
,
0000
0000
0000
0000
,
0000
0000
0000
0000
,
1001
0000
0000
0000
,
0001
0100
0010
0000
1000
0100
0010
0000
0001
0010
0100
0000
1000
0010
0100
0000
,
0001
0000
1000
0100
0010
0001
0010
0001
1000
0010
1000
0000
0001
0100
0001
0000
,
1000
0000
0001
0100
0010
1000
0010
1000
0001
0010
0001
0000
1000
0100
1000
0000
,
0001
0000
0010
0100
1000
0001
1000
0001
0100
0010
0100
0000
0001
1000
0001
0000
,
0010
0001
0010
0001
0100
0001
0100
0001
1000
0100
0010
0001
1000
0100
0010
0001
,
1000
0000
0001
0100
0010
1000
0010
0000
1000
0001
1000
0000
0100
1000
0100
1000
,
0001
0000
1000
0100
0010
0001
0010
0000
0001
1000
0001
0000
0100
0001
0100
0001
,
1000
0000
0010
0100
0001
1000
0001
0000
0010
0100
0010
0000
0001
1000
0001
1000
,
0010
1000
0010
1000
0100
1000
0100
1000
0001
0100
0010
1000
0001
0100
0010
1000
,
0001
0010
0001
0010
0001
0100
0001
0100
0010
0100
0001
1000
0010
0100
0001
1000
,
0001
0010
0100
1000
0001
1000
0100
0010
0001
0100
0010
1000
0001
1000
0010
0100
,
0001
0010
0100
1000
0001
0010
0100
1000
0001
0100
0010
1000
0001
0100
0010
1000
,
0001
0000
1000
0010
1000
0010
0100
0000
0000
0000
0001
0010
0001
0010
0100
0000
,
0000
0000
1000
0100
0010
0100
0010
0000
0001
0010
0001
0000
1000
0001
1000
0001
,
1000
0000
0000
0000
0000
0000
0001
0000
0000
0100
0000
0000
0001
0000
0000
0100
0000
0000
0010
0000
0000
0000
0000
0000
1000
0000
0001
0000
1000
0000
0001
0000
1000
0000
0001
0000
1000
0000
0000
0000
0000
0000
0001
0000
0000
0000
0000
0000
,
0000
0000
1000
0010
0100
0001
0010
0000
0100
1000
0001
0000
1000
0001
0100
0001
,
1000
0000
0001
0010
0001
1000
0002
0000
0000
0000
1003
0010
0100
0010
1000
0000
,
0000
0000
0001
0100
0010
1000
0001
0000
1000
0010
0100
0000
0001
1000
0100
0010
,
0001
0000
0000
0000
0000
0000
1000
0000
0000
0100
0000
0000
1000
0000
0000
0100
0000
0000
0020
0000
0000
0000
0000
0000
0000
0000
0000
0000
0000
0000
0031
0000
1000
0000
0001
0000
1000
0000
0001
0000
1000
0000
0001
0000
0000
0000
0000
0000
,
1000
0000
0100
0000
1000
0000
0100
0000
0010
0000
0001
0000
0010
0000
0000
0000
0000
0000
0001
0000
0000
0010
0000
0000
0100
0000
0000
1000
0000
0000
0100
0000
0000
1000
0000
0000
0002
0000
0000
0000
0000
0000
0000
0000
0000
0000
0000
0000
,
1003
0000
0100
0010
0001
0010
0100
0000
2000
0000
3020
0000
0230
0000
0302
0000
,
0000
0000
1003
0100
0010
0001
1000
0001
0010
0100
1000
0100
0010
0001
1000
0001
,
0010
0000
0001
0100
0010
1000
0010
0000
2000
0000
3200
0000
0302
0000
0203
0000
,
0000
0000
1300
0001
1000
0010
0100
0001
1000
0100
0010
0100
1000
0001
0010
0100
,
2000
0000
3001
0200
0000
0302
0000
0023
,
0000
0000
0032
0000
0000
0000
2003
0000
0000
0000
3010
0100
0001
1000
0001
1000
,
0020
0000
0000
0000
1030
0000
0002
0000
0000
0000
2003
0000
0000
0000
3001
0010
,
0200
0000
2300
0002
0000
0000
3003
0000
,
0001
1000
0001
1000
0010
1000
0010
1000
0001
0100
0001
0000
1000
0001
1000
0000
,
0100
0010
0100
0010
0001
0010
0001
0010
0100
1000
0100
0000
1000
0010
1000
0000
,
0001
0100
0001
0100
0001
0010
0001
0010
0100
1000
0100
0000
1000
0001
1000
0000
,
0010
0100
0001
0100
0010
1000
0010
0100
0001
0100
0010
1000
0001
0100
0010
0000
,
0100
0001
0100
0001
0010
0001
0010
0001
1000
0100
1000
0000
0001
1000
0001
0000
,
0100
0010
0100
0010
1000
0010
1000
0010
0100
0001
0100
0000
0001
0010
0001
0000
,
1000
0100
1000
0100
1000
0010
1000
0010
0100
0001
0100
0000
0001
1000
0001
0000
,
0010
0100
1000
0100
0010
0001
0010
0100
1000
0100
0010
0000
0001
1000
0100
0000
,
1000
0001
0100
0010
1000
0001
0010
0100
1000
0001
0100
0001
1000
0010
1000
0001
,
0010
0100
1000
0001
1000
0100
0010
0001
1000
0001
0100
0010
0100
0001
1000
0100
,
0010
0001
1000
0001
0010
0100
1000
0100
0010
0001
1000
0010
0100
0001
1000
0100
,
0010
0001
1000
0010
0100
0010
1000
0001
0010
0100
0010
0100
1000
0001
1000
0000
,
0001
0100
0010
0100
0001
0010
0100
1000
0001
0010
0100
0010
0001
1000
0100
0010
,
0100
0100
1000
1000
0001
0001
0010
0010
,
0002
0000
0000
0000
1003
0010
0100
0001
1000
0001
0100
0010
1000
0001
0100
0001
,
1000
0100
0010
0000
0001
0100
0010
0000
1000
0010
0100
0001
0010
0100
1000
0000
,
0001
0010
0001
1000
0010
1000
0001
0010
0001
1000
0010
1000
0001
0010
0001
1000
,
0001
0100
0001
1000
0100
1000
0001
0100
0001
1000
0100
1000
0001
0100
0001
1000
,
0100
0010
0100
1000
0001
1000
0100
0010
0100
1000
0001
1000
0100
0010
0100
1000
,
0010
0100
0001
0100
0010
1000
0001
0010
0100
1000
0100
0010
0001
1000
0001
0000
,
1000
0010
1000
0001
0010
0001
1000
0010
1000
0001
0010
0001
1000
0010
1000
0001
,
1000
0100
1000
0001
0100
0001
1000
0100
1000
0001
0100
0001
1000
0100
1000
0001
,
0100
0010
0100
0001
1000
0001
0100
0010
0100
0001
1000
0001
0100
0010
0100
0001
,
1000
0000
0000
0001
0000
0000
1000
0000
0000
0000
0001
0100
0010
1000
0010
1000
,
0001
0000
0000
0010
0000
0000
0200
0000
0000
0000
2300
0000
0000
0000
3002
0000
,
0000
0000
0000
0000
0000
0000
0000
0000
0003
0000
1000
0100
0010
0001
0010
0001
,
1000
0000
0000
0010
0000
0000
0200
0000
0000
0000
0302
0000
0000
0000
2003
0000
,
0000
0000
3200
0000
0000
0000
0320
0000
0000
0000
0031
1000
0100
1000
0100
1000
,
0010
1000
0010
0100
0010
0100
0001
0100
0001
0010
0001
0010
0100
0010
0100
1000
,
0001
0100
0001
0100
0010
0100
0010
1000
0001
1000
0010
0100
0001
1000
0010
0100
,
0001
0000
0000
1000
0000
0000
0002
0000
0000
0000
0000
0000
0000
0000
0000
0000
,
0003
0000
0001
0100
0010
1000
0001
0010
0100
1000
0100
1000
0001
0100
0001
0000
,
1000
0010
1000
0100
1000
0100
1000
0010
0100
0001
0100
0001
0010
0001
0100
0010
,
1000
0001
1000
0001
0010
0100
0010
0100
1000
0100
0010
0001
1000
0100
0010
0001
,
1000
0100
1000
0001
0100
0001
1000
0010
1000
0001
0010
0001
1000
0100
1000
0001
,
0100
0001
1000
0010
1000
0001
0010
0001
1000
0100
0010
0001
1000
0100
0010
0001
,
1000
0000
0000
0100
0000
0000
0100
0000
0010
0000
0000
0001
0000
0000
0010
0000
,
0001
0000
0000
0100
0000
0000
0200
0000
0000
0000
0310
1000
0001
0100
0010
1000
,
0001
0010
0001
0010
0100
0010
0001
0010
0001
1000
0100
1000
0001
0000
2000
0000
,
0000
0000
0000
0000
3000
0000
0001
1000
0100
0010
0001
1000
0010
0100
0001
0000
,
2000
0000
0000
0000
,
0000
0000
0000
3000
,
0001
0000
0100
0010
1000
0001
1000
0001
0100
0010
1000
0000
0010
0100
0001
0000
,
0010
0100
0010
0100
1000
0100
1000
0100
0010
0001
0010
0001
0100
0010
0100
0010
,
0100
0000
0001
0100
0010
1000
0001
1000
0010
0100
0001
0100
0010
1000
0001
0010
,
0100
0000
1000
0100
0010
0001
1000
0001
0010
0100
1000
0100
0010
0001
1000
0100
,
0010
0000
0001
0100
0010
1000
0010
0100
0001
1000
0010
0100
0001
1000
0010
0100
,
0001
0010
0001
0010
0100
1000
0100
1000
0010
1000
0010
1000
0001
0100
0001
0100
,
0010
1000
0001
0010
0100
1000
0001
0100
0010
1000
0001
0010
0100
1000
0001
0100
,
0010
1000
0001
0100
0000
0000
0001
0010
0100
1000
0000
0000
0100
0010
0001
1000
0000
0000
0010
1000
0001
0010
0000
0000
,
0001
0000
1000
0000
0100
0000
1000
0000
0000
0000
0000
0000
0001
0000
0100
0000
0010
0000
1000
0000
0000
0000
0000
0000
0001
0000
0000
1000
0000
0000
0100
0000
0000
0010
0000
0000
0001
0000
0000
1000
0000
0000
0100
0000
0000
0010
0000
0000
,
0000
0000
0000
0000
;
#NOTES:
     dance-double:
     :
     Easy:
     9:
     :
00000000
00000000
00000000
00000000
,
00000000
00000000
00000000
00000000
,
00000000
00000000
00000000
00000000
,
00000000
00000000
00000000
00000000
,
00000000
00000000
00000000
00000000
,
00011000
00000000
00000000
00000000
,
00010000
00001000
00010000
00000000
00001000
00010000
00001000
00000000
,
00010000
00000000
00001000
00000000
00100000
00010000
00100000
00000000
,
00010000
00000000
01000000
00000000
00100000
10000000
00100000
00000000
,
10000000
00000000
01000000
00000000
00100000
01000000
00100000
00000000
,
01000000
00010000
00001000
00000010
,
00000001
00000000
00001000
00000000
00000100
00000010
00000100
00000000
,
00001000
00000000
00000001
00000000
00000100
00000010
00000100
00000000
,
00001000
00000000
00010000
00000000
00001000
00010000
00001000
00000000
,
01000000
00010000
01000000
00000000
00010000
00100000
00010000
00000000
,
10000000
01000000
10000000
00000000
00100000
10000000
00100000
00000000
,
01000000
00010000
00100000
00000000
00010000
00100000
00001000
00000000
,
00010000
00001000
00010000
00000000
00001000
00010000
00001000
00000000
,
00010000
00000100
00000010
00000100
,
00010000
00000000
00001000
00000000
00010000
00001000
00010000
00000000
,
00001000
01000000
00100000
01000000
,
00001000
00000000
01000000
00000000
00100000
10000000
00100000
00000000
,
10000000
00000000
01000000
00000000
00100000
01000000
00100000
00000000
,
00001000
00000000
00010000
00000000
00000100
00001000
00000100
00000000
,
00000010
00000000
00000001
00000000
00000100
00000010
00000100
00000000
,
00000010
00000100
00000010
00000000
00010000
00000000
00001000
00000000
,
00010000
00000000
00001000
00000000
01000000
00010000
01000000
00000000
,
00100000
00000000
10000000
00000000
00010000
10000000
00010000
00000000
,
10000000
00000000
01000000
00000000
00100000
00010000
00100000
00000000
,
00001000
00000000
00010000
00000000
00000010
00001000
00000010
00000000
,
00001000
00000100
00000001
00000100
,
00001000
00000000
00000001
00000000
00000010
00000100
00001000
00000000
,
00000100
00010000
00001000
00100000
,
00010000
00000000
10000000
00100000
10000000
00000000
00000000
00000000
,
10000000
00000000
00100000
00000000
01000000
00010000
01000000
00000000
,
00100000
00000000
10000000
00000000
01000000
00100000
00010000
00000000
,
00100000
00000000
00001000
00000000
00010000
00001000
00010000
00000000
,
00000100
00000000
00001000
00000000
00000010
00000100
00000001
00000000
,
00000010
00000000
00000100
00000000
00001000
00000100
00001000
00000000
,
00000100
00000000
00010000
00000000
00001000
00100000
00010000
00000000
,
01000000
00000000
00010000
00000000
00100000
01000000
00100000
00000000
,
00010000
00000000
10000000
00000000
00100000
01000000
00010000
00000000
,
10000000
01000000
10000000
01000000
10000000
00000000
00100000
00000000
,
01000000
00010000
01000000
00010000
01000000
00000000
00001000
00000000
,
00010000
00001000
00010000
00001000
00010000
00000000
00000100
00000000
,
00001000
00000010
00001000
00000010
00001000
00000000
00000100
00000000
,
00000010
00000001
00000010
00000000
00000100
00001000
00000100
00000000
,
00010000
00001000
01000000
00000000
00010000
01000000
00100000
00000000
,
20000000
00000000
00000000
30000000
,
10000000
01000000
00100000
00010000
,
00100000
01000000
00100000
00000000
00010000
00100000
00010000
00000000
,
00100000
00001000
00100000
00000000
00001000
00010000
00001000
00000000
,
00010000
00000010
00010000
00000000
00000010
00001000
00000010
00000000
,
00000100
00000010
00000100
00000000
00000001
00000100
00000001
00000000
,
00000010
00000001
00001000
00000000
00000010
00000000
00000100
00000000
,
00001000
00010000
00001000
00000000
00010000
00000000
00100000
00000000
,
01000000
00100000
10000000
00000000
01000000
00100000
00010000
00000000
,
10010000
00000000
00000000
00000000
,
10000000
01000000
00100000
00010000
,
10000000
01000000
00100000
00000000
00001000
00000000
00010000
00000000
,
00000100
00001000
00000001
00000010
,
00000100
00001000
00000001
00000000
00000100
00000000
00000010
00000000
,
00001000
00000010
00001000
00000000
00000010
00010000
00000010
00000000
,
00010000
00001000
00010000
00000000
00001000
01000000
00001000
00000000
,
02000000
00000000
00000000
03000000
,
01000000
00100000
01000000
00000000
00010000
10000000
00010000
00000000
,
10000000
01000000
10000000
01000000
00100000
00000000
00010000
00000000
,
01000000
00100000
01000000
00010000
01000000
00000000
00100000
00000000
,
00010000
00001000
00010000
00001000
00010000
00000000
00000010
00000000
,
00001000
00000100
00000010
00000000
00000001
00000100
00000010
00000000
,
00001000
00000000
00000100
00000000
00010000
00001000
00010000
00000000
,
00001000
00000000
01000000
00000000
00010000
00100000
00010000
00000000
,
10000000
00100000
10000000
00000000
00100000
01000000
00100000
01000000
,
00000000
00010000
10000000
00010000
,
10010000
00000000
00000000
00000000
,
10000000
00000000
00100000
00000000
01000000
00010000
01000000
00000000
,
00010000
00000000
00100000
00000000
00001000
00010000
00001000
00000000
,
00010000
00000100
00001000
00000000
00000100
00000010
00000001
00000000
,
00001000
00000000
00000010
00000000
00000100
00000001
00001000
00000000
,
00000100
00000000
00010000
00000000
00001000
00010000
00001000
00000000
,
00100000
00000000
00010000
00000000
01000000
00100000
01000000
00000000
,
00010000
01000000
00100000
00000000
10000000
01000000
00100000
00000000
,
00010000
00100000
00001000
00000000
00010000
00001000
00010000
00000000
,
00000100
00001000
00000100
00000000
00001000
00000100
00000010
00000000
,
00000001
00000100
00000010
00000000
00001000
00000001
00001000
00000001
,
00000000
00000000
00000000
00000000
;
#NOTES:
     dance-double:
     :
     Medium:
     12:
     :
00000000
00000000
00000000
00000000
,
00000000
00000000
00000000
00000000
,
00000000
00000000
00000000
00000000
,
00000000
00000000
00000000
00000000
,
00000000
00000000
00000000
00000000
,
00011000
00000000
00000000
00000000
,
00001000
00010000
00001000
00010000
00000100
00001000
00000010
00000000
,
00001000
00000000
00000100
00000010
00000001
00000010
00000100
00000000
,
00001000
00000000
00000100
00010000
00001000
00010000
00001000
00000000
,
00010000
00000000
00001000
00100000
00010000
00100000
01000000
00000000
,
10000000
00100000
10000000
01000000
00100000
00010000
10000000
00000000
,
10010000
00000000
10000000
00100000
01000000
00100000
10000000
00000000
,
00010000
00000000
00100000
01000000
00100000
00010000
00100000
00000000
,
00001000
00000000
00010000
00001000
00010000
00000100
00001000
00000000
,
00000100
00001000
00000100
00000010
00000001
00001000
00000001
00000000
,
00001000
00000010
00001000
00000100
00010000
00001000
00010000
00000000
,
00001000
01000000
00010000
01000000
00100000
01000000
00010000
00000000
,
10000000
01000000
00100000
01000000
00010000
00001000
00010000
00000000
,
00011000
00000000
00001000
00010000
00000000
00001000
00010000
00000100
,
00000000
00001000
00000100
00001000
00000100
00000010
00000100
00000010
,
00000001
00001000
00000001
00000000
00001000
00000100
00001000
00000100
,
00000000
00000100
00010000
00001000
00010000
00001000
01000000
00010000
,
01000000
00010000
00100000
00010000
00000000
10000000
00100000
10000000
,
00000000
00100000
01000000
00100000
01000000
00010000
10000000
00010000
,
10000000
00000000
01000000
00010000
00000000
00001000
00010000
00000000
,
00001000
00010000
00000100
00000000
00001000
00000100
00000010
00000000
,
00000001
00000010
00000001
00000010
00000000
00000001
00000100
00000001
,
00000000
00001000
00000100
00001000
00000100
00010000
00001000
00000000
,
00010000
00001000
00100000
00001000
00000000
00100000
00010000
00100000
,
00000000
01000000
10000000
00010000
10000000
00100000
10000000
00000000
,
02000000
00000000
03100000
00010000
00000000
00100000
00010000
00100000
,
00000000
00001000
00010000
00001000
00000000
00010000
00000100
00010000
,
00000100
00000000
00001000
00000010
00000000
00000100
00000010
00000100
,
00000001
00000000
00001000
00000002
00000000
00000000
00000003
00000000
,
00000001
00000100
00000001
00000100
00000010
00000100
00000010
00000100
,
00001000
00000100
00001000
00000100
00001000
00010000
00001000
00000000
,
00010000
00001000
00010000
00001000
00010000
01000000
00010000
01000000
,
00100000
01000000
00100000
01000000
10000000
01000000
10000000
00000000
,
10000000
00100000
10000000
00100000
01000000
00100000
01000000
00100000
,
00010000
00100000
00010000
00100000
00010000
00001000
00010000
00000000
,
00001000
00010000
00001000
00010000
00001000
00000010
00001000
00000010
,
00000100
00000010
00000100
00000010
00000001
00000010
00000001
00000000
,
00000001
00000010
00000100
00001000
00000010
00000100
00001000
00010000
,
00100000
00010000
00001000
00010000
00100000
00010000
00001000
00000000
,
00010000
00001000
00010000
00001000
00010000
01000000
00010000
01000000
,
00100000
00010000
01000000
00100000
10000000
00010000
10000000
00000000
,
10000000
00100000
01000000
00010000
00100000
01000000
00010000
00001000
,
00000010
00001000
00010000
00001000
00000010
00001000
00010000
00000000
,
00001000
00010000
00001000
00010000
00001000
00000100
00001000
00000100
,
00000010
00001000
00000100
00000010
00000001
00001000
00000001
00000000
,
00001000
00000010
00001000
00000000
00000100
00001000
00000100
00000000
,
00010000
00001000
00010000
00000000
00001000
00010000
00001000
00000000
,
00100000
00010000
00100000
00000000
00010000
01000000
00010000
00000000
,
10000000
00100000
00010000
00100000
10000000
00000000
00010000
00000000
,
10000000
01000000
10000000
00000000
00010000
00100000
00010000
00000000
,
00100000
01000000
00100000
00000000
00001000
00100000
00001000
00000000
,
00010000
00001000
00010000
00000000
00000100
00001000
00000100
00000000
,
00000010
00000000
00000000
00000001
00000000
00000000
00001001
00000000
00000000
00000000
00000000
00000000
00000000
00000000
00000000
00000000
,
00000001
00000000
00000000
00000100
00000000
00000000
00001000
00000000
00000000
00000000
00010000
00000000
00000000
00000000
00022000
00000000
,
00000000
00000000
00000000
00033000
00000000
00001000
00010000
00001000
,
00010000
00000000
00000000
00100000
00000000
00000000
10000000
00000000
00000000
00000000
01000000
00000000
00000000
00000000
01100000
00000000
,
00000000
10000000
00000000
20020000
00000000
00000000
30030000
00000000
,
10000000
00000000
00000000
01000000
00000000
00000000
01000000
00000000
00100000
00000000
00000000
00010000
00000000
00000000
00010000
00000000
,
00001000
00000000
00000000
00000100
00000000
00000000
00000100
00000000
00000010
00000000
00000001
00000000
00000010
00000000
00000000
00000000
,
00000001
00000000
00000000
00000100
00000000
00000000
00000220
00000000
00000000
00000000
00000000
00000000
00000000
00000000
00000000
00000000
,
00000330
00000001
00001000
00000010
00000100
00000001
00001000
00000000
,
00000001
00000100
00000010
00001000
00000100
00000010
00000001
00000000
,
00000001
00000100
00001000
00000000
00010000
00100000
10000000
00000000
,
10000000
00100000
01000000
00010000
00100000
01000000
10000000
00000000
,
10000000
01000000
00010000
00000000
00001000
00000010
00000001
00000000
,
00000001
00000000
00000000
00000100
00000000
00000000
00000010
00000000
00001000
00000000
00000000
00000100
00000000
00000000
00010000
00000000
,
00001000
00000000
00000000
00100000
00000000
00000000
00010000
00000000
00000000
00000000
01000000
00000000
00100000
00000000
00000000
00000000
,
10000000
00100000
10000000
01000000
00100000
00010000
00100000
00001000
,
00000000
00001000
00010000
00000010
00001000
00000100
00000010
00000000
,
00000002
00000000
00000000
00000000
,
00000000
00000000
00000000
00000003
,
00000001
00000010
00000001
00000100
00000010
00001000
00000100
00000000
,
00001000
00000100
00010000
00001000
00100000
00010000
01000000
00000000
,
00010000
00100000
01000000
10000000
01000000
00010000
01000000
00000000
,
10000000
01000000
00100000
00010000
00100000
00001000
00010000
00000000
,
00001000
00010000
00000100
00001000
00000010
00001000
00000100
00000000
,
00000010
00000001
00000010
00000001
00001000
00000010
00001000
00000010
,
00010000
00001000
00010000
00001000
01000000
00010000
01000000
00010000
,
10000000
01000000
00100000
01000000
10000000
00100000
01000000
00100000
,
00010000
00000000
00001000
00000000
00000100
00000000
00000010
00000000
00000100
00000000
00000001
00000000
00001000
00000001
00001000
00000001
,
00000000
00000000
00000000
00000000
;
#NOTES:
     dance-double:
     :
     Hard:
     16:
     :
00000000
00000000
00000000
00000000
,
00000000
00000000
00000000
00000000
,
00000000
00000000
00000000
00000000
,
00000000
00000000
00000000
00000000
,
00000000
00000000
00000000
00000000
,
00011000
00000000
00000000
00000000
,
00001000
00010000
00001000
00000000
01000000
00010000
01000000
00000000
00100000
01000000
00100000
00000000
10000000
00100000
10000000
00000000
,
00010000
00000000
10000000
01000000
10000000
00010000
10000000
00010000
00100000
00000000
00001000
00000000
00010000
00000000
00000100
00000000
,
00001000
00000000
00000010
00000100
00000001
00000100
00000001
00000100
00000010
00000000
00001000
00000000
00000100
00000000
00010000
00000000
,
00001000
00000000
01000000
00010000
01000000
00100000
01000000
00100000
10000000
00000000
00010000
00000000
00100000
00000000
01000000
00000000
,
10000000
01000000
00100000
00000000
00010000
01000000
00100000
00000000
01000000
00010000
01000000
00001000
00010000
00001000
00010000
00000000
,
00001000
00000000
00010000
00000100
00010000
00000100
00001000
00000000
00000010
00000000
00000100
00000000
00000001
00000000
00000010
00000000
,
00000001
00000000
00000010
00000100
00001000
00000100
00001000
00000000
00000100
00000000
00010000
00000000
00001000
00000000
00100000
00000000
,
00010000
00000000
01000000
00100000
10000000
00010000
10000000
00000000
01000000
00000000
00100000
00000000
00010000
00000000
01000000
00000000
,
00010000
00100000
01000000
00100000
00010000
00100000
00001000
00000000
00010000
00001000
00010000
00000100
00001000
00000100
00000010
00000000
,
00000001
00000100
00000010
00000100
00000001
00000100
00000010
00000000
00001000
00000010
00001000
00000100
00010000
00000100
00010000
00000000
,
00002000
00023000
00032000
00203000
00320000
02030000
03200000
20300000
,
32000000
03200000
00302000
00023000
00030020
00002030
00003200
00000320
,
00000031
00000000
00000100
00000010
00000100
00000010
00000100
00000000
00000000
00000000
00000010
00000100
00000010
00000100
00000010
00000000
,
00000000
00000000
00000100
00000000
00000010
00001000
00000010
00000000
00010000
00001000
00010000
00000000
00001000
01000000
00001000
00000000
,
01000000
00000000
00010000
10000000
00010000
10000000
00010000
00000000
00100000
01000000
00100000
01000000
00100000
00000000
00010000
00000000
,
00000000
00000000
10000000
01000000
00100000
00000000
00001000
00000000
00010000
00000000
00000100
00000000
00001000
00000100
00000010
00000000
,
00000001
00000000
00001000
00000001
00001000
00000001
00001000
00000000
00000000
00000000
00000001
00001000
00000001
00001000
00000001
00000000
,
00000000
00000000
00001000
00000010
00000100
00000001
00001000
00000000
00000100
00010000
00000100
00000000
00010000
00001000
00010000
00000000
,
00001000
00000000
00100000
00010000
00100000
00000000
01000000
00000000
00000000
00000000
10000000
00100000
10000000
00010000
10000000
00000000
,
01000000
00100000
01000000
00100000
01000000
00000000
00100000
00010000
00100000
00000000
00001000
00010000
00001000
00000000
00000000
00000000
,
00010000
00000100
00001000
00001010
00000010
00000110
00000100
00000101
,
00000000
00000000
00000001
00000010
00000100
00000000
00001000
00000000
00000100
00010000
00000100
00000000
00010000
00001000
00010000
00000000
,
00001000
01000000
00010000
00110000
00100000
01100000
01000000
11000000
,
00000000
00000000
10000000
01000000
00100000
00000000
00010000
00000000
00100000
00001000
00010000
00000000
00001000
00010000
00001000
00000000
,
00020000
00000000
00030010
00000020
00000000
00002030
00000000
00003200
,
00000000
00000000
00000302
00000000
00000000
00000000
00000203
00000000
00000000
00000000
00001300
00000000
00000100
00001000
00000100
00000000
,
00020000
00000000
00000000
00000000
00031000
00000000
02000000
00000000
00000000
00000000
03020000
00000000
00000000
00000000
00130000
01000000
,
00200000
00000000
00310000
20000000
00000000
00000000
30000000
00000000
,
10000000
00100000
01000000
00000000
00010000
00100000
01000000
00000000
10000000
00000000
01000000
00000000
00010000
00000000
00001000
00000000
,
00000010
00000001
00000010
00000000
00000100
00001000
00000001
00000000
00000100
00000000
00001000
00000000
00000100
00000001
00000100
00000000
,
00000001
00000010
00000100
00000000
00001000
00000010
00000100
00000000
00000001
00000000
00000100
00000000
00001000
00000000
00010000
00000000
,
00100000
10000000
00100000
00000000
01000000
00010000
10000000
00000000
01000000
00100000
01000000
00100000
00010000
00000000
00000000
00000000
,
10000000
01000000
00100000
00000000
00010000
01000000
00100000
00000000
10000000
00000000
00100000
00000000
00010000
00000000
00001000
00000000
,
00000100
00000001
00000100
00000000
00000010
00001000
00000001
00000000
00000010
00000000
00001000
00000000
00000010
00000001
00000010
00000000
,
00000001
00000100
00000010
00000000
00001000
00000100
00000010
00000000
00000001
00000000
00000010
00000000
00001000
00000000
00010000
00000000
,
01000000
10000000
01000000
00000000
00100000
00010000
10000000
00000000
00100000
01000000
00100000
01000000
00010000
00000000
00000000
00000000
,
10000000
01000000
10000000
01000000
00100000
00010000
00100000
00010000
00100000
00001000
00010000
00001000
00100000
00001000
00010000
00000000
,
00001000
00010000
00001000
00010000
00000100
00001000
00000100
00001000
00000010
00000100
00000010
00001000
00000010
00000100
00000001
00000000
,
00000010
00000001
00000010
00000001
00000010
00000100
00000010
00000100
00001000
00000100
00010000
00000100
00010000
00001000
00010000
00000000
,
00001000
01000000
00001000
01000000
00010000
01000000
00010000
01000000
00010000
00100000
01000000
10000000
00010000
10000000
01000000
00000000
,
10000000
00100000
01000000
00000000
00100000
01000000
00010000
00000000
00100000
00001000
00010000
00000000
00001000
00010000
00000010
00001000
,
00000010
00000010
00000100
00000100
00000001
00000001
00001000
00001000
,
00000200
00000000
00000000
00000000
00000310
00000001
00001000
00000000
00000010
00010000
00001000
00000000
00010000
00001000
00100000
00000000
,
00010000
01000000
00010000
01000000
00100000
10000000
00100000
00000000
10000000
01000000
10000000
01000000
00100000
00010000
00100000
00000000
,
01000000
10000000
00000000
01000000
00100000
00000000
01000000
10000000
00000000
01000000
00100000
00000000
00010000
00100000
00010000
00000000
,
00100000
00001000
00000000
00010000
00001000
00000000
00100000
00001000
00000000
00010000
00001000
00000000
00010000
00000100
00010000
00000000
,
00000100
00001000
00000000
00000100
00000010
00000000
00000100
00001000
00000000
00000100
00000010
00000000
00000100
00001000
00000001
00000000
,
00001000
00000001
00000000
00000100
00001000
00000000
00010000
00001000
00000000
00000100
00000001
00000000
00001000
00000000
00000001
00000000
,
00000100
00000001
00000000
00000100
00000010
00000000
00000100
00000001
00000000
00000100
00000010
00000000
00001000
00000010
00001000
00000000
,
00000010
00010000
00000000
00001000
00010000
00000000
00000010
00010000
00000000
00001000
00010000
00000000
00001000
01000000
00001000
00000000
,
01000000
00010000
00000000
01000000
00100000
00000000
01000000
00010000
00000000
01000000
00100000
00000000
01000000
00010000
10000000
00000000
,
01000000
00000000
00000000
00100000
00000000
00000000
01100000
00000000
00000000
00000000
00000000
00000000
00000000
00000000
00000000
00000000
,
10000000
00000000
01000000
00100000
00000000
00100000
00001000
00000000
00010000
00000000
00001000
00000000
00000000
00000000
00000200
00000000
,
00000001
00000000
00000000
00000000
00001000
00000000
00000000
00000000
00000301
00000000
00000010
00000100
00001000
00000100
00010000
00001000
,
00010000
00000000
00001000
00100000
00000000
00100000
00010000
00000000
01000000
00000000
00100000
00000000
00000000
00000000
10100000
00000000
,
00000000
00000000
11000000
00000000
00000000
00000000
10010000
00000000
00000000
00000000
00010000
00100000
01000000
10000000
01000000
00000000
,
10000000
00100000
00000000
10000000
00100000
00000000
01000000
00000000
00010000
00100000
00000000
00010000
00100000
00000000
00001000
00000000
,
00010000
00000100
00000000
00010000
00000100
00000000
00001000
00000000
00000010
00001000
00000000
00000010
00001000
00000000
00000001
00000000
,
00000100
00000000
00000000
00000001
00000000
00000000
00002000
00000000
00000000
00000000
00000000
00000000
00000000
00000000
00000000
00000000
,
00003000
00000000
00001000
00000100
00000010
00000001
00001000
00000000
00000001
00000100
00000010
00000000
00001000
00000010
00010000
00000000
,
00001000
00010000
00000000
00010000
00001000
00000000
00001000
01000000
00000000
01000000
00010000
00000000
00010000
10000000
00000000
10000000
,
01000000
00000000
01000000
00100000
00000000
00100000
00010000
00000000
00010000
00100000
00000000
00100000
00001000
00000000
00010000
00001000
,
00010000
00000000
00010000
00000100
00000000
00000100
00001000
00000000
00001000
00000010
00000000
00000010
00000100
00000000
00000100
00000001
,
00000000
00000001
00000010
00000000
00000010
00000100
00000000
00000100
00001000
00000000
00000100
00001000
00000100
00010000
00001000
00010000
,
00001000
00000000
00000000
00010000
00000000
00000000
00011000
00000000
00001000
00000000
00000000
00010000
00000000
00000000
01000000
00000000
,
10000000
00000000
00000000
00010000
00000000
00000000
10010000
00000000
00000000
00000000
10000000
00100000
01000000
00010000
01000000
00000000
,
00010000
01000000
00010000
00100000
00010000
00100000
00001000
00010000
00001000
00010000
00000100
00010000
00001000
00000000
00020000
00000000
,
00000000
00000000
00000000
00030000
,
00022000
00000000
00000000
00000000
,
00000000
00000000
00000000
00033000
,
00001000
00000000
00010000
00000000
00000100
00001000
00000010
00000000
00000100
00000001
00001000
00000000
00000100
00000010
00000001
00000000
,
00000100
00000010
00000100
00000010
00001000
00000010
00001000
00000000
00000020
00000000
00020030
00000000
00032000
00000000
02003000
00000000
,
03010000
00000000
00100000
00000000
01000000
10000000
00100000
00000000
01000000
00010000
10000000
00000000
01000000
00100000
00010000
00000000
,
00100000
00000000
01000000
00000000
00010000
00001000
00010000
00000000
00000010
00001000
00000010
00000000
00001000
00000100
00000010
00000000
,
00000001
00000000
00001000
00000000
00000010
00000100
00000001
00000000
00000010
00000100
00001000
00000000
00000100
00010000
00001000
00000000
,
00010000
00001000
00010000
00000000
00001000
00000000
00010000
00000000
01000000
00100000
01000000
00000000
00100000
00000000
00010000
00000000
,
10000000
00100000
10000000
00000000
00100000
00000000
00010000
00000000
00001000
00010000
00001000
00000000
00000100
00000000
00000001
00000000
,
00000010
00000010
00002000
00000000
00013000
00010000
02000000
00000000
,
13000000
00100000
10000000
00000000
00010000
00100000
00010000
00000000
00100000
00001000
00010000
00000100
00001000
00000100
00000010
00000001
,
00000000
00000000
00000000
00000000
;
#NOTES:
     dance-double:
     :
     Challenge:
     18:
     :
00000000
00000000
00000000
00000000
,
00000000
00000000
00000000
00000000
,
00000000
00000000
00000000
00000000
,
00000000
00000000
00000000
00000000
,
00000000
00000000
00000000
00000000
,
00011000
00000000
00000000
00000000
,
00001000
00010000
00001000
00000000
00010000
00001000
00010000
00000000
00001000
00100000
00010000
00100000
01000000
10000000
01000000
00000000
,
10000000
00000000
00100000
00000000
01000000
00010000
01000000
00010000
01000000
00001000
01000000
00001000
00010000
00001000
00010000
00000000
,
00001000
00000000
00010000
00000000
00000100
00001000
00000100
00001000
00000100
00000010
00000100
00000010
00000001
00000010
00000001
00000000
,
00001000
00000000
00000001
00000000
00000100
00000010
00000100
00000010
00001000
00000010
00001000
00000010
00010000
00000010
00010000
00000000
,
00001000
00010000
00001000
00010000
00001000
01000000
00001000
00000000
01000000
00010000
01000000
00010000
01000000
00100000
01000000
00000000
,
00010000
00000000
10000000
00000000
01000000
00100000
00010000
00000000
00100000
01000000
00100000
00010000
00100000
00001000
00010000
00000000
,
00001000
00000000
00010000
00000000
00000010
00001000
00000010
00000000
00000100
00000010
00000100
00000001
00001000
00000100
00000010
00000000
,
00000001
00000000
00001000
00000000
00000010
00000100
00000001
00000000
00000010
00000100
00000010
00000100
00001000
00000100
00001000
00000000
,
00000100
00010000
00001000
00010000
00000100
00010000
00001000
00010000
00001000
00100000
00010000
00100000
00001000
00010000
00001000
00100000
,
00010000
00100000
00010000
00100000
01000000
10000000
01000000
10000000
00100000
10000000
00100000
10000000
00010000
01000000
00010000
01000000
,
00010000
10000000
01000000
00000000
00100000
00001000
00010000
00000000
00000100
00001000
00000010
00000000
00000100
00000001
00001000
00000000
,
00000001
00000010
00000100
00001000
00000010
00000100
00001000
00000100
00001000
00010000
00001000
00010000
00100000
01000000
00010000
00000000
,
10000000
00000000
00010000
00100000
01000000
00100000
00010000
00000000
00000000
00000000
10000000
01000000
00100000
01000000
10000000
00000000
,
00000000
00000000
10000000
00100000
01000000
00100000
01000000
00100000
01000000
00010000
01000000
00001000
00010000
00001000
00010000
00000000
,
00001000
00000000
00000000
00000000
00000000
00000000
00010000
00000000
00000000
00000010
00000000
00000000
00001000
00000000
00000000
00000000
00000000
00000000
00000100
00000000
00000000
00000000
00000000
00000000
00001000
00000000
00000100
00000000
00001000
00000000
00000100
00000000
00001000
00000000
00000100
00000000
00001000
00000000
00000000
00000000
00000000
00000000
00000001
00000000
00000000
00000000
00000000
00000000
,
00000000
00000000
00000010
00000001
00000100
00000010
00001000
00000100
00010000
00001000
00100000
00010000
01000000
00100000
10000000
00000000
,
00010000
00000000
01000000
00100000
10000000
00100000
02000000
00000000
00000000
00000000
03010000
00100000
00001000
00100000
00010000
00000000
,
00000000
00000000
00100000
01000000
00100000
00010000
00100000
00001000
00010000
00000100
00001000
00000010
00000100
00000001
00001000
00000000
,
00000001
00000000
00000000
00000000
00000000
00000000
00000010
00000000
00000000
00000100
00000000
00000000
00001000
00000000
00000000
00000000
00000000
00000000
00000020
00000000
00000000
00000000
00000000
00000000
00000000
00000000
00000000
00000000
00000000
00000000
00001030
00000000
00000001
00000000
00001000
00000000
00000001
00000000
00001000
00000000
00000001
00000000
00001000
00000000
00000000
00000000
00000000
00000000
,
00000100
00000000
00001000
00000000
00000100
00000000
00010000
00000000
00000100
00000000
00010000
00000000
00000100
00000000
00000000
00000000
00000000
00000000
00010000
00000000
00000000
00001000
00000000
00000000
01000000
00000000
00000000
00010000
00000000
00000000
01000000
00000000
00000000
00100000
00000000
00000000
02000000
00000000
00000000
00000000
00000000
00000000
00000000
00000000
00000000
00000000
00000000
00000000
,
03010000
00000000
10000000
01000000
00100000
00010000
00100000
00000000
00001000
00010000
00001000
00000000
00010000
00000010
00002000
00000000
,
00000000
00000000
00003001
00000100
00000010
00001000
00000010
00010000
00001000
00010000
00001000
01000000
00010000
01000000
00010000
10000000
,
01000000
00000000
00100000
00010000
01000000
00000000
00100000
00000000
20000000
00000000
30200000
00000000
00320000
00000000
00032000
00000000
,
00000000
00000000
00013000
00000000
00001000
00010000
00000010
00001000
00000100
00000010
00000001
00001000
00000010
00000100
00000010
00000000
,
00002000
00000000
00003100
00020000
00000000
00032000
00000000
02003000
,
00000000
00000000
03020000
00000000
00000000
00000000
20030000
00000000
00000000
00000000
31000000
00100000
00010000
00000000
00100000
00001000
,
00020000
00000000
00000000
00000000
00030010
00000000
00000200
00000000
00000000
00000000
00002300
00000000
00000000
00000000
00003100
00000001
,
00000200
00000000
00000301
00002000
00000000
00000000
00003000
00000000
,
00000001
00000010
00000001
00000010
00000100
00001000
00000100
00001000
00000010
00000100
00000010
00000000
00001000
00000001
00001000
00000000
,
00000001
00001000
00000100
00000000
00001000
00000100
00010000
00000000
00001000
00100000
00010000
00100000
01000000
10000000
00010000
00000000
,
10000000
00100000
10000000
00100000
01000000
00010000
01000000
00010000
00100000
01000000
00100000
00000000
00010000
10000000
00010000
00000000
,
10000000
00010000
01000000
00000000
00010000
01000000
00001000
00000000
00010000
00000010
00001000
00000010
00000100
00000001
00001000
00000000
,
00000001
00000010
00000100
00001000
00000010
00000100
00000001
00000000
00000010
00000100
00000010
00000000
00001000
00000010
00001000
00000000
,
00010000
00001000
00100000
00001000
00010000
00001000
01000000
00010000
00100000
01000000
10000000
00000000
01000000
00100000
00010000
00000000
,
10000000
00100000
01000000
00010000
00100000
01000000
10000000
00000000
00100000
01000000
00100000
00000000
00010000
00100000
00010000
00000000
,
00001000
00010000
00000010
00010000
00001000
00010000
00000100
00001000
00000010
00000100
00000001
00000000
00000100
00000010
00001000
00000000
,
00000001
00000010
00000100
00001000
00000010
00000100
00000001
00000010
00000100
00001000
00000100
00010000
00001000
00100000
00010000
00100000
,
01000000
00010000
01000000
00100000
00010000
00100000
00001000
00010000
00001000
01000000
00010000
00100000
01000000
10000000
00010000
01000000
,
00100000
01000000
00100000
00010000
00001000
01000000
00001000
00010000
00000100
00010000
00001000
00010000
00001000
00100000
00010000
00100000
,
00010000
01000000
00100000
01000000
00100000
00010000
00001000
00010000
00001000
00010000
01000000
00100000
00010000
10000000
00010000
00000000
,
10000000
00100000
01000000
00010000
00100000
01000000
10000000
00100000
01000000
00010000
01000000
00001000
00010000
00000010
00001000
00000010
,
00000100
00000100
00001000
00001000
00010000
00010000
00100000
00100000
,
02000000
00000000
00000000
00000000
03010000
10000000
00010000
10000000
01000000
00100000
01000000
00100000
00001000
00010000
00001000
00010000
,
00000010
00000100
00000010
00000100
00000001
00000010
00000100
00001000
00000100
00010000
00000100
00010000
00001000
00010000
00001000
00000000
,
00010000
00001000
00010000
00000100
00001000
00000100
00010000
00001000
00010000
00000010
00001000
00000010
00010000
00001000
00010000
00001000
,
00100000
00010000
00100000
00001000
00010000
00001000
01000000
00010000
01000000
00001000
00010000
00001000
00100000
00010000
00100000
00001000
,
00010000
00000100
00001000
00000010
00000100
00000010
00001000
00000100
00010000
00000100
00001000
00000010
00000100
00000010
00001000
00000100
,
00010000
00001000
00100000
00010000
01000000
00100000
01000000
00010000
00100000
00001000
00010000
00001000
00100000
00010000
00100000
00000000
,
00010000
10000000
01000000
00100000
00010000
10000000
01000000
00100000
00010000
00100000
00010000
00100000
00001000
00010000
00001000
00010000
,
00000100
00001000
00000001
00000010
00000100
00001000
00000001
00000010
00000100
00001000
00000001
00000100
00000010
00001000
00000100
00010000
,
00001000
00100000
00010000
01000000
00010000
00100000
00001000
00010000
00000100
00001000
00000010
00000100
00000010
00001000
00000100
00010000
,
00001000
00000000
00000000
00010000
00000000
00000000
00001000
00000000
00000000
00000000
00010000
00001000
01000000
00010000
01000000
00010000
,
10000000
00000000
00000000
00100000
00000000
00000000
00020000
00000000
00000000
00000000
00032000
00000000
00000000
00000000
00023000
00000000
,
00000000
00000000
00000000
00000000
00000000
00000000
00000000
00000000
00030000
00000000
00001000
00010000
00000010
00001000
00000010
00001000
,
00000001
00000000
00000000
00000010
00000000
00000000
00002000
00000000
00000000
00000000
00023000
00000000
00000000
00000000
02030000
00000000
,
00000000
00000000
23000000
00000000
00000000
00000000
30020000
00000000
00000000
00000000
10030000
01000000
00100000
00010000
10000000
00000000
,
00010000
00100000
00010000
00100000
01000000
00100000
00010000
00100000
00001000
00010000
00001000
00010000
00000100
00010000
00001000
00010000
,
00000010
00001000
00000010
00000100
00000010
00000100
00000010
00001000
00000001
00000010
00000100
00001000
00000001
00000010
00000100
00001000
,
00000001
00000000
00000000
00000100
00000000
00000000
00002000
00000000
00000000
00000000
00000000
00000000
00000000
00000000
00000000
00000000
,
00003000
00000000
00001000
01000000
00010000
00100000
00010000
00100000
01000000
10000000
01000000
10000000
00100000
01000000
00100000
00000000
,
10000000
01000000
10000000
00010000
01000000
00010000
00100000
00010000
00100000
00001000
00100000
00001000
00010000
00001000
00010000
00000100
,
00001000
00000010
00001000
00000100
00001000
00000100
00000010
00000001
00001000
00000010
00001000
00000010
00000100
00000001
00000100
00000001
,
00000010
00000100
00001000
00000100
00010000
00001000
00010000
00001000
01000000
00010000
00100000
01000000
10000000
00010000
01000000
00010000
,
10000000
00100000
01000000
00010000
10000000
01000000
00100000
00010000
00100000
00001000
00010000
00000100
00001000
00000100
00000010
00000001
,
00001000
00000000
00000000
00000001
00000000
00000000
00000001
00000000
00000100
00000000
00000000
00001000
00000000
00000000
00001000
00000000
,
00010000
00000000
00000000
00100000
00000000
00000000
02000000
00000000
00000000
00000000
03100000
10000000
00010000
01000000
00100000
10000000
,
01000000
00100000
01000000
00100000
00010000
00100000
00001000
00100000
00001000
00010000
00001000
00010000
00001000
00000000
00020000
00000000
,
00000000
00000000
00000000
00000000
00030000
00000000
00001000
00010000
00000100
00001000
00000100
00001000
00000010
00000100
00000001
00000000
,
00002000
00000000
00000000
00000000
,
00000000
00000000
00000000
00003000
,
00000001
00000000
00001000
00000000
00000100
00001000
00000100
00001000
00000100
00010000
00000100
00010000
00001000
00010000
00001000
00000000
,
00010000
00001000
00100000
00001000
00100000
00010000
00100000
01000000
10000000
01000000
10000000
00010000
01000000
00100000
01000000
00000000
,
00100000
00000000
10000000
00000000
01000000
00100000
00010000
00100000
00010000
00100000
00001000
00010000
00001000
00010000
00000100
00001000
,
00000100
00000000
00000010
00000000
00000001
00001000
00000010
00001000
00000100
00000010
00000001
00000010
00000100
00001000
00000100
00010000
,
00001000
00000000
00010000
00000000
00001000
01000000
00010000
01000000
00100000
10000000
00010000
00100000
01000000
10000000
00010000
00000000
,
00100000
00010000
00100000
00010000
00100000
00001000
00100000
00001000
00010000
00001000
00010000
00001000
00010000
00000100
00010000
00000100
,
00001000
00000010
00001000
00000010
00000100
00000001
00000100
00000001
00000010
00000100
00000010
00000100
00001000
00000100
00001000
00000100
,
00010000
00000100
00010000
00000100
00000000
00000000
00010000
00001000
00010000
00001000
00000000
00000000
00100000
00001000
00100000
00001000
00000000
00000000
00100000
00010000
00100000
00010000
00000000
00000000
,
00100000
00000000
01000000
00000000
00100000
00000000
01000000
00000000
00000000
00000000
00000000
00000000
10000000
00000000
00010000
00000000
10000000
00000000
00010000
00000000
00000000
00000000
00000000
00000000
10000000
00000000
00000000
01000000
00000000
00000000
00100000
00000000
00000000
00001000
00000000
00000000
00010000
00000000
00000000
00000100
00000000
00000000
00000010
00000000
00000000
00000001
00000000
00000000
,
00000000
00000000
00000000
00000000
;
