
//----- song ID: saha -----//
#TITLE:Sahara;
#ARTIST:Hommarju;
#BANNER:Sahara.png;
#BACKGROUND:Sahara-bg.png;
#CDTITLE:./CDTitles/jubeat festo.png;
#MUSIC:Sahara.ogg;
#SAMPLESTART:42.281;
#SAMPLELENGTH:15;
#DISPLAYBPM:95:155;
#BPMS:0=145.015,4=94.999,40=100,42=109.991,44=115.053,46=120,48=125,50=130.011,52=134.983,54=140.023,56=144.999,144=144.986,150=140.023,152=134.983,154=130.011,158=125,160=120,162=120,164=125,166=130.011,168=134.983,170=140.023,172=144.928,174=150,176=155.002;
#NOTES:
     dance-single:
     :
     Beginner:
     4:
     :
0000
0000
0000
0000
,
0000
0000
0000
0000
,
0001
0000
1000
0000
,
0001
0000
1000
0000
,
0001
0000
1000
0000
,
0001
0000
1000
0000
,
0010
0000
0100
0000
,
0001
0000
1000
0000
,
0010
0000
0100
0000
,
0001
0000
1000
0000
,
0001
0000
0000
0000
,
0001
0000
0000
0000
,
1000
0000
0000
0000
,
1000
0000
0000
0000
,
0001
0000
1000
0000
,
0001
0000
1000
0000
,
2002
0000
0000
0000
,
0000
0000
0000
0000
,
3003
0000
0000
0000
,
0000
0000
0000
0000
,
1000
0000
0001
0000
,
1000
0000
0001
0000
,
0010
0000
0100
0000
,
0010
0000
0100
0000
,
1000
0000
0100
0000
,
1000
0000
0100
0000
,
0010
0000
0100
0000
,
0110
0000
0000
0000
,
0010
0000
0001
0000
,
1000
0000
0001
0000
,
1000
0000
0010
0000
,
1000
0000
0001
0000
,
0100
0000
0010
0000
,
0100
0000
0001
0000
,
1000
0000
0001
0000
,
2002
0000
3003
0000
,
0001
0000
1000
0000
,
0001
0000
1000
0000
,
0001
0000
1000
0000
,
0001
0000
0000
0000
,
0100
0000
0010
0000
,
0100
0000
0000
0000
,
0010
0000
0100
0000
,
0010
0000
0000
0000
,
1000
0000
0000
0000
,
1000
0000
0000
0000
,
0001
0000
0000
0000
,
0001
0000
0000
0000
,
1000
0000
0010
0000
,
1000
0000
0010
0000
,
0200
0000
0000
0300
,
0001
0000
0000
0000
,
1000
0000
0100
0000
,
0010
0000
0001
0000
,
1000
0000
0001
0000
,
1000
0000
0000
0000
,
0001
0000
0010
0000
,
0100
0000
1000
0000
,
0001
0000
1000
0000
,
2002
0000
3003
0000
,
1000
0000
0001
0000
,
0100
0000
0000
0000
,
0001
0000
1000
0000
,
0010
0000
0000
0000
,
1000
0000
0001
0000
,
0010
0000
0000
0000
,
0001
0000
0010
0000
,
0100
0000
0000
0000
,
0110
0000
0000
0000
,
0000
0000
0000
0000
;
#NOTES:
     dance-single:
     :
     Easy:
     8:
     :
0000
0000
0000
0000
,
0000
0000
0000
0000
,
2000
0000
3001
0000
1000
0100
1000
0000
,
0002
0000
1003
0000
0001
0100
0001
0000
,
0200
0000
0310
0000
1000
0001
1000
0000
,
0200
0000
0310
0000
0001
1000
0002
0000
,
2003
0000
3010
0000
0100
0010
0100
0000
,
0002
0000
0013
0000
0100
0010
0100
0000
,
1000
0000
0001
0000
0100
0010
0100
0000
,
0002
0000
1003
0000
0100
0010
0100
0000
,
1000
0000
0001
0000
,
1000
0000
0001
0000
,
0100
0000
0010
0000
,
0100
0000
0010
0000
,
1000
0100
1000
0100
,
1000
0100
1000
0100
,
0010
0001
1000
0100
,
0010
0100
0010
0100
,
0010
0000
0000
0000
,
0000
0000
0000
0000
,
0001
0100
0001
0100
,
0001
0000
0100
0000
0010
0100
0010
0000
,
1000
0100
1000
0100
,
1000
0000
0100
0000
0010
0100
0010
0000
,
0001
1000
0001
1000
,
0001
0000
1000
0000
0010
0100
0010
0000
,
1000
0100
0010
0001
,
0011
0000
0110
1001
,
1000
0000
0010
0000
1000
0010
1000
0000
,
0001
0000
0100
0000
0001
0100
0001
0000
,
1000
0000
0100
0000
1000
0100
1000
0000
,
0001
0000
0010
0000
0001
1000
0001
0000
,
0100
0000
0010
0000
1000
0010
1000
0000
,
0001
0000
0010
0000
0100
0010
0100
0000
,
0010
0000
0001
0000
1000
0001
1000
0000
,
1001
0000
1100
0110
,
0001
1000
0001
1000
,
0001
0010
0100
0000
,
1000
0001
1000
0001
,
1000
0100
0010
0000
,
0001
0100
0010
1000
,
0001
1000
0001
0000
,
1000
0100
0010
0001
,
1000
0001
1000
0000
,
0001
0100
0001
0000
,
0100
0010
0100
0000
,
0010
1000
0010
0000
,
1000
0001
1000
0000
,
0001
0001
0010
0010
,
0100
0100
1000
1000
,
0010
0100
0010
0100
,
0001
1000
0001
1001
,
1000
0100
1000
0001
,
0100
0000
0010
0000
0100
0010
0100
0000
,
0001
0010
0001
1000
,
0001
0000
1000
0000
0010
0100
0010
0000
,
1000
0010
1000
0001
,
0010
0000
0100
0000
0010
0100
0010
0000
,
0001
0100
0001
1000
,
0010
0100
0001
1001
,
1000
0000
0100
0000
0010
0001
0010
0000
,
0001
0000
0100
0000
0010
1000
0010
0000
,
1000
0000
0001
0000
0100
0010
0100
0000
,
0001
0010
0100
0110
,
0001
0000
0100
0000
0010
1000
0010
0000
,
1000
0000
0100
0000
0010
0001
0010
0000
,
0001
0100
0001
0100
,
0010
1000
0001
0000
,
1001
0000
0000
0000
,
0000
0000
0000
0000
;
#NOTES:
     dance-single:
     :
     Medium:
     12:
     :
0000
0000
0000
0000
,
0000
0000
0000
0000
,
0002
0000
1003
0001
1000
0100
0010
0001
,
2000
0000
3001
1000
0001
0010
0100
1000
,
0001
0001
1000
0001
1000
0010
0100
0001
,
2000
0000
3001
1000
0010
0100
0110
0000
,
2000
0000
3001
1000
0001
0010
1000
0010
,
0002
0000
1003
0001
1000
0100
0001
0100
,
1000
1000
0001
1000
0001
0100
1000
0100
,
0002
0000
1003
0001
0100
0010
1000
0001
,
1000
0100
0010
0001
,
1000
0001
1000
0001
,
0100
0010
0100
0010
,
1000
0100
0010
0001
,
1000
0100
1000
0000
1000
0100
1000
0000
,
0001
0100
0001
0000
0001
0100
0001
0000
,
1000
0001
1000
0001
1000
0001
1000
0001
,
0100
0010
0100
0010
0100
0010
0100
0010
,
0100
0000
0000
0000
,
0000
0000
0000
0000
,
0001
0100
0001
0000
0100
0010
0100
0000
,
0010
1000
0010
0000
1000
0100
0100
0000
,
1000
0100
1000
0000
0100
0010
0100
0000
,
0010
0001
0010
0000
0001
0100
0100
0000
,
0001
0010
0001
0000
0010
0100
0010
0000
,
0100
1000
0100
0000
1000
0010
0010
0000
,
1000
0100
1000
0000
0001
0100
0001
0000
,
1000
0000
0000
0010
0000
0000
1000
0000
0001
0000
0010
0000
0100
0000
0000
0000
,
1000
0001
0100
0100
0010
0100
0100
0000
,
0001
1000
0010
0010
0100
0010
0010
0000
,
1000
0100
0010
0010
0001
0010
0010
0000
,
0001
0000
1000
0000
0000
0001
0000
0001
0100
0000
0010
0000
0100
0000
0000
0000
,
0001
1000
0010
0010
0100
0001
0001
0000
,
1000
0001
0100
0100
0010
1000
1000
0000
,
0001
0010
0100
0100
1000
0001
0001
0000
,
1000
0000
0000
0010
0000
0000
1000
0000
0001
0000
0100
0000
0010
0000
0000
0000
,
1000
0001
1000
0000
0100
0000
1000
0000
,
0001
0100
0001
0000
1000
0000
0010
0000
,
0100
0010
1000
0100
,
0010
0100
0010
0000
0001
0000
1000
0000
,
0001
0100
0001
0100
,
0010
1000
0010
0000
1000
0000
0001
0000
,
0010
0100
0010
0100
,
0010
0001
1000
0000
0010
0000
0100
0000
,
0010
1000
0010
1000
0010
0000
1000
0000
,
0001
0010
0001
0010
0001
0000
0010
0000
,
0001
1000
0001
1000
0001
0000
1000
0000
,
0010
0100
0010
0100
0010
0000
0100
0000
,
0001
0100
0001
0000
1000
0010
1000
0000
,
0001
0010
0001
0000
1000
0100
1000
0000
,
0100
0010
0100
0010
0100
0010
0100
0010
,
0100
1000
0001
1001
,
1000
0010
1000
0010
1000
0100
0010
0001
,
1000
0100
0010
0100
1000
0001
1000
0000
,
0001
0100
0001
0100
0001
0010
0100
1000
,
0001
0001
1000
1000
0010
0100
0010
0000
,
0100
0001
0100
0001
1000
0010
0100
0001
,
1000
0001
0010
0001
1000
0100
1000
0000
,
0100
0010
0100
0010
0001
1000
0100
0010
,
0001
1000
0001
1000
0100
0000
0110
0000
,
1000
0100
1000
0100
0010
0001
0010
0000
,
0001
0100
0001
0100
0010
1000
0010
0000
,
1000
0010
1000
0010
0100
0001
0100
0000
,
0001
0010
0001
0010
0100
1000
0001
0000
,
0010
0100
0010
0100
1000
0001
1000
0000
,
0010
0100
0010
0100
0001
1000
0001
0000
,
1000
0010
1000
0010
0100
0001
0100
0001
,
1000
0100
0010
0001
0010
0000
0000
0000
,
0110
0000
0000
0000
,
0000
0000
0000
0000
;
#NOTES:
     dance-single:
     :
     Hard:
     15:
     :
0000
0000
0000
0000
,
0000
0000
0000
0000
,
2000
0000
0000
0000
3001
0100
0001
0000
1000
0000
0100
0010
0001
0000
1000
0000
,
0002
0000
0000
1003
0100
1000
0001
0000
0010
0000
0001
1000
0010
0100
0001
0000
,
0101
0000
1001
0000
1000
0100
1000
0000
0200
0000
0320
0000
0031
1000
0100
0010
,
0200
0000
0000
0000
1300
0001
0100
0000
0001
0000
0100
0010
1000
0000
1001
0000
,
2000
0000
0000
0000
3010
1000
0100
0000
0010
0000
0001
0100
0010
1000
0010
0000
,
0200
0000
0000
0000
0301
0010
0100
0000
0010
0000
0001
0010
0100
0010
0001
0000
,
0200
0000
0320
0000
0130
0001
1000
0000
0001
0000
1000
0100
0010
0001
0010
0100
,
2000
0000
0000
0000
3001
0100
0010
0000
0100
0000
0010
1000
0001
0010
0100
0000
,
1000
0010
0100
0001
,
1000
0100
0001
0100
1000
0000
0001
0000
,
0100
0001
0010
0001
0100
0000
0010
0000
,
1000
0100
0010
0100
1000
0000
0001
0000
,
0100
0010
0100
0001
0100
0010
0100
0001
,
1000
0100
0010
0100
1000
0100
0010
0100
,
1000
0010
1000
0010
0100
0001
0100
0001
,
1000
0100
1000
0100
1000
0100
1000
0100
0010
0100
0010
0100
0010
0100
0010
0100
,
0010
0000
0000
0000
,
0000
0000
0000
0000
,
0001
0100
0001
0000
1000
0000
0010
0000
1000
0100
1000
0000
0001
0000
0010
0000
,
0100
0010
0100
0000
1000
0000
0001
0000
0010
0000
0100
0000
0100
0000
0000
0000
,
1000
0010
1000
0000
0001
0000
0100
0000
0001
0010
0001
0000
1000
0000
0010
0000
,
0100
0010
0100
0000
0001
0000
1000
0000
0100
0000
0010
0000
0010
0000
0000
0000
,
0001
0010
0100
0000
0010
0000
0001
0000
1000
0100
0010
0000
0100
0000
1000
0000
,
0001
0100
0010
0000
0100
0000
0001
0000
1000
0000
0001
0000
0001
0000
0000
0000
,
1000
0100
0010
0000
0100
0000
1000
0000
0001
0010
0100
0000
0010
0000
0001
0000
,
0100
0000
0010
0100
0000
0100
0010
0100
0010
0000
1010
0000
1001
0000
0000
0000
,
0001
0000
0010
0100
1000
0000
1000
0000
0001
0010
0100
0000
0100
0000
1000
0000
,
0001
0000
0100
0010
1000
0000
1000
0000
0001
0100
0010
0000
0010
0000
1000
0000
,
0001
0000
1000
0100
0010
0000
0010
0000
0001
1000
0100
0000
0100
0000
0010
0000
,
0001
0000
0100
0010
1000
0010
0000
1000
0001
0000
0011
0000
1001
0000
0000
0000
,
1000
0000
0100
0010
0001
0000
0001
0000
1000
0100
0010
0000
0010
0000
0001
0000
,
1000
0000
0010
0100
0001
0000
0001
0000
1000
0010
0100
0000
0100
0000
0001
0000
,
1000
0000
0001
0010
0100
0000
0100
0000
1000
0001
0010
0000
0010
0000
0100
0000
,
1000
0000
0010
1000
0000
1000
0001
1000
0001
0000
0101
0000
1001
0000
0000
0000
,
0001
0010
1000
0010
0001
0000
0100
0010
,
0100
0000
0001
0000
0010
0100
1000
0000
0001
0000
0000
0000
0100
0000
0010
0000
,
1000
0100
0001
0100
1000
0000
0010
0100
,
0010
1000
0100
0000
0010
0001
0100
0000
0001
0000
0000
0000
1000
0001
0100
0000
,
0001
0100
1000
0100
0001
0000
1000
0100
,
0010
0001
1000
0000
0001
1000
0010
0000
0100
0000
0000
0000
0010
0000
0100
0000
,
0010
1000
0100
1000
0010
0000
1000
0001
,
0100
0001
1000
0000
0001
0010
0100
0000
0010
0000
0000
0000
0100
0000
0000
0000
,
1000
0010
0100
0010
1000
0100
0010
0000
,
0001
0100
0010
0100
0001
0010
0100
0000
,
1000
0100
0001
0100
1000
0010
0100
0000
,
0001
0010
1000
0010
0001
0100
0010
0000
,
1000
0100
1000
0100
0010
0001
0010
0001
,
1000
0010
1000
0010
0100
0001
0100
0001
,
0010
0100
0010
0100
1000
0100
1000
0100
1000
0001
1000
0001
0100
0001
0100
0001
,
0100
0010
0110
1001
,
1000
0000
0001
0010
0001
0000
0001
0000
0100
0010
0100
0000
0001
0000
1000
0000
,
0100
0000
0010
0100
0010
0000
0001
0000
1000
0010
1000
0010
1000
0000
0000
0000
,
0001
0000
1000
0100
1000
0000
1000
0000
0010
0100
0010
0000
1000
0000
0001
0000
,
1000
0010
1000
0000
1000
0010
1000
0000
0010
0100
0010
0000
0100
0000
0100
0000
,
0001
0000
1000
0100
1000
0000
1000
0000
0010
0100
0010
0000
1000
0000
0001
0000
,
0010
0000
0100
0010
0100
0000
1000
0000
0001
0100
0001
0100
0001
0000
0000
0000
,
1000
0000
0001
0010
0001
0000
0001
0000
0100
0010
0100
0000
0001
0000
1000
0000
,
0001
1000
0001
1000
0001
0000
0001
0000
0100
0000
0010
0000
0110
0000
0000
0000
,
1000
0000
0010
0000
0100
0000
0001
0000
0010
0100
1000
0000
0001
0000
1000
0000
,
0001
0000
0010
0000
0100
0000
0010
0000
0001
0100
0001
0100
0001
0000
0100
0000
,
0010
0000
1000
0000
0001
0000
0100
0000
0010
0100
0001
0000
1000
0000
0001
0000
,
1000
0000
0100
0000
0010
0000
0001
0000
0100
0001
0010
0000
0001
0000
0001
0000
,
0001
0000
0100
0000
0010
0000
1000
0000
0100
0010
0001
0000
1000
0000
0001
0000
,
1000
0000
0100
0000
0010
0000
0100
0000
1000
0010
1000
0010
1000
0000
0010
0000
,
1000
0100
0010
0001
1000
0100
0010
0001
,
0100
0010
0100
0010
0100
0000
0010
0000
1000
0000
0001
0000
0100
0000
0000
0000
,
1001
0000
0000
0000
,
0000
0000
0000
0000
;
#NOTES:
     dance-double:
     :
     Easy:
     8:
     :
00000000
00000000
00000000
00000000
,
00000000
00000000
00000000
00000000
,
20000000
00000000
30010000
00000000
10000000
01000000
00100000
00000000
,
00020000
00000000
00130000
00000000
00010000
00100000
00001000
00000000
,
00020000
00000000
00030100
00000000
00010000
00000100
00001000
00000000
,
00000002
00000000
00000103
00000000
00000001
00001000
00000200
00000000
,
00020300
00000000
00031000
00000000
00010000
00001000
01000000
00000000
,
00020000
00000000
10030000
00000000
00010000
00100000
01000000
00000000
,
10000000
00000000
00010000
00000000
00100000
00001000
00010000
00000000
,
00000020
00000000
00001030
00000000
00000010
00000100
00000001
00000000
,
00001000
00000000
00000100
00000000
,
00010000
00000000
00001000
00000000
,
01000000
00000000
00010000
00000000
,
10000000
00000000
01000000
00000000
,
00100000
00010000
00100000
00001000
,
00010000
00001000
00010000
00000100
,
00001000
00000001
00000010
00000100
,
00001000
00000100
00010000
00001000
,
00010000
00000000
00000000
00000000
,
00000000
00000000
00000000
00000000
,
00001000
00010000
00001000
00010000
,
00001000
00000000
00100000
00000000
00010000
00100000
00010000
00000000
,
10000000
00010000
10000000
00010000
,
01000000
00000000
00001000
00000000
01000000
00001000
01000000
00000000
,
00001000
00010000
00001000
00010000
,
00000010
00000000
00001000
00000000
00000010
00000100
00000010
00000000
,
00001000
00000001
00001000
00000001
,
00001001
00000000
00001100
00010100
,
00010000
00000000
00001000
00000000
01000000
00010000
01000000
00000000
,
00100000
00000000
10000000
00000000
00010000
10000000
00010000
00000000
,
01000000
00000000
00001000
00000000
00010000
00001000
00010000
00000000
,
00000100
00000000
00001000
00000000
00000010
00000100
00000010
00000000
,
00001000
00000000
00000001
00000000
00001000
00000100
00001000
00000000
,
00000100
00000000
00010000
00000000
00001000
00010000
00001000
00000000
,
00100000
00000000
00010000
00000000
10000000
00010000
10000000
00000000
,
10010000
00000000
00110000
00101000
,
00001000
00010000
00001000
00010000
,
00000100
00001000
00000001
00000000
,
00001000
00000001
00001000
00000100
,
00010000
00001000
00010000
00000000
,
00001000
01000000
00010000
01000000
,
00100000
10000000
00010000
00000000
,
10000000
01000000
00010000
00001000
,
00000010
00000001
00001000
00000000
,
00000001
00000100
00001000
00000000
,
00010000
00100000
10000000
00000000
,
01000000
00010000
00001000
00000000
,
00000010
00000001
00001000
00000000
,
00000100
00000100
00010000
00010000
,
00001000
00001000
00100000
00100000
,
00010000
10000000
00100000
01000000
,
00010000
00100000
00001000
00011000
,
00010000
00000100
00001000
00000001
,
00001000
00000000
00000010
00000000
00010000
00001000
00010000
00000000
,
00001000
00100000
00010000
10000000
,
00010000
00000000
01000000
00000000
00001000
00010000
00001000
00000000
,
00010000
00001000
00000100
00000010
,
00001000
00000000
00000100
00000000
00000010
00000001
00000010
00000000
,
00000001
00000100
00001000
00010000
,
00001000
01000000
00010000
10010000
,
10000000
00000000
00010000
00000000
01000000
00100000
01000000
00000000
,
00010000
00000000
00100000
00000000
00001000
00010000
00001000
00000000
,
00010000
00000000
00000100
00000000
00001000
00000010
00001000
00000000
,
00000001
00000010
00000100
00001001
,
00000001
00000000
00001000
00000000
00000010
00000100
00000010
00000000
,
00001000
00000000
00000100
00000000
00010000
00001000
00010000
00000000
,
00001000
00100000
00010000
10000000
,
00100000
00010000
00001000
00000000
,
00011000
00000000
00000000
00000000
,
00000000
00000000
00000000
00000000
;
#NOTES:
     dance-double:
     :
     Medium:
     12:
     :
00000000
00000000
00000000
00000000
,
00000000
00000000
00000000
00000000
,
00020000
00000000
00031000
00010000
00000100
00001000
00000100
00000000
,
00002000
00000000
00003001
00001000
00000010
00000100
00000010
00000000
,
00001000
00001000
00000100
00010000
00001000
00100000
00010000
00000000
,
20000000
00000000
30010000
10000000
00100000
01000000
01100000
00000000
,
00200000
00000000
01300000
00010000
10000000
00100000
00010000
00001000
,
00020000
00000000
00031000
00010000
00001000
00000100
00000001
00000100
,
00000010
00000010
00001000
00000001
00000010
00001000
00010000
01000000
,
20000000
00000000
30100000
01000000
00010000
01000000
00001000
00010000
,
00001000
00010000
00001000
00010000
,
00000100
00001000
00000001
00001000
,
00000100
00000010
00000001
00001000
,
00000100
00010000
00001000
01000000
,
00010000
01000000
00010000
00000000
10000000
01000000
10000000
00000000
,
00010000
00100000
00010000
00000000
00100000
00001000
00100000
00000000
,
00001000
00010000
00001000
00010000
00001000
00010000
00001000
00010000
,
00000010
00001000
00000010
00001000
00000001
00000100
00000001
00000100
,
00000001
00000000
00000000
00000000
,
00000000
00000000
00000000
00000000
,
00001000
00000100
00001000
00000000
00000100
00010000
00000100
00000000
,
00010000
00001000
00010000
00000000
00001000
01000000
01000000
00000000
,
00010000
00100000
00010000
00000000
00100000
01000000
00100000
00000000
,
01000000
10000000
01000000
00000000
10000000
00010000
00010000
00000000
,
00100000
00001000
00100000
00000000
00001000
00010000
00001000
00000000
,
00010000
00000100
00010000
00000000
00000100
00001000
00001000
00000000
,
00000001
00000010
00000001
00000000
00000010
00000100
00000010
00000000
,
00000001
00000000
00000000
00000100
00000000
00000000
00001000
00000000
00010000
00000000
00001000
00000000
00010000
00000000
00000000
00000000
,
00001000
00100000
00010000
00010000
10000000
00010000
00010000
00000000
,
01000000
00001000
00010000
00010000
00000100
00010000
00010000
00000000
,
00001000
00010000
00000010
00000010
00001000
00000010
00000010
00000000
,
00000100
00000001
00000100
00000010
00001000
00000010
00001000
00000000
,
00000100
00010000
00001000
00001000
00100000
00001000
00001000
00000000
,
00010000
00001000
01000000
01000000
00010000
01000000
01000000
00000000
,
00100000
10000000
01000000
01000000
00100000
00010000
00010000
00000000
,
10000000
00000000
00000000
01000000
00000000
00000000
00010000
00000000
00001000
00000000
00010000
00000000
00001000
00000000
00000000
00000000
,
00010000
00000010
00010000
00000000
00000010
00000000
00001000
00000000
,
00000001
00000100
00000001
00000000
00000100
00000000
00000010
00000000
,
00001000
00000010
00001000
00000100
,
00010000
00001000
00010000
00000000
00001000
00000000
00010000
00000000
,
00001000
01000000
00001000
01000000
,
00010000
00100000
00010000
00000000
10000000
00000000
00100000
00000000
,
01000000
00010000
01000000
00010000
,
01000000
00001000
00010000
00000000
00001000
00000000
00010000
00000000
,
00000100
00001000
00000100
00001000
00000100
00000000
00001000
00000000
,
00000001
00001000
00000001
00001000
00000001
00000000
00001000
00000000
,
00000100
00010000
00000100
00010000
00000100
00000000
00010000
00000000
,
00001000
00100000
00001000
00100000
00001000
00000000
00100000
00000000
,
00010000
01000000
00010000
00000000
01000000
00100000
01000000
00000000
,
00100000
10000000
00100000
00000000
10000000
00010000
10000000
00000000
,
00010000
01000000
00010000
01000000
00001000
00010000
00001000
00010000
,
00000100
00001000
00000001
00001001
,
00001000
00000100
00010000
00000000
00001000
00010000
00001000
00000000
,
00100000
00010000
00100000
00010000
10000000
00100000
10000000
00000000
,
00010000
01000000
00001000
00000000
00010000
00001000
00010000
00000000
,
00001000
00001000
00010000
00010000
00001000
01000000
00010000
00000000
,
01000000
00001000
00010000
00000000
00001000
00010000
00001000
00000000
,
00010000
00000100
00001000
00000100
00000010
00000001
00000010
00000000
,
00000001
00000100
00000010
00000000
00001000
00000100
00010000
00000000
,
00001000
00100000
00010000
01000000
00010000
00000000
10010000
00000000
,
10000000
01000000
10000000
01000000
00100000
00010000
00100000
00000000
,
00001000
00010000
00001000
00010000
00000010
00001000
00000010
00000000
,
00001000
00000100
00001000
00000100
00010000
00001000
00010000
00000000
,
00001000
01000000
00001000
01000000
00010000
10000000
00100000
00000000
,
10000000
01000000
00100000
00010000
00100000
00001000
00010000
00000000
,
00001000
00010000
00000010
00001000
00000100
00000010
00000001
00000000
,
00001000
00000010
00010000
00001000
00100000
00010000
10000000
01000000
,
00100000
00010000
01000000
00001000
00010000
00000000
00000000
00000000
,
00001001
00000000
00000000
00000000
,
00000000
00000000
00000000
00000000
;
#NOTES:
     dance-double:
     :
     Hard:
     15:
     :
00000000
00000000
00000000
00000000
,
00000000
00000000
00000000
00000000
,
00000002
00000000
00000000
00000000
00000013
00000100
00000010
00000000
00000001
00000000
00000100
00000010
00001000
00000000
00000010
00000000
,
00020000
00000000
00000000
00031000
00010000
00001000
01000000
00000000
00010000
00000000
10000000
00100000
10000000
00010000
01000000
00000000
,
01001000
00000000
00011000
00000000
00010000
00000100
00010000
00000000
00000200
00000000
00002300
00000000
00003001
00000010
00000100
00001000
,
00000200
00000000
00000000
00000000
00010300
00001000
00010000
00000000
00001000
00000000
00100000
00010000
10000000
00000000
10010000
00000000
,
20000000
00000000
00000000
00000000
31000000
00010000
00001000
00000000
00010000
00000000
00001000
00000010
00000100
00000010
00000001
00000000
,
00002000
00000000
00000000
00000000
00003001
00000100
00001000
00000000
00010000
00000000
00001000
00010000
00100000
01000000
00100000
00000000
,
20000000
00000000
30020000
00000000
10030000
01000000
00100000
00000000
00001000
00000000
00010000
00000100
00001000
00000100
00000010
00000001
,
00002000
00000000
00000000
00000000
00003001
00000100
00000010
00000000
00010000
00000000
00001000
01000000
00010000
01000000
00100000
00000000
,
10000000
00100000
01000000
00010000
,
10000000
00100000
00010000
00001000
00000100
00000000
00000001
00000000
,
00000010
00000100
00001000
00000100
00000010
00000000
00000001
00000000
,
00000100
00001000
00010000
00100000
10000000
00000000
00010000
00000000
,
00100000
00001000
00010000
00001000
00100000
00001000
00010000
00001000
,
00010000
00000010
00010000
00001000
00010000
00000010
00010000
00001000
,
00010000
00000100
00001000
00000010
00000100
00000001
00001000
00000001
,
00000010
00000100
00000010
00000100
00000010
00000100
00000010
00000100
00001000
00000100
00001000
00000100
00001000
00000100
00001000
00000100
,
00001000
00000000
00000000
00000000
,
00000000
00000000
00000000
00000000
,
00000001
00000100
00000001
00000000
00000100
00000000
00000010
00000000
00001000
00000010
00001000
00000000
00000010
00000000
00010000
00000000
,
00001000
00100000
00001000
00000000
00100000
00000000
00010000
00000000
01000000
00000000
00100000
00000000
00100000
00000000
00000000
00000000
,
10000000
01000000
10000000
00000000
01000000
00000000
00100000
00000000
00010000
00100000
00010000
00000000
00100000
00000000
00001000
00000000
,
00010000
00000100
00010000
00000000
00000100
00000000
00001000
00000000
00000010
00000000
00000100
00000000
00000100
00000000
00000000
00000000
,
00000001
00000010
00000100
00000000
00001000
00000000
00000100
00000000
00010000
00001000
01000000
00000000
00010000
00000000
01000000
00000000
,
00100000
10000000
01000000
00000000
10000000
00000000
00010000
00000000
00100000
00000000
00010000
00000000
00010000
00000000
00000000
00000000
,
10000000
01000000
00100000
00000000
00010000
00000000
00100000
00000000
00001000
00010000
00000010
00000000
00001000
00000000
00000010
00000000
,
00000100
00000000
00000001
00001000
00000000
00001000
00000100
00001000
00000100
00000000
00010000
00000000
00001000
00000000
00000000
00000000
,
00100000
00000000
00010000
00100000
01000000
00000000
01000000
00000000
10000000
01000000
10000000
00000000
10000000
00000000
00000000
00000000
,
00010000
00000000
01000000
00001000
00010000
00000000
00010000
00000000
00000010
00001000
00000010
00000000
00000010
00000000
00000000
00000000
,
00001000
00000000
00000001
00000100
00000010
00000000
00000010
00000000
00001000
00000010
00001000
00000000
00001000
00000000
00000000
00000000
,
00000100
00000000
00010000
00001000
00010000
00001000
00000000
01000000
00010000
00000000
10000000
00000000
10010000
00000000
00000000
00000000
,
10000000
00000000
01000000
00100000
00010000
00000000
00010000
00000000
00100000
00001000
00100000
00000000
00100000
00000000
00000000
00000000
,
00001000
00000000
00010000
00000100
00001000
00000000
00001000
00000000
00000001
00000100
00000001
00000000
00000001
00000000
00000000
00000000
,
00001000
00000000
00000100
00010000
00001000
00000000
00001000
00000000
00100000
00001000
00100000
00000000
00100000
00000000
00000000
00000000
,
00010000
00000000
10000000
00010000
00000000
00010000
01000000
00010000
01000000
00000000
00001000
00000000
00011000
00000000
00000000
00000000
,
00001000
00000100
00000001
00000100
00001000
00000000
00010000
00001000
,
00010000
00100000
10000000
00100000
00010000
00000000
00001000
00010000
,
00000010
00001000
00000100
00000010
00000001
00000000
00001000
00000100
,
00010000
00001000
01000000
00000000
00001000
00010000
00000100
00000000
00001000
00000000
00000000
00000000
00000100
00000010
00000001
00000000
,
00000100
00001000
00010000
00100000
10000000
00000000
00010000
10000000
,
01000000
00010000
00001000
00000000
00010000
00001000
00000010
00000000
00000001
00000000
00000000
00000000
00000100
00000000
00000010
00000000
,
00000100
00000001
00000010
00000100
00001000
00000000
00000001
00001000
,
00000010
00010000
00001000
00000000
00100000
00001000
00010000
00000000
00001000
00000000
00000000
00000000
01000000
00000000
00000000
00000000
,
00010000
00100000
00001000
00010000
00100000
10000000
00010000
00000000
,
10000000
01000000
00010000
00001000
00000010
00000001
00001000
00000000
,
00000010
00010000
00001000
00000100
00000001
00001000
00000001
00000000
,
00000010
00001000
00010000
01000000
10000000
00010000
01000000
00000000
,
00001000
00010000
00001000
00010000
00000100
00001000
00000100
00001000
,
00000001
00000010
00000100
00001000
00000010
00010000
00001000
00010000
,
00001000
01000000
00001000
01000000
00010000
01000000
00010000
01000000
00100000
10000000
00100000
10000000
00010000
10000000
00010000
10000000
,
00010000
10000000
01100000
10010000
,
10000000
00000000
00010000
00100000
00010000
00000000
00100000
00000000
00001000
00010000
00001000
00000000
00010000
00000000
00000100
00000000
,
00001000
00000000
00000001
00001000
00000001
00000000
00000100
00000000
00000010
00001000
00000010
00001000
00000010
00000000
00000000
00000000
,
00010000
00000000
00000100
00010000
00000100
00000000
00010000
00000000
00001000
01000000
00001000
00000000
01000000
00000000
00010000
00000000
,
10000000
01000000
10000000
00000000
01000000
00100000
01000000
00000000
00100000
00010000
00100000
00000000
00001000
00000000
00000000
00000000
,
00010000
00000000
00000010
00001000
00000010
00000000
00001000
00000000
00000001
00000100
00000001
00000000
00001000
00000000
00000100
00000000
,
00010000
00000000
00001000
00100000
00001000
00000000
00100000
00000000
00010000
10000000
00010000
10000000
00010000
00000000
00000000
00000000
,
01000000
00000000
00001000
01000000
00001000
00000000
00010000
00000000
00000010
00001000
00000010
00000000
00000100
00000000
00000001
00000000
,
00001000
00000100
00001000
00000100
00001000
00000000
00000100
00000000
00010000
00000000
00001000
00000000
00011000
00000000
00000000
00000000
,
00001000
00000000
00100000
00000000
00010000
00000000
10000000
00000000
01000000
00100000
00010000
00000000
01000000
00000000
00001000
00000000
,
00010000
00000000
00000010
00000000
00001000
00000000
00000010
00000000
00000100
00000001
00000100
00000001
00000100
00000000
00000001
00000000
,
00001000
00000000
00000100
00000000
00000010
00000000
00000001
00000000
00001000
00000100
00010000
00000000
00001000
00000000
01000000
00000000
,
00010000
00000000
00100000
00000000
01000000
00000000
10000000
00000000
00010000
00100000
00001000
00000000
00010000
00000000
00000000
00000000
,
00001000
00000000
00000100
00000000
00000001
00000000
00001000
00000000
00000100
00010000
00001000
00000000
00010000
00000000
00100000
00000000
,
10000000
00000000
01000000
00000000
00100000
00000000
01000000
00000000
10000000
00010000
10000000
00010000
10000000
00000000
00010000
00000000
,
10000000
01000000
00010000
00001000
00000010
00000001
00001000
00000100
,
00010000
00001000
00010000
00001000
00010000
00000000
00001000
00000000
00010000
00000000
01000000
00000000
10000000
00000000
00000000
00000000
,
10010000
00000000
00000000
00000000
,
00000000
00000000
00000000
00000000
;
