
//----- song ID: suhr -----//
#TITLE:SUPER HEROINE!!;
#ARTIST:Amateras Records vs BEMANI Sound Team "TATSUYA" feat. miko;
#BANNER:SUPER HEROINE!!.png;
#BACKGROUND:SUPER HEROINE!!-bg.png;
#CDTITLE:./CDTitles/DDR WORLD.png;
#MUSIC:SUPER HEROINE!!.ogg;
#SAMPLESTART:70.294;
#SAMPLELENGTH:15;
#BPMS:0=186;
#NOTES:
     dance-single:
     :
     Beginner:
     2:
     :
0000
0000
0000
0000
,
0000
0000
0000
0000
,
0000
0000
0000
0000
,
0000
0000
0000
0000
,
0000
0000
0000
0000
,
0000
0000
0000
0000
,
0001
0000
0000
0000
,
0000
0000
0000
0000
,
0001
0000
0000
0000
,
0000
0000
0000
0000
,
0020
0000
0000
0000
,
0030
0000
0000
0000
,
0020
0000
0000
0000
,
0030
0000
0000
0000
,
0010
0000
0000
0000
,
0010
0000
0000
0000
,
1000
0000
0000
0000
,
0000
0000
0000
0000
,
1000
0000
0000
0000
,
0000
0000
0000
0000
,
0001
0000
0000
0000
,
0000
0000
0000
0000
,
0001
0000
0000
0000
,
0001
0000
0000
0000
,
0010
0000
0000
0000
,
0000
0000
0000
0000
,
0001
0000
0000
0000
,
0010
0000
0000
0000
,
0001
0000
0000
0000
,
0000
0000
0000
0000
,
0010
0000
0000
0000
,
0010
0000
0000
0000
,
1000
0000
0000
0000
,
0000
0000
0000
0000
,
0010
0000
0000
0000
,
1000
0000
0000
0000
,
0010
0000
0000
0000
,
0000
0000
0000
0000
,
2000
0000
0000
0000
,
3000
0000
0000
0000
,
1000
0000
0000
0000
,
1000
0000
0000
0000
,
0020
0000
0000
0000
,
0030
0000
0000
0000
,
0010
0000
0000
0000
,
0010
0000
0000
0000
,
0001
0000
0000
0000
,
0000
0000
0000
0000
,
1000
0000
0000
0000
,
0000
0000
0000
0000
,
0001
0000
0000
0000
,
0000
0000
0000
0000
,
1000
0000
0000
0000
,
0000
0000
0000
0000
,
0000
0000
0000
0000
,
1000
0000
0000
0000
,
1000
0000
0000
0000
,
0100
0000
0000
0000
,
0000
0000
0000
0000
,
1000
0000
0000
0000
,
1000
0000
0000
0000
,
0010
0000
0000
0000
,
0000
0000
0000
0000
,
0001
0000
0000
0000
,
0001
0000
0000
0000
,
0100
0000
0000
0000
,
0000
0000
0000
0000
,
0001
0000
0000
0000
,
0001
0000
0000
0000
,
0010
0000
0000
0000
,
0000
0000
0000
0000
,
0020
0000
0000
0000
,
0030
0000
0000
0000
,
0020
0000
0000
0000
,
0030
0000
0000
0000
,
1000
0000
0000
0000
,
1000
0000
0000
0000
,
0010
0000
0000
0000
,
0000
0000
0000
0000
,
1001
0000
0000
0000
,
0000
0000
0000
0000
;
#NOTES:
     dance-single:
     :
     Easy:
     5:
     :
0000
0000
0000
0000
,
0000
0000
0000
0000
,
0000
0000
0000
0000
,
0000
0000
0000
0000
,
0000
0000
0000
0000
,
0000
0000
0000
0000
,
0001
0000
0001
0000
,
0010
0000
0000
0000
,
0100
0000
0100
0000
,
1000
0000
0000
0000
,
1001
0000
0000
0000
,
0110
0000
0000
0000
,
1001
0000
0000
0000
,
0110
0000
0000
0000
,
1000
0100
0010
0000
,
0100
0010
0001
0000
,
0001
0100
0010
0000
,
0020
0000
0000
0030
,
0010
0000
0100
0000
,
0110
0000
0000
0000
,
1000
0001
1000
0000
,
0002
0000
0000
0003
,
0001
0000
0001
0000
,
0100
0000
0100
0000
,
0010
0000
1000
0000
,
0010
1000
0010
0000
,
1000
0000
1000
0000
,
0100
0000
0100
0000
,
0010
0000
0001
0000
,
1001
0000
0000
0000
,
0001
0100
0001
0000
,
0100
0000
0010
0000
,
1000
0010
1000
0000
,
0100
0000
0100
0000
,
1000
0100
1000
0000
,
0100
0000
0010
0000
,
0001
0000
1000
0000
,
1001
0000
0000
0000
,
0001
0000
0001
0000
,
0010
0010
0100
0000
,
1000
0000
1000
0000
,
0010
0010
0100
0000
,
0001
0000
0001
0000
,
0100
0100
0010
0000
,
1000
0000
1000
0000
,
0100
0100
0010
0000
,
0001
0000
0100
0000
,
0001
0100
0001
0000
,
1000
0000
0100
0000
,
1000
0100
1000
0000
,
0001
1000
0001
1000
,
0001
0000
1000
0000
,
0010
0100
0010
0000
,
0110
0000
0000
0000
,
0000
0000
0000
0000
,
1000
1000
0010
0100
,
0001
0000
1000
0000
,
0001
0001
0010
0000
,
1001
0000
0000
0000
,
1000
0000
0100
0000
,
0001
0000
0100
0000
,
1000
0000
0001
0000
,
1001
0000
0000
0000
,
0001
0001
0100
0010
,
1000
0000
0001
0000
,
1000
1000
0100
0000
,
1001
0000
0000
0000
,
0001
0000
0010
0000
,
1000
0000
0010
0000
,
0001
0000
1000
0000
,
1001
0000
0000
0000
,
0002
0000
0000
0003
,
2000
0000
0000
3000
,
0020
0000
0000
0030
,
0200
0000
0000
0300
,
0001
0100
0001
0000
,
0100
0010
1000
0000
,
1000
0100
1000
0000
,
0100
0010
0001
0000
,
2000
0000
0000
0000
,
0000
0000
0000
0000
,
3000
0000
0000
0000
,
0000
0000
0000
0000
;
#NOTES:
     dance-single:
     :
     Medium:
     8:
     :
0000
0000
0000
0000
,
0000
0000
0000
0000
,
0000
0000
0000
0000
,
0000
0000
0000
0000
,
0000
0000
0000
0000
,
0000
0000
0000
0000
,
1001
0000
0000
0000
,
0110
0000
0000
0000
,
1001
0000
0000
0000
,
0110
0000
0000
0000
,
1000
0001
1000
0000
,
0001
1000
0001
0000
,
0010
0100
0010
0000
,
0100
0010
0100
0000
,
1000
0100
0010
0001
,
1000
0100
0010
0001
,
1000
0100
1000
0000
0001
0000
0100
0000
,
0020
0000
0000
0030
,
0110
0000
0000
0000
,
1001
0000
0000
0000
,
0110
0000
0000
0000
1000
0001
1000
0000
,
0002
0000
0000
0003
,
0001
0000
0100
0010
0100
0000
0010
0000
,
1000
0000
0100
0000
0010
0001
0010
0000
,
0001
0000
1000
0001
1000
0000
0010
0000
,
0100
0100
0010
0010
,
1000
0000
0001
0100
0001
0000
1000
0000
,
0100
0000
0010
0000
0001
1000
0001
0000
,
0100
0010
1000
0000
0100
0010
0001
2000
,
0000
0000
0000
3000
,
1000
0000
0010
0100
0010
0000
0100
0000
,
0001
0000
0010
0000
0100
1000
0100
0000
,
1000
0000
0001
1000
0001
0000
0100
0000
,
0010
0010
0100
0100
,
0001
0000
1000
0010
1000
0000
0001
0000
,
0010
0000
0100
0000
1000
0001
1000
0000
,
1001
0000
0000
0000
0010
0100
0010
0200
,
0000
0000
0000
0300
,
0110
0000
0110
0000
,
1001
0000
1001
0000
,
1000
0100
0010
0000
,
0001
0100
0010
0000
,
2000
0000
3001
0000
,
0002
0000
1003
0000
,
2000
0000
3100
0000
,
0010
0010
0001
0000
,
0001
1000
0001
0000
,
0001
0010
0001
0000
,
1000
0001
1000
0000
,
1000
0010
1000
0000
,
0001
0100
1000
0000
,
0100
0000
0001
0000
,
1000
0100
0001
0000
,
0200
0000
0000
0000
,
0300
0000
0000
0000
1000
0001
1000
0000
,
0001
0100
0001
0000
1000
0100
0010
0001
,
0000
1000
0001
1000
,
0010
0100
0010
0000
1000
0010
0100
0001
,
0000
0001
0000
0001
0000
0000
1001
0000
,
1000
0000
0100
0010
0000
0010
0001
0000
,
1000
0010
0000
0010
0000
0000
1000
0000
,
0001
0000
0100
0010
0000
0010
0000
1000
,
0000
0001
1000
0001
0000
0000
0000
0000
,
1000
0010
1000
0000
0001
0010
0100
1000
,
0000
0001
1000
0001
,
0100
0010
0100
0000
0001
0100
0010
1000
,
0000
1000
0000
1000
0000
0000
1001
0000
,
0001
0000
0010
0100
0000
0100
1000
0000
,
0001
0100
0000
0100
0000
0000
0001
0000
,
1000
0000
0010
0100
0000
0100
0000
0001
,
0000
0000
1000
0001
,
1001
1000
1001
0000
,
0110
0100
0110
0000
,
1001
0000
0110
0000
,
1001
0001
1001
0000
,
1000
0000
0010
0000
0100
0001
0010
0000
,
0100
0000
1000
0000
0010
1000
0100
0000
,
0010
0001
1000
0000
0010
1000
0001
0000
,
0200
0000
0020
0330
,
2002
0000
0000
0000
,
0000
0000
0000
0000
,
3003
0000
0000
0000
,
0000
0000
0000
0000
;
#NOTES:
     dance-single:
     :
     Hard:
     13:
     :
0000
0000
0000
0000
,
0000
0000
0000
0000
,
0000
0000
0000
0000
,
0000
0000
0000
0000
,
0000
0000
0000
0000
,
0000
0000
0000
0000
,
0001
0000
0000
0000
0000
0000
0000
0000
0001
0000
0000
0001
0000
0000
0001
0000
,
0000
0000
1000
0000
1000
0000
0000
0000
1000
0000
0000
1000
0000
0000
1000
0000
,
0010
0000
0000
0000
0010
0000
0000
0000
0010
0000
0000
0010
0000
0000
0010
0000
,
0100
0010
0100
0000
0220
0000
0330
0000
,
2002
0000
0000
0000
0000
0000
0000
0000
3003
0000
0000
0000
1000
0000
0100
0010
,
0002
0000
0000
0000
0000
0000
0000
0000
0003
0000
0000
0000
0001
0100
0010
0000
,
2000
0000
0000
3000
,
1000
0000
0000
0000
1001
0000
0000
0000
0001
1000
0001
0000
1000
0001
1000
0000
,
0001
0100
0010
1000
0001
0100
0010
1000
,
0001
0010
0100
1000
0001
0010
0100
1000
,
0001
0100
0010
1000
0100
0010
0001
1000
,
0002
0000
0000
0003
,
0101
0000
0000
0000
0000
0000
0000
0000
1000
0000
0000
0010
0000
0000
1000
0000
,
1010
0000
0000
0000
,
1100
0000
0000
0000
0001
0010
0001
0010
,
0002
0000
0000
0003
,
0001
0100
0001
0100
0010
1000
0010
1000
,
0100
0010
0100
1000
0010
0100
0010
1000
,
0100
0010
0001
0010
0100
1000
0001
0100
,
0001
0100
1000
0000
0001
0010
1000
0000
,
0001
0010
0001
0010
0100
1000
0100
1000
,
0010
0100
0010
1000
0100
0010
0100
1000
,
0010
0100
0001
0010
0001
0100
0010
1000
,
0100
0000
0001
0000
0100
0000
1000
0000
0001
1000
0001
1000
0001
0000
0000
0000
,
1000
0100
1000
0100
0010
0001
0010
0001
,
0100
0010
0100
0001
0010
0100
0010
0001
,
0100
0010
1000
0010
0100
0001
1000
0100
,
1000
0100
0001
0000
1000
0010
0001
0000
,
1000
0010
1000
0010
0100
0001
0100
0001
,
0010
0100
0010
0001
0100
0010
0100
0001
,
0010
0000
0000
0000
0001
1000
0001
1000
,
0020
0230
0320
0230
,
0302
0000
0103
0000
,
2000
0000
3100
0000
,
0002
0000
0013
0000
,
2000
0000
3010
0000
,
0002
0000
0100
0000
,
0010
0000
0103
0000
,
2000
0000
0100
0000
,
0010
0010
3100
0000
,
2200
0000
0000
3300
,
0202
0000
0000
0303
,
0022
0000
0000
0033
,
2020
0000
0000
3030
,
1000
0100
0001
0000
1000
0010
0001
0000
,
1000
0100
0001
0000
1000
0010
0001
0000
,
0001
0100
1000
0000
0001
0010
1000
0000
,
2002
0000
0000
0000
,
0000
0000
3003
0000
1000
0010
0100
0001
,
0010
0100
1000
0010
0100
1000
0100
0001
,
0020
0000
1000
0000
0031
0100
0001
0010
,
0100
0001
0100
1000
0001
0100
0010
1010
,
0000
1100
0000
0011
0000
0001
1000
0001
,
1000
0100
0001
0100
0000
0100
1000
0010
,
0001
0010
1000
0010
0000
0100
0010
0100
,
0101
0001
1000
1100
0000
0110
0000
1001
,
0000
1000
0002
2000
0000
0000
3003
0000
,
0001
1000
0001
0100
0010
0001
0010
1000
,
0200
0000
0001
0000
1300
0010
1000
0100
,
0010
1000
0010
0001
1000
0010
0100
0101
,
0000
0011
0000
1100
0000
1000
0001
1000
,
0001
0010
1000
0010
0000
0010
0001
0100
,
1000
0100
0001
0100
0000
0010
0100
0010
,
1010
1000
0001
0011
0000
0110
0000
1001
,
0000
0001
1000
0001
0100
0000
0110
0000
,
1000
0010
1000
0010
1000
0010
1000
0000
,
0001
0100
0001
0100
0001
0100
0001
0000
,
1000
0100
1000
0100
1000
0100
1000
0000
,
0001
0010
0001
0010
0001
0010
0001
0000
,
1000
0100
0010
0001
1000
0100
0010
0100
,
1000
0010
0100
0001
1000
0010
0100
0010
,
1000
0100
0010
0001
0100
0010
1000
0100
,
0020
1000
0100
0031
,
2002
0000
0000
0000
,
0000
0000
0000
0000
,
3003
0000
0000
0000
,
0000
0000
0000
0000
;
#NOTES:
     dance-double:
     :
     Easy:
     5:
     :
00000000
00000000
00000000
00000000
,
00000000
00000000
00000000
00000000
,
00000000
00000000
00000000
00000000
,
00000000
00000000
00000000
00000000
,
00000000
00000000
00000000
00000000
,
00000000
00000000
00000000
00000000
,
00001000
00000000
00010000
00000000
,
00001000
00000000
00000000
00000000
,
00001000
00000000
01000000
00000000
,
00010000
00000000
00000000
00000000
,
10010000
00000000
00000000
00000000
,
01100000
00000000
00000000
00000000
,
10000000
00000000
01000000
00000000
,
00010000
00000000
00000000
00000000
,
00001000
00010000
00001000
00000000
,
00010000
00000100
00001000
00000000
,
00000010
00000100
00000010
00000000
,
00000110
00000000
00000000
00000000
,
00000001
00000000
00000100
00000000
,
00001000
00000000
00000000
00000000
,
00010000
00001000
00010000
00000000
,
00002000
00000000
00000000
00003000
,
00001000
00000000
00001000
00000000
,
01000000
00000000
01000000
00000000
,
00010000
00000000
00010000
00000000
,
10000000
00100000
10000000
00000000
,
10000000
00000000
10000000
00000000
,
01000000
00000000
01000000
00000000
,
00100000
00000000
00001000
00000000
,
00011000
00000000
00000000
00000000
,
00010000
00000000
00010000
00000000
,
00000100
00000000
00000100
00000000
,
00001000
00000000
00001000
00000000
,
00000001
00000010
00000001
00000000
,
00000001
00000000
00000001
00000000
,
00000100
00000000
00000100
00000000
,
00000010
00000000
00010000
00000000
,
00011000
00000000
00000000
00000000
,
00001000
00000000
00010000
00000000
,
00100000
00000000
00000000
00000000
,
10000000
00000000
00010000
00000000
,
10000000
00000000
00000000
00000000
,
10000000
00000000
01000000
00000000
,
00010000
00000000
00000000
00000000
,
00001000
00000000
00010000
00000000
,
00001000
00000000
00000000
00000000
,
00010000
00000000
00001000
00000000
,
00000010
00000100
00000010
00000000
,
00000001
00000000
00001000
00000000
,
00000010
00000100
00000010
00000000
,
00001000
00000000
00000010
00000000
,
00010000
00001000
00010000
00000000
,
00001000
01000000
00010000
01000000
,
00100000
00000000
00000000
00000000
,
00000000
00000000
00000000
00000000
,
10000000
01000000
00100000
00010000
,
10000000
00000000
00010000
00000000
,
10000000
01000000
00010000
00000000
,
00001000
00001000
00010000
00000000
,
00001000
01000000
00010000
00000000
,
00100000
00001000
00010000
00000000
,
00001000
00010000
00000010
00001000
,
00000001
00000000
00000000
00000000
,
00000001
00000100
00000010
00001000
,
00000001
00000000
00001000
00000000
,
00000001
00000100
00001000
00000000
,
00010000
00010000
00001000
00000000
,
00010000
00000100
00001000
00000000
,
00000010
00010000
00001000
00000000
,
00010000
00001000
00100000
00010000
,
10000000
00000000
00000000
00000000
,
00020000
00000000
00000000
00030000
,
02000000
00000000
00000000
03000000
,
00002000
00000000
00000000
00003000
,
00020000
00000000
00000000
00030000
,
00000100
00001000
00000100
00000000
,
00000010
00000001
00000010
00000000
,
00000001
00000100
00001000
00000000
,
00010000
00000000
00001000
00000000
,
00022000
00000000
00000000
00000000
,
00000000
00000000
00000000
00000000
,
00033000
00000000
00000000
00000000
,
00000000
00000000
00000000
00000000
;
#NOTES:
     dance-double:
     :
     Medium:
     8:
     :
00000000
00000000
00000000
00000000
,
00000000
00000000
00000000
00000000
,
00000000
00000000
00000000
00000000
,
00000000
00000000
00000000
00000000
,
00000000
00000000
00000000
00000000
,
00000000
00000000
00000000
00000000
,
00011000
00000000
00000000
00000000
,
00101000
00000000
00000000
00000000
,
01100000
00000000
00000000
00000000
,
10010000
00000000
00000000
00000000
,
10000000
00000000
01000000
00000000
,
00100000
00001000
00010000
00000000
,
00001000
00000000
00010000
00000000
,
00000100
00001000
00000010
00000000
,
00001000
00000100
00000010
00000001
,
00000100
00000010
00001000
00000010
,
00010000
00001000
00100000
00010000
,
02000000
00000000
00000000
03000000
,
01100000
00000000
00000000
00000000
,
10010000
00000000
00000000
00000000
,
10000000
00000000
01000000
00000000
00010000
00001000
00010000
00000000
,
00002000
00000000
00000000
00003000
,
00001000
00000000
00010000
00000000
00000010
00001000
00000010
00000000
,
00000100
00000000
00001000
00000000
00000100
00000001
00000100
00000000
,
00000010
00000000
00010000
00001000
00020000
00000000
00030000
00000000
,
00001000
00100000
00001000
00000000
01000000
00010000
01000000
00000000
,
00100000
00000000
10000000
01000000
00100000
00000000
00001000
00000000
,
00010000
00000100
00010000
00000000
00000010
00001000
00000100
00001000
,
00000010
00000000
00000100
00000000
00001000
00010000
00001000
00020000
,
00000000
00000000
00000000
00030000
,
00010000
00000000
00001000
00000000
00100000
00010000
00100000
00000000
,
01000000
00000000
00010000
00000000
01000000
10000000
01000000
00000000
,
00100000
00000000
00001000
00010000
00002000
00000000
00003000
00000000
,
00010000
00000010
00010000
00000000
00000100
00001000
00000100
00000000
,
00000010
00000000
00000001
00000100
00000010
00000000
00010000
00000000
,
00001000
01000000
00001000
00000000
00100000
00010000
01000000
00010000
,
00100000
00000000
01000000
00000000
00010000
00001000
00010000
00002000
,
00000000
00000000
00000000
00003000
,
00001000
00010000
00000010
00001000
,
00000001
00000100
00000001
00000000
00001000
00000100
00001000
00000000
,
00000001
00000100
00001000
00010000
,
00100000
10000000
00010000
00000000
,
10000000
00100000
01000000
00010000
,
10000000
01000000
10000000
00000000
00010000
01000000
00010000
00000000
,
00100000
00001000
00011000
00000000
,
00010000
00010000
00001000
00000000
,
00010000
00000000
00001000
00000000
,
00000100
00000001
00001000
00000000
,
00000001
00000000
00000010
00000000
,
00001000
00010000
00001000
00000000
,
00010000
00000000
01000000
00000000
,
10000000
00010000
01000000
00000000
,
00100000
00010000
00001000
00000000
,
00022000
00000000
00000000
00000000
,
00000000
00000000
00033000
00000000
,
00001000
00000000
00010000
00000000
00000010
00001000
00000010
00001000
,
00000000
00001000
00000001
00001000
,
00000010
00000000
00000100
00000000
00001000
00010000
00001000
00010000
,
00000000
00010000
00000000
00011000
00000000
00000000
00001000
00000000
,
01000000
00000000
00010000
00100000
00000000
00100000
01000000
00000000
,
10000000
00010000
00000000
00010000
00000000
00000000
00100000
00000000
,
00001000
00000000
00010000
00000100
00000000
00000010
00000000
00001000
,
00000000
00010000
00001000
00010000
00000000
00000000
00000000
00000000
,
00010000
00000000
00001000
00000000
00100000
00010000
00100000
00010000
,
00000000
00010000
10000000
00010000
,
00100000
00000000
01000000
00000000
00010000
00001000
00010000
00001000
,
00000000
00001000
00000000
00011000
00000000
00000000
00010000
00000000
,
00000100
00000000
00001000
00000010
00000000
00000010
00000100
00000000
,
00000001
00001000
00000000
00001000
00000000
00000000
00000010
00000000
,
00010000
00000000
00001000
01000000
00000000
00100000
00000000
00010000
,
00000000
00000000
00010000
00001000
,
00011000
00000000
00010000
00000100
,
00000110
00000000
00000001
00001000
,
00001001
00000000
00000001
00000100
,
00001000
00010000
00001000
00000000
,
00010000
00000000
00001000
00000000
00100000
00010000
00100000
00000000
,
00010000
00000000
10000000
00000000
01000000
00100000
01000000
00000000
,
10000000
00000000
01000000
00000000
00010000
00000000
00001000
00000010
,
00000002
00000000
00002000
00003003
,
00000220
00000000
00000000
00000000
,
00000000
00000000
00000000
00000000
,
00000330
00000000
00000000
00000000
,
00000000
00000000
00000000
00000000
;
#NOTES:
     dance-double:
     :
     Hard:
     13:
     :
00000000
00000000
00000000
00000000
,
00000000
00000000
00000000
00000000
,
00000000
00000000
00000000
00000000
,
00000000
00000000
00000000
00000000
,
00000000
00000000
00000000
00000000
,
00000000
00000000
00000000
00000000
,
00011000
00000000
00000000
00000000
00000000
00000000
00000000
00000000
00010000
00000000
00000000
00001000
00000000
00000000
00000010
00000000
,
00000000
00000000
00000010
00000000
00000001
00000000
00000000
00000000
00001000
00000000
00000000
00000001
00000000
00000000
00001000
00000000
,
00000001
00000000
00000000
00000000
00001001
00000000
00000000
00000000
00001000
00000000
00000000
00000100
00000000
00000000
00010000
00000000
,
00001000
00010000
00001000
00000000
00022000
00000000
00033000
00000000
,
00001000
00010000
00100000
10000000
00010000
01000000
00100000
10000000
,
01000000
00010000
01000000
00100000
01000000
10000000
00010000
00000000
,
10000000
01000000
00010000
00001000
00000010
00000001
00001000
00000100
,
00000010
00000001
00000100
00000010
00001000
00000001
00001000
00000000
,
00000001
00000100
00000001
00000100
00000010
00001000
00000010
00001000
,
00010000
01000000
00010000
01000000
00100000
10000000
00100000
10000000
,
00010000
00100000
01000000
10000000
00100000
01000000
00010000
00100000
,
00002000
00000000
00000000
00003000
,
00011000
00000000
00000000
00000000
00000000
00000000
00000000
00000000
00010000
00000000
00000000
00001000
00000000
00000000
00000100
00000000
,
00000101
00000000
00000000
00000000
,
00001001
00000000
00000000
00000000
00000001
00000010
00001000
00010000
,
00002000
00000000
00000000
00003000
,
00001000
00010000
00100000
00000000
10000000
00010000
01000000
00000000
,
10000000
01000000
00100000
01000000
00010000
10000000
01000000
00100000
,
00010000
10000000
01000000
00000000
00010000
00001000
00000010
00000100
,
00010000
00000010
00000100
00000000
00001000
00000100
00000010
00000000
,
00001000
00000001
00000010
00000000
00001000
00010000
01000000
00000000
,
00100000
00010000
01000000
00010000
10000000
01000000
00100000
00001000
,
00010000
00100000
01000000
00100000
00010000
00001000
00010000
01000000
,
00100000
00000000
00010000
00000000
10000000
00000000
01000000
00000000
00010000
00000000
00001000
00010000
00001000
00000000
00000000
00000000
,
00010000
00001000
00000010
00000000
00000001
00001000
00000100
00000000
,
00000001
00000100
00000010
00000100
00001000
00000001
00000100
00000010
,
00001000
00000001
00000100
00000000
00001000
00010000
00100000
01000000
,
00001000
00100000
01000000
00000000
00010000
01000000
00100000
00000000
,
00010000
10000000
00100000
00000000
00010000
00001000
00000100
00000000
,
00000010
00001000
00000100
00001000
00000001
00000100
00000010
00010000
,
00002000
00000000
00003000
00000000
00001000
00010000
00001000
00100000
,
00020000
00000000
20000000
30030000
,
10000000
01000000
00020000
00000000
,
00031000
00000010
00000002
00000003
,
00000001
00000100
00002000
00000000
,
00013000
00100000
20000000
30000000
,
10000000
00100000
00020000
00000000
,
00031000
00000100
00000002
00000003
,
00000001
00000010
00002000
00000000
,
00013000
01000000
20000000
30000000
,
10000000
00000000
10000000
01000000
00100000
00000000
00000000
00000000
,
00100000
00010000
00100000
00001000
00010000
00000000
00000000
00000000
,
00001000
00000000
00001000
00010000
00000010
00000000
00000000
00000000
,
00000010
00001000
00000001
00000100
00000001
00000000
00000000
00000000
,
00000001
00000100
00001000
00010000
00100000
00000000
00000000
00000000
,
10000000
01000000
00010000
00001000
00000010
00000000
00000000
00000000
,
00000001
00000100
00001000
00010000
00100000
00000000
00000000
00000000
,
20020000
00000000
00000000
00000000
,
00000000
00000000
30030000
00000000
,
10000000
00100000
01000000
00010000
10000000
01000000
00100000
00010000
,
10000000
01000000
00100000
00000000
00100000
00001000
00010000
00000000
,
00001000
00010000
00000100
00001000
00000010
00000100
00001000
00000100
,
00000000
00000101
00000000
00001001
00000000
00001000
00000001
00001000
,
00000100
00000010
00000001
00000100
00000000
00000100
00000010
00001000
,
00000010
00010000
00001000
01000000
00000000
10000000
01000000
00010000
,
00100000
00001000
00010000
00000100
00000000
00001000
00000100
00000010
,
00000000
00000001
00002000
00000002
00000000
00000000
00003003
00000000
,
00000001
00000010
00000100
00001000
00000001
00000100
00000010
00001000
,
00000001
00000100
00000010
00000000
00000010
00010000
00001000
00000000
,
00010000
00001000
01000000
00010000
00100000
01000000
00010000
01000000
,
00000000
11000000
00000000
10010000
00000000
00010000
10000000
00010000
,
01000000
00100000
10000000
01000000
00000000
01000000
00100000
00010000
,
00100000
00001000
00010000
00000100
00000000
00000001
00000100
00001000
,
00000010
00010000
00001000
01000000
00000000
00010000
01000000
00100000
,
00000000
10000000
00010000
10000000
00010000
00000000
00100000
00000000
,
01100000
00000000
10000000
01000000
00100000
00000000
00100000
00001000
,
00010000
00000000
00010000
00000010
00001000
00000010
00000100
00000000
,
00000110
00000000
00000001
00000010
00000100
00000000
00000100
00010000
,
00001000
00000000
00001000
01000000
00010000
01000000
00100000
00000000
,
10000000
00100000
01000000
00010000
10000000
01000000
00100000
00010000
,
01000000
00100000
00010000
00001000
00000100
00000010
00001000
00000100
,
00000001
00001000
00000010
00000001
00001000
00000100
00010000
00001000
,
00020000
00000000
00130000
10000000
00010000
00000000
01000000
00000000
,
02200000
00000000
00000000
00000000
,
00000000
00000000
00000000
00000000
,
03300000
00000000
00000000
00000000
,
00000000
00000000
00000000
00000000
;
