
//----- song ID: stmp -----//
#TITLE:STOMP!!;
#ARTIST:Liqo;
#BANNER:STOMP!!.png;
#BACKGROUND:STOMP!!-bg.png;
#CDTITLE:./CDTitles/DDR WORLD.png;
#MUSIC:STOMP!!.ogg;
#SAMPLESTART:34.285;
#SAMPLELENGTH:15;
#BPMS:0=175,132=87.5,152=175;
#BGSTAGE:15;
#NOTES:
     dance-single:
     :
     Beginner:
     3:
     :
0000
0000
0000
0000
,
0000
0000
0000
0000
,
0000
0000
0000
0000
,
0000
0000
0000
0000
,
0000
0000
0000
0000
,
1000
0000
0000
0000
,
1000
0000
0000
0000
,
0010
0000
0000
0000
,
0000
0000
0000
0000
,
0001
0000
0000
0000
,
0001
0000
0000
0000
,
0010
0000
0000
0000
,
0000
0000
0000
0000
,
0001
0000
0000
0000
,
0010
0000
0000
0000
,
1000
0000
0000
0000
,
0000
0000
0000
0000
,
1000
0000
0000
0000
,
1000
0000
0000
0000
,
0010
0000
0000
0000
,
0000
0000
0000
0000
,
1000
0000
0000
0000
,
0010
0000
0000
0000
,
0001
0000
0000
0000
,
0000
0000
0000
0000
,
0002
0000
0000
0000
,
0003
0000
0000
0000
,
0001
0000
0001
0000
,
0010
0000
0000
0000
,
0020
0000
0000
0000
,
0030
0000
0000
0000
,
0010
0000
0010
0000
,
1000
0000
0000
0000
,
1000
0000
0000
0000
,
1000
0000
0000
0000
,
0010
0000
0000
0000
,
0010
0000
0000
0000
,
0010
0000
0000
0000
,
0002
0000
0000
0000
,
0003
0000
0000
0000
,
0001
0000
0000
0000
,
0001
0000
0000
0000
,
0020
0000
0000
0000
,
0030
0000
0000
0000
,
0010
0000
0000
0000
,
0010
0000
0000
0000
,
2000
0000
0000
0000
,
3000
0000
0000
0000
,
1000
0000
0000
0000
,
0100
0000
0000
0000
,
1000
0000
0000
0000
,
0000
0000
0000
0000
,
1000
0000
1000
0000
,
0010
0000
0000
0000
,
0020
0000
0000
0000
,
0030
0000
0000
0000
,
0010
0000
0010
0000
,
0001
0000
0000
0000
,
0002
0000
0000
0000
,
0003
0000
0000
0000
,
0001
0000
0001
0000
,
0010
0000
0000
0000
,
0020
0000
0000
0000
,
0030
0000
0000
0000
,
0010
0000
0010
0000
,
1000
0000
0000
0000
,
1000
0000
0000
0000
,
0100
0000
0000
0000
,
1000
0000
1000
0000
,
0010
0000
0000
0000
,
0000
0000
0000
0000
;
#NOTES:
     dance-single:
     :
     Easy:
     6:
     :
0000
0000
0000
0000
,
0000
0000
0000
0000
,
0000
0000
0000
0000
,
0000
0000
0000
0000
,
0000
0000
0000
0000
,
1000
0100
0010
0010
,
0001
0100
0010
0010
,
1000
0010
0100
0001
,
1001
0000
0000
0000
,
1000
1000
1001
0000
,
0001
0001
1001
0000
,
0100
0100
0110
0000
,
0010
0010
0110
0000
,
0001
1000
0110
0000
,
1000
0001
0110
0000
,
0010
0100
1001
0000
,
0100
0100
0100
0000
,
0110
0000
0110
0000
,
0001
0001
0001
0000
,
0110
0000
0110
0000
,
1000
1000
1000
0000
,
1001
0000
0110
0000
,
1001
0000
0110
0000
,
0001
0001
1000
1000
,
0002
0000
0000
0003
,
0001
0001
0010
0010
,
0100
0100
1000
0000
,
1000
0010
1000
0100
,
1000
1000
1000
0000
,
1000
1000
0010
0010
,
0100
0100
0001
0000
,
0001
0010
0001
0100
,
0001
0001
0001
0000
,
0002
0000
0000
0003
,
0200
0000
0000
0300
,
0020
0000
0000
0030
,
2000
0000
0000
3000
,
1001
0000
0000
0000
,
2000
0000
0000
3000
,
2000
0000
0000
3000
,
0100
0100
0100
0000
,
0010
0010
0010
0000
,
0002
0000
0000
0003
,
0002
0000
0000
0003
,
0100
0100
0100
0000
,
0010
0010
0010
0000
,
1000
0010
1000
1000
,
0010
0010
1000
0000
,
0001
0010
0001
0001
,
0010
0010
0001
0000
,
1000
0100
1000
1000
,
0100
0100
1000
0000
,
0001
0100
0001
0001
,
0100
0100
0001
0000
,
0001
1000
0010
0100
,
0001
1000
0010
0000
,
1000
0100
0010
0001
,
1000
0100
0010
0000
,
0001
0001
1000
0010
,
0100
0100
0001
0000
,
1000
1000
0100
0010
,
0002
0000
0000
0003
,
0001
0001
1000
0000
,
1000
1000
0001
0000
,
0010
0100
0110
0000
,
0100
0010
0110
0000
,
2000
0000
0000
3000
,
0002
0000
0000
0003
,
0100
0010
0100
0010
,
0110
0000
1001
0000
,
0000
0000
0000
0000
;
#NOTES:
     dance-single:
     :
     Medium:
     12:
     :
0000
0000
0000
0000
,
0000
0000
0000
0000
,
0000
0000
0000
0000
,
0000
0000
0000
0000
,
0000
0000
0000
0000
,
1000
0100
1000
0010
1000
0100
1000
0000
,
0001
0100
0001
0010
0001
0100
0001
0000
,
1000
0100
0010
0001
1000
0010
0100
0001
,
1000
1000
1000
1001
,
0001
0100
0010
0100
0001
0010
0100
1000
,
0001
0100
0010
1000
0010
0100
0001
0000
,
1000
0100
0010
0100
1000
0010
0100
0001
,
1000
0000
0000
1010
0000
0000
1000
0000
0000
1100
0000
0000
1001
0000
0000
0000
,
0001
0100
0010
1000
0100
0001
0100
1000
,
0010
0100
0001
0010
0001
1000
0100
0000
,
1000
0000
0000
0100
0000
0000
0010
0000
0000
0001
0000
0000
1000
0000
0000
0000
,
0001
0000
0000
0011
0000
0000
0001
0000
0000
0101
0000
0000
1001
0000
0000
0000
,
1000
0100
0010
0100
1000
0010
0100
0001
,
1000
0100
0010
0001
0010
0100
1000
0000
,
0001
0100
0010
0100
0001
0010
0100
1000
,
0001
0000
0000
0011
0000
0000
0001
0000
0000
0101
0000
0000
1001
0000
0000
0000
,
1000
0100
0001
0000
0001
0100
1000
0000
,
0001
0010
1000
0000
1000
0010
0001
0000
,
1000
0100
0010
0001
0100
0010
1000
0001
,
2000
3002
2003
3001
,
1001
0000
0001
0001
0100
0000
0010
0010
,
1000
1100
0110
0011
,
1000
0000
1000
0100
1000
0000
1000
0001
,
1000
0010
1000
0100
2000
0000
3000
0000
,
1001
0000
1000
1000
0100
0000
0010
0010
,
0001
0101
0110
1010
,
0001
0000
0001
0100
0001
0000
0001
1000
,
0001
0000
0000
0011
0000
0000
0001
0000
0000
0101
0000
0000
1001
0000
0000
0000
,
2000
0000
3100
0000
0020
0001
0031
0000
,
0002
0000
0103
0000
0020
1000
1030
0000
,
0110
0000
1001
0000
2000
0001
3001
0000
,
0020
0000
0130
0000
1000
0001
1000
0000
,
1001
0000
0000
0000
,
2000
0000
0000
3000
,
0002
0000
0000
0003
,
0010
0000
0100
0010
0000
0010
0100
0000
,
0010
0000
0100
0010
0100
0000
0010
0000
,
0002
0000
0000
0003
,
2000
0000
0000
3000
,
0010
0000
0100
0010
0000
0010
0100
0000
,
0010
0000
0100
0010
0100
0000
0010
0000
,
1000
0000
1000
0010
1000
0000
1000
0100
,
1000
0000
1000
0100
0010
0001
0010
0000
,
0001
0000
0001
0010
0001
0000
0001
0100
,
0001
0000
0001
0100
0010
1000
0010
0000
,
1000
0100
1000
0100
0010
0001
0010
0001
,
0100
0010
0100
0010
1000
0001
1000
0001
,
1000
0100
0001
0000
0001
0100
1000
0000
,
0110
1001
0110
1001
,
0001
0100
0001
0010
0100
1000
0001
0000
,
1000
0010
1000
0100
0010
0001
1000
0000
,
0001
0100
0010
1000
0001
0010
0100
0000
,
1000
0010
0001
0010
1000
0000
1001
0000
,
1000
0010
1000
0100
0010
0001
1000
0000
,
0001
0100
0001
0010
0100
1000
0001
0000
,
1000
0010
0100
0001
1000
0100
0010
0000
,
0001
0000
0000
0100
0000
0000
1000
0000
0000
0100
0000
0000
0001
0000
0000
0000
,
1000
1000
0010
0000
0100
0000
0101
0000
,
0001
0001
0010
0000
0100
0000
1100
0000
,
1000
1000
0100
0000
0010
0000
0011
0000
,
0001
0001
0100
0000
0010
0000
1010
0000
,
1000
0000
0000
1000
0000
0000
1000
0000
0001
0000
0000
0001
0000
0000
0001
0000
,
0100
0000
0000
0100
0000
0000
0100
0000
0020
0000
0000
0000
0030
0000
0000
0000
,
1000
0010
0100
0001
1000
0100
0010
0000
,
0001
0000
0000
0001
0000
0000
1000
0000
0000
1000
0000
0000
0000
0000
0000
0000
,
0000
0000
0000
0000
;
#NOTES:
     dance-single:
     :
     Hard:
     15:
     :
0000
0000
0000
0000
,
0000
0000
0000
0000
,
0000
0000
0000
0000
,
0000
0000
0000
0000
,
0000
0000
0000
0000
,
1000
0000
0000
1000
0100
0000
0010
0000
0001
0000
0100
0001
0000
0100
0010
0000
,
1000
0000
0100
1000
0100
0000
0010
0000
0001
1000
0001
1000
0001
0000
0100
0000
,
0010
0000
1000
0010
0000
1000
0010
0000
0100
0001
0000
0100
0001
0000
1000
0000
,
0200
0010
0310
1001
,
1000
0010
0100
0001
1000
0100
0010
0001
,
0100
0000
0010
0000
1000
0000
0100
0000
0010
0001
1000
0001
0010
0000
0100
0000
,
1000
0001
0100
0010
1000
0001
0010
0100
,
1000
0010
0000
1000
0100
0000
1000
0010
0000
1000
0100
0000
1000
0000
0000
0000
,
0001
0010
0100
1000
0001
0100
0010
1000
,
0001
0000
0010
0000
0100
0000
1000
0000
0010
0100
0001
0100
0010
0000
1000
0000
,
0001
0000
0010
0001
0000
0010
0001
0000
1000
0010
0000
1000
0010
0000
1000
0000
,
0001
0100
0000
0001
0010
0000
0001
0100
0000
0001
0010
0000
0001
0000
0000
0000
,
1000
0010
1010
0000
1100
0000
1010
0000
,
0101
0000
0000
0000
0011
0000
0000
0000
0001
0100
0001
0010
0001
0000
0000
0000
,
1001
0110
1001
0110
,
1000
0100
0000
1000
0100
0000
0010
0001
0000
0010
0001
0000
1000
0000
0000
0000
,
1001
0000
0010
0100
1001
0000
0100
0000
,
0110
0000
0000
0000
0001
1000
0001
0000
0110
0000
0100
0000
0110
0000
0000
0000
,
1000
0100
1000
0000
0100
0010
0100
0000
0010
0001
0010
0000
0001
1000
0001
0000
,
1000
0000
0010
0100
0001
0000
0100
0010
2000
0000
0000
0000
3000
0000
0000
0000
,
1000
0100
0010
0010
0001
0001
1000
1000
,
0010
0010
0100
0100
0001
0100
1000
0100
,
0002
0000
0000
0000
0013
0100
0010
0100
2000
0000
0000
0000
3010
0100
0010
0100
,
0001
0000
1000
0000
0100
0000
0010
0000
0001
0100
0000
0010
1000
0000
0001
0000
,
1001
0000
0001
0001
1000
1000
0010
0010
,
0100
0100
0010
0010
1000
0010
0001
0010
,
2000
0000
0000
0000
3100
0010
0100
0010
0002
0000
0000
0000
0103
0010
0100
0010
,
1000
0010
0000
1000
0100
0000
1000
0010
0000
1000
0100
0000
1000
0000
0000
0000
,
0002
0000
0000
0103
0010
0100
0010
0000
0000
1000
0001
1000
0001
0000
0001
0010
0000
0010
0100
0000
0100
1000
0000
0000
,
0001
0100
0010
1000
0000
0000
0001
0100
0010
1000
0000
0000
0001
0000
0001
1000
0000
1000
0001
0000
0001
1000
0000
0000
,
2002
0000
0000
3003
0000
0000
1000
0100
0010
0001
0000
0000
1000
0010
0100
0001
0000
0000
1000
0100
0010
0001
0000
0000
,
1000
0000
0000
0000
1010
0000
0000
0000
0001
0000
0000
0000
0011
0000
0000
0000
1000
0000
0100
0000
1000
0100
1000
0000
0001
0000
0010
0000
0001
0000
0000
0000
,
1001
0000
0000
0000
,
1000
0100
0010
0001
0000
1000
1000
0000
,
0001
0010
0100
1000
0000
0001
0001
0000
,
1000
0010
0001
0010
0000
1000
1000
0000
,
1000
0100
0001
0100
1000
0000
1001
0000
,
0001
0010
0100
1000
0000
0001
0001
0000
,
1000
0100
0010
0001
0000
1000
1000
0000
,
0001
0100
1000
0100
0000
0001
0001
0000
,
0001
0010
1000
0010
0001
0000
1001
0000
,
1000
0000
1000
0100
1000
0000
1000
0010
,
1000
0000
1000
0001
1000
0001
1000
0000
,
0001
0000
0001
0100
0001
0000
0001
0010
,
0001
0000
0001
1000
0001
1000
0001
0000
,
1000
0100
1000
0010
1000
0001
0100
0010
,
1000
0100
1000
0010
1000
0001
0100
0010
,
1000
0100
1000
0000
0001
0010
0001
0000
0100
0001
0100
0000
0010
1000
0010
0000
,
0200
0010
0310
1001
,
0001
0100
0000
0010
1000
0000
0001
0000
0010
0000
0100
0000
0001
0000
0100
0000
,
0010
0001
0000
1000
0100
0000
0010
0000
0001
0000
0100
0000
0010
0000
1000
0000
,
0001
0100
0000
0010
0100
0000
1000
0000
0100
0000
0010
0000
1000
0000
0001
0000
,
1000
0100
0000
0010
0100
0000
0001
0000
0100
0000
0010
0000
0001
1000
0001
0000
,
1000
0010
0000
0100
0001
0000
1000
0000
0100
0000
0010
0000
0001
1000
0001
0000
,
0100
0001
0000
1000
0010
0000
0100
0000
0001
0000
0010
0000
0100
1000
0100
0000
,
1000
0010
0000
0100
0001
0000
0010
0000
0001
0000
0100
0000
0010
1000
0010
0000
,
1000
0000
0100
0010
0000
0001
0010
0000
0100
1000
0000
0001
1000
0000
0000
0000
,
0001
0100
0000
0010
1000
0010
0000
1000
0000
0000
0001
0000
0010
0100
0010
0000
,
0001
1000
0000
0100
1000
0100
0000
0010
0000
0000
0001
0000
0100
0010
0100
0000
,
0001
0100
0000
0010
1000
0001
0000
0100
0000
0000
0001
0000
0010
0000
0100
0000
,
1000
0010
1000
0000
0100
1000
0100
0000
0010
0000
0002
0000
0203
0000
2300
0000
,
3100
0010
0000
0100
0010
0000
1000
0100
0010
0100
0000
0010
0100
0000
0010
0001
,
1000
0010
0000
0100
0001
0100
0000
0001
0010
0000
0100
0000
1000
0000
0001
0000
,
1000
0010
0100
0000
0001
0100
0010
0000
1000
0100
0010
0000
0001
0010
0100
0000
,
1000
0100
0000
0001
0100
0000
1000
0100
0000
0001
0100
0000
0000
0000
0000
0000
,
0000
0000
0000
0000
;
#NOTES:
     dance-double:
     :
     Easy:
     6:
     :
00000000
00000000
00000000
00000000
,
00000000
00000000
00000000
00000000
,
00000000
00000000
00000000
00000000
,
00000000
00000000
00000000
00000000
,
00000000
00000000
00000000
00000000
,
00001000
00001000
00010000
00000000
,
00001000
00010000
00100000
00000000
,
00100000
01000000
00100000
10000000
,
10010000
00000000
00000000
00000000
,
10000000
10000000
01000000
00000000
,
01000000
00100000
01000000
00000000
,
00100000
00100000
00010000
00000000
,
00100000
00010000
00100000
00000000
,
00100000
00001000
00010000
00000000
,
00001000
00010000
00001000
00000000
,
00001000
00001000
00010000
00000000
,
00011000
00000000
00000000
00000000
,
00001000
00010000
00001000
00010000
,
00000100
00001000
00000100
00000000
,
00001000
00000100
00001000
00000100
,
00000010
00000001
00000010
00000000
,
00000001
00000100
00000010
00000000
,
00000010
00001000
00000010
00000000
,
00001000
00000010
00010000
00001000
,
00020000
00000000
00000000
00030000
,
00011000
00000000
00001000
00001000
,
01000000
01000000
00010000
00000000
,
00010000
00100000
00010000
01000000
,
00010000
10000000
00010000
00000000
,
10010000
00000000
10000000
10000000
,
01000000
00100000
00010000
00000000
,
00010000
00100000
00001000
00010000
,
00001000
00001000
00001000
00000000
,
00020000
00000000
00000000
00030000
,
00002000
00000000
00000000
00003000
,
00020000
00000000
00000000
00030000
,
00000200
00000000
00000000
00000300
,
00000110
00000000
00000000
00000000
,
00000002
00000000
00000000
00000003
,
00000002
00000000
00000000
00000003
,
00001000
00001000
00001000
00000000
,
00000010
00000010
00000010
00000000
,
00020000
00000000
00000000
00030000
,
00020000
00000000
00000000
00030000
,
00001000
00001000
00001000
00000000
,
01000000
01000000
01000000
00000000
,
00010000
00100000
00010000
00010000
,
00100000
00100000
00010000
00000000
,
10000000
01000000
10000000
10000000
,
01000000
01000000
10000000
00000000
,
10000000
01000000
00100000
00000000
,
00100000
00001000
00010000
00000000
,
00010000
00000010
00001000
00000010
,
00000100
00000100
00000001
00000000
,
00000001
00000100
00000010
00000100
,
00000001
00001000
00000001
00000000
,
00001000
00000100
00001000
00000100
,
00010000
00001000
00010000
00000000
,
00001000
00100000
00001000
01000000
,
00010000
00010000
00100000
00000000
,
00010000
00100000
01000000
10000000
,
00020000
00000000
00000000
00030000
,
10000000
10000000
00100000
00000000
,
00100000
00100000
01000000
00000000
,
01000000
00010000
00100000
00010000
,
01000000
00001000
00010000
00000000
,
00002000
00000000
00000000
00003000
,
00020000
00000000
00000000
00030000
,
00001000
00010000
00000100
00001000
,
00000100
00000000
00000110
00000000
,
00000000
00000000
00000000
00000000
;
#NOTES:
     dance-double:
     :
     Medium:
     11:
     :
00000000
00000000
00000000
00000000
,
00000000
00000000
00000000
00000000
,
00000000
00000000
00000000
00000000
,
00000000
00000000
00000000
00000000
,
00000000
00000000
00000000
00000000
,
00001000
00010000
00001000
00010000
00001000
00100000
00010000
00000000
,
00100000
00010000
01000000
00010000
00100000
00000000
00010000
00000000
,
10000000
01000000
10000000
01000000
00100000
00010000
00100000
00000000
,
00001000
00010000
00001000
00011000
,
00010000
00000100
00001000
00000010
00001000
00000100
00000010
00000000
,
00000001
00000010
00000100
00001000
00000001
00000100
00000010
00000000
,
00001000
00000001
00000100
00000010
00001000
00000100
00010000
00000000
,
00001000
00010000
00000000
00001000
00010000
00000000
00001000
00010000
00000000
00001000
00010000
00000000
00001000
00000000
00000000
00000000
,
00010000
00001000
00100000
00010000
01000000
00010000
00100000
00000000
,
00010000
01000000
00100000
10000000
01000000
10000000
00010000
00000000
,
10000000
00000000
00000000
01000000
00000000
00000000
00100000
00000000
00000000
00010000
00000000
00000000
00100000
00000000
00000000
00000000
,
00001000
00010000
00000000
00001000
00010000
00000000
00001000
00010000
00000000
00001000
00010000
00000000
00001000
00000000
00000000
00000000
,
00010000
00000010
00001000
00000001
00000100
00000010
00001000
00000000
,
00000001
00000100
00000010
00001000
00000100
00000010
00000100
00000000
,
00001000
00000010
00000100
00000010
00001000
00000100
00010000
00000000
,
00001000
00010000
00000000
00001000
00010000
00000000
00001000
00010000
00000000
00001000
00010000
00000000
00001000
00000000
00000000
00000000
,
00010000
00001000
01000000
00000000
00010000
00100000
01000000
00000000
,
10000000
00100000
01000000
00000000
00010000
10000000
00010000
00000000
,
10000000
01000000
00100000
00000000
00010000
00100000
00001000
00000000
,
00020000
00032000
00023000
00030000
,
00011000
00000000
00001000
00001000
00010000
00000000
00000100
00000100
,
00001000
00000000
00000100
00000010
00000001
00000000
00001000
00000000
,
00000001
00000000
00000001
00000100
00001000
00000000
00001000
00010000
,
00001000
00100000
00001000
00000000
00020000
00000000
00030000
00000000
,
00011000
00000000
00010000
00010000
00001000
00000000
01000000
01000000
,
00010000
00000000
01000000
00100000
10000000
00000000
00010000
00000000
,
10000000
00000000
10000000
01000000
00010000
00000000
00010000
00001000
,
00010000
00001000
00000000
00010000
00001000
00000000
00010000
00001000
00000000
00010000
00001000
00000000
00010000
00000000
00000000
00000000
,
00011000
00020000
00030200
00002300
,
00003002
00000010
00000013
00000000
00000002
00000100
00000103
00000000
,
00001001
00002000
00003200
00020300
,
00032000
00000000
00203000
00000000
00310000
10000000
00010000
00000000
,
10010000
00000000
00000000
00000000
,
20000000
00000000
00000000
30000000
,
00020000
00000000
00000000
00030000
,
00100000
00000000
01000000
00100000
00000000
00100000
01000000
00000000
,
00100000
00000000
01000000
00100000
01000000
00000000
00100000
00000000
,
00002000
00000000
00000000
00003000
,
00020000
00000000
00000000
00030000
,
00000010
00000000
00000100
00000010
00000000
00000010
00000100
00000000
,
00000010
00000000
00000100
00000010
00000200
00000000
00000300
00000000
,
00000001
00000001
00000010
00000010
,
00000100
00000000
00000100
00000000
00001000
00000100
00010000
00000000
,
00001000
00001000
00100000
00100000
,
00010000
00000000
00010000
00000000
01000000
00100000
01000000
00000000
,
00100000
10000000
00100000
10000000
01000000
00100000
01000000
00000000
,
00100000
00010000
00100000
00001000
00010000
00001000
00010000
00000000
,
00001000
00010000
00000100
00001000
00000010
00000100
00000001
00000000
,
00000011
00000110
00001100
00001001
,
00000001
00000100
00000010
00001000
00000001
00000100
00000010
00000000
,
00001000
00000010
00010000
00001000
01000000
00010000
01000000
00000000
,
00010000
00100000
01000000
10000000
01000000
00100000
00010000
00000000
,
10000000
01000000
00010000
01000000
10000000
00000000
10010000
00000000
,
10000000
01000000
00100000
00010000
10000000
01000000
00100000
00000000
,
00010000
00100000
00001000
00010000
00000100
00001000
00000100
00000000
,
00001000
00000010
00000100
00000001
00000100
00000010
00001000
00000000
,
00000001
00000000
00000000
00000100
00000000
00000000
00001000
00000000
00000000
00000100
00000000
00000000
00000001
00000000
00000000
00000000
,
00001000
00000100
00000010
00000000
00000001
00000100
00000001
00000000
,
00000010
00000100
00001000
00000000
00000100
00010000
00001000
00000000
,
00100000
00010000
01000000
00000000
00010000
00100000
01000000
00000000
,
10000000
00100000
10000000
00000000
00010000
00000000
10010000
00000000
,
10000000
00000000
00000000
10000000
00000000
00000000
10000000
00000000
01000000
00000000
00000000
01000000
00000000
00000000
01000000
00000000
,
00010000
00000000
00000000
00010000
00000000
00000000
00010000
00000000
00002000
00000000
00000000
00000000
00003000
00000000
00000000
00000000
,
00001000
00010000
00000100
00001000
00000010
00000100
00000001
00000000
,
00001000
00000000
00000000
00001000
00000000
00000000
00000001
00000000
00000000
00000001
00000000
00000000
00000000
00000000
00000000
00000000
,
00000000
00000000
00000000
00000000
;
#NOTES:
     dance-double:
     :
     Hard:
     15:
     :
00000000
00000000
00000000
00000000
,
00000000
00000000
00000000
00000000
,
00000000
00000000
00000000
00000000
,
00000000
00000000
00000000
00000000
,
00000000
00000000
00000000
00000000
,
00001000
00000000
00000000
00001000
00010000
00000000
00001000
00000000
01000000
00000000
00010000
00100000
00000000
00010000
00100000
00000000
,
00010000
00000000
10000000
00100000
10000000
00000000
01000000
00000000
00100000
01000000
00100000
01000000
00100000
00000000
00010000
00000000
,
10000000
00000000
01000000
00000000
00010000
00000000
00001000
00000000
00000010
00000000
00000001
00000000
00001000
00000100
00000010
00000000
,
00000002
00000010
00000013
00001001
,
00000001
00000100
00000010
00001000
00000100
00000010
00001000
00010000
,
01000000
00000000
00100000
00000000
00010000
00000000
01000000
00000000
00100000
10000000
00100000
10000000
00100000
00000000
01000000
00000000
,
00010000
00100000
01000000
00100000
00001000
00010000
00001000
00010000
,
00000100
00001000
00000000
00000100
00010000
00000000
00000100
00001000
00000000
00000100
00010000
00000000
00001000
00000000
00000000
00000000
,
00010000
00000100
00001000
00000010
00000100
00000001
00000010
00000100
,
00000001
00000000
00000100
00000000
00000010
00000000
00000100
00000000
00001000
00000001
00001000
00000010
00001000
00000000
00000001
00000000
,
00000100
00000000
00000010
00001000
00000000
00000010
00010000
00000000
00001000
00010000
00000000
00001000
01000000
00000000
00010000
00000000
,
00100000
01000000
00000000
10000000
00010000
00000000
01000000
00100000
00000000
10000000
00010000
00000000
00100000
00000000
00000000
00000000
,
00010000
10000000
10100000
00000000
11000000
00000000
11000000
00000000
,
01100000
00000000
00000000
00000000
00110000
00000000
00000000
00000000
00100000
00001000
00100000
00001000
00010000
00000000
00000000
00000000
,
00011000
00010100
00001100
00001010
,
00001000
00000010
00000000
00001000
00000010
00000000
00000100
00000001
00000000
00000100
00000001
00000000
00001000
00000000
00000000
00000000
,
00001001
00000000
00000001
00000100
00001000
00000000
00010000
00001000
,
00011000
00000000
00000000
00000000
00010000
00000000
00100000
00000000
10000000
00000000
00100000
01000000
00100000
00000000
00000000
00000000
,
10000000
00100000
10000000
00000000
00100000
01000000
00100000
00000000
01000000
00010000
01000000
00000000
00001000
01000000
00001000
00000000
,
00010000
00000000
00001000
00100000
00001000
00000000
00010000
00000100
00020000
00000000
00000000
00000000
00030000
00000000
00000000
00000000
,
00011000
00000000
00010000
00010000
00000100
00000100
00001000
00001000
,
00000010
00000010
00000100
00000100
00000001
00000100
00001000
00000100
,
00000002
00000000
00000000
00000000
00000013
00000100
00000010
00000100
00002000
00000000
00000000
00000000
00003010
00000100
00000010
00000100
,
00000001
00000000
00000100
00000000
00000001
00000000
00000010
00000000
00001000
00010000
00000000
00001000
00010000
00000000
00001000
00000000
,
00011000
00000000
00001000
00001000
01000000
01000000
00010000
00010000
,
00100000
00100000
01000000
01000000
10000000
01000000
00010000
01000000
,
20000000
00000000
00000000
00000000
30100000
01000000
00100000
01000000
00020000
00000000
00000000
00000000
00130000
01000000
00100000
01000000
,
10000000
01000000
00000000
10000000
01000000
00000000
00100000
00010000
00000000
00100000
00010000
00000000
10000000
00000000
00000000
00000000
,
20000000
00000000
00000000
31000000
00100000
01000000
00100000
00000000
00000000
00001000
00010000
00001000
00010000
00000000
00010000
00000010
00000000
00000010
00001000
00000000
00001000
00000100
00000000
00000000
,
00001000
00000100
00000010
00000001
00000000
00000000
00001000
00000100
00000010
00000001
00000000
00000000
00000001
00000000
00000001
00000100
00000000
00000100
00001000
00000000
00001000
00010000
00000000
00000000
,
00022000
00000000
00000000
00033000
00000000
00000000
00001000
00100000
00010000
00100000
00000000
00000000
00010000
01000000
00100000
01000000
00000000
00000000
00010000
00100000
01000000
10000000
00000000
00000000
,
10000000
00000000
00000000
00000000
11000000
00000000
00000000
00000000
00010000
00000000
00000000
00000000
00110000
00000000
00000000
00000000
00100000
00000000
01000000
00000000
00100000
00010000
00100000
00000000
00001000
00000000
00010000
00000000
00001000
00000000
00000000
00000000
,
00011000
00000000
00000000
00000000
,
00001000
00010000
00001000
00000010
00000000
00000001
00000001
00000000
,
00001000
00000100
00000001
00000100
00000000
00001000
00001000
00000000
,
00000001
00000010
00000100
00001000
00000000
00000100
00000100
00000000
,
00001000
00000100
00010000
00001000
00010000
00000000
00011000
00000000
,
00010000
00001000
00010000
00100000
00000000
10000000
10000000
00000000
,
00010000
01000000
10000000
01000000
00000000
00010000
00010000
00000000
,
10000000
00100000
01000000
00010000
00000000
01000000
01000000
00000000
,
00010000
01000000
00001000
00010000
00001000
00000000
00011000
00000000
,
00010000
00000000
00010000
00001000
00010000
00000000
00010000
01000000
,
00010000
00000000
00010000
00001000
00010000
00000000
00010000
00100000
,
00010000
00000000
00001000
00010000
00001000
00000000
00001000
00000010
,
00001000
00000000
00001000
00010000
00001000
00000000
00001000
00000100
,
00001000
00010000
00001000
00010000
00000100
00001000
00000010
00000100
,
00000001
00000010
00000001
00000010
00000100
00001000
00000100
00010000
,
00001000
00010000
00001000
00000000
01000000
00010000
01000000
00000000
00100000
01000000
00100000
00000000
10000000
00100000
10000000
00000000
,
02000000
00100000
03100000
10010000
,
10000000
01000000
00000000
00100000
00010000
00000000
10000000
00000000
00100000
00000000
00010000
00000000
00001000
00000000
00000100
00000000
,
00000001
00000100
00000000
00000010
00001000
00000000
00000100
00000000
00000010
00000001
00000010
00000000
00000001
00001000
00000001
00000000
,
00001000
00000010
00000000
00000100
00000001
00000000
00000010
00000000
00001000
00000000
00010000
00000000
01000000
00000000
10000000
00000000
,
00010000
00100000
00000000
00010000
01000000
00000000
00100000
00000000
10000000
00000000
01000000
00000000
00100000
01000000
00100000
00000000
,
00010000
01000000
00000000
00010000
00100000
00000000
01000000
00000000
00010000
00000000
00001000
00000000
00000010
00001000
00000010
00000000
,
00000001
00000010
00000000
00000100
00001000
00000000
00000010
00000000
00000100
00000000
00001000
00000000
00000100
00000010
00000100
00000000
,
00000010
00001000
00000000
00000010
00010000
00000000
00001000
00000000
00010000
00000000
01000000
00000000
00100000
00010000
00100000
00000000
,
00010000
00000000
00100000
01000000
00000000
10000000
00010000
00000000
01000000
00100000
00000000
10000000
00010000
00000000
00000000
00000000
,
10000000
01000000
00000000
10000000
00100000
10000000
00000000
00100000
00000000
00000000
01000000
00000000
00010000
00100000
00010000
00000000
,
00100000
00001000
00000000
00010000
00001000
00010000
00000000
00000100
00000000
00000000
00001000
00000000
00000010
00000100
00000010
00000000
,
00001000
00000010
00000000
00000100
00000001
00000100
00000000
00000010
00000000
00000000
00001000
00000000
00000001
00000000
00000010
00000000
,
00000100
00000010
00000100
00000000
00001000
00000100
00001000
00000000
00000100
00000000
00020000
00000000
00032000
00000000
00023000
00000000
,
00031000
01000000
00000000
00001000
01000000
00000000
00010000
01000000
00010000
00100000
00000000
00010000
00100000
00000000
01000000
10000000
,
00010000
01000000
00000000
00010000
01000000
00000000
00010000
00100000
00010000
00000000
00100000
00000000
00001000
00000000
00000000
00000000
,
00010000
00000100
00001000
00000000
00000100
00001000
00000010
00000000
00000100
00000001
00000010
00000000
00000100
00001000
00000100
00000000
,
00001000
00000100
00000000
00010000
00001000
00000000
00010000
01000000
00000000
10000000
00010000
00000000
00000000
00000000
00000000
00000000
,
00000000
00000000
00000000
00000000
;
