
//----- song ID: sthy -----//
#TITLE:STOIC HYPOTHESIS;
#ARTIST:BEMANI Sound Team "Expander";
#BANNER:STOIC HYPOTHESIS.png;
#BACKGROUND:STOIC HYPOTHESIS-bg.png;
#CDTITLE:./CDTitles/bm IIDX 27 HEROIC VERSE.png;
#MUSIC:STOIC HYPOTHESIS.ogg;
#SAMPLESTART:86.115;
#SAMPLELENGTH:15;
#BPMS:0=170;
#NOTES:
     dance-single:
     :
     Beginner:
     2:
     :
0000
0000
0000
0000
,
0000
0000
0000
0000
,
0000
0000
0000
0000
,
0000
0000
0000
0000
,
0000
0000
0000
0000
,
0001
0000
0000
0000
,
0000
0000
0000
0000
,
1000
0000
0000
0000
,
0000
0000
0000
0000
,
0020
0000
0030
0000
,
0000
0000
0000
0000
,
1000
0000
0000
0000
,
0000
0000
0000
0000
,
0200
0000
0300
0000
,
0000
0000
0000
0000
,
1000
0000
0000
0000
,
0000
0000
0000
0000
,
0001
0000
0000
0000
,
0001
0000
0000
0000
,
0001
0000
0000
0000
,
0000
0000
0000
0000
,
1000
0000
0000
0000
,
1000
0000
0000
0000
,
0010
0000
0000
0000
,
2000
0000
3000
0000
,
0000
0000
0000
0000
,
0010
0000
0000
0000
,
0010
0000
0000
0000
,
1000
0000
0000
0000
,
0001
0000
0000
0000
,
0100
0000
0000
0000
,
0100
0000
0000
0000
,
0200
0000
0300
0000
,
0001
0000
0000
0000
,
0001
0000
0000
0000
,
1000
0000
0000
0000
,
1000
0000
0000
0000
,
0010
0000
0000
0000
,
0010
0000
0000
0000
,
0010
0000
0000
0000
,
0000
0000
0000
0000
,
1001
0000
0000
0000
,
0001
0000
0000
0000
,
1000
0000
0000
0000
,
1000
0000
0000
0000
,
0010
0000
0000
0000
,
1000
0000
0000
0000
,
1000
0000
0000
0000
,
0001
0000
0000
0000
,
0100
0000
0000
0000
,
0100
0000
0000
0000
,
0100
0000
0000
0000
,
0100
0000
0000
0000
,
0010
0000
0000
0000
,
0010
0000
0000
0000
,
0010
0000
0000
0000
,
0010
0000
0000
0000
,
2000
0000
3000
0000
,
0000
0000
0000
0000
,
0002
0000
0003
0000
,
0000
0000
0000
0000
,
0100
0000
0000
0000
,
0000
0000
0000
0000
,
0100
0000
0000
0000
,
0000
0000
0000
0000
,
0010
0000
0000
0000
,
0000
0000
0000
0000
,
0010
0000
0000
0000
,
0000
0000
0000
0000
,
1000
0000
0000
0000
,
1000
0000
0000
0000
,
0001
0000
0000
0000
,
0001
0000
0000
0000
,
0100
0000
0000
0000
,
0100
0000
0000
0000
,
0010
0000
0000
0000
,
0010
0000
0000
0000
,
1000
0000
0000
0000
,
0000
0000
0000
0000
,
1000
0000
0000
0000
,
0000
0000
0000
0000
,
1000
0000
0000
0000
,
0000
0000
0000
0000
,
1000
0000
0000
0000
,
0002
0000
0000
0003
,
0000
0000
0000
0000
;
#NOTES:
     dance-single:
     :
     Easy:
     6:
     :
0000
0000
0000
0000
,
0000
0000
0000
0000
,
0000
0000
0000
0000
,
0000
0000
0000
0000
,
0000
0000
0000
0000
,
0001
0000
1000
0000
,
0001
0000
0100
0000
,
0001
0000
1000
0000
,
0001
0010
0100
0000
,
2000
0000
3000
0000
,
0001
0000
0100
0000
,
0001
0000
1000
0000
,
0010
0000
1000
0100
,
0020
0000
0030
0000
,
0100
0000
1000
0000
,
0010
0010
0010
0000
,
1000
0000
0001
0000
,
1001
1000
0000
0001
,
1000
0100
1000
0100
,
0010
0001
0100
0001
,
1000
0100
0020
0030
,
0011
0001
1000
0010
,
1000
0001
1000
0001
,
0100
0001
0010
0100
,
2000
0000
0000
3000
,
0000
1001
0000
0000
,
0001
1000
0100
0010
,
0001
0010
0001
0010
,
0110
1000
0000
0000
,
0010
0110
1000
0001
,
0100
0010
0100
0001
,
1000
0100
1000
0010
,
0200
0000
0000
0300
,
0000
0001
1000
0010
,
0100
0010
1000
0001
,
0010
0001
1000
0010
,
0100
0001
1000
0100
,
1000
0001
0100
0010
,
0100
0001
1000
0100
,
0010
0001
1000
0010
,
0200
0000
0000
0300
,
0110
0000
0001
0010
,
0100
0010
0001
1000
,
0010
1000
0001
0010
,
0100
1000
0001
0100
,
0010
0100
0001
1000
,
0100
1000
0010
0100
,
0001
1000
0100
0010
,
0002
0000
0000
0003
,
1000
0000
1000
0000
,
0001
0000
0001
0000
,
0100
0000
0100
0000
,
0010
0010
0010
0000
,
1000
0000
0001
0000
,
0100
0000
0001
0000
,
1000
0000
0010
0000
,
0100
0000
0000
0000
,
0002
0000
0003
0000
,
2000
0000
3000
0000
,
0001
0010
0100
1000
,
0010
0100
0001
0000
,
1000
0000
0000
0000
,
0010
0000
0000
0000
,
0001
0000
0000
0000
,
0010
0000
0000
0000
,
1000
0000
0000
0000
,
0100
0000
0000
0000
,
0001
0000
0000
0000
,
0100
0000
0000
0000
,
1000
0001
0100
0001
,
0010
0001
1000
0010
,
1000
0100
1000
0001
,
0100
0010
0100
0000
,
0001
1000
0100
1000
,
0001
0100
0010
0000
,
0010
0100
0000
0100
,
0001
0000
1000
0000
,
0002
0000
0000
0003
,
0020
0000
0000
0030
,
0200
0000
0000
0300
,
2000
0000
0000
3000
,
0020
0000
0030
0000
,
0200
0000
0300
0000
,
0002
0000
0003
0000
,
2000
0000
3000
0010
,
0000
0000
0000
0000
;
#NOTES:
     dance-single:
     :
     Medium:
     10:
     :
0000
0000
0000
0000
,
0000
0000
0000
0000
,
0000
0000
0000
0000
,
0000
0000
0000
0000
,
0000
0000
0000
0000
,
0001
0000
1000
0100
1000
0100
0010
0000
,
0001
1000
0010
0000
0100
0000
0000
0000
,
0001
1000
0001
1000
0010
0000
0100
0000
,
0010
1000
0010
0000
0100
0001
0100
0000
,
0002
0000
0013
0000
,
0010
0100
1000
0000
0001
1000
0001
1000
,
0010
0100
0001
1000
,
0010
0000
0100
0000
0001
0001
1000
1000
,
0200
0000
0310
0000
,
0100
1000
0001
0000
0100
0010
0100
0000
,
0100
0000
0001
0000
1000
0000
0001
0010
,
0001
0000
0000
1000
0000
0000
0001
0000
0100
0000
0000
0000
0110
0000
0000
0000
,
0010
0000
0000
0000
1000
0000
0000
0000
0001
0000
0000
0100
0000
0010
0000
0000
,
1000
0000
0000
0000
0010
0000
0000
0100
0000
0000
0001
0000
1000
0000
0000
0000
,
0001
0000
0000
0000
0010
0000
0000
0011
0000
0000
0000
0000
0001
0000
0000
0000
,
1000
0000
0010
0100
0010
1000
0001
0000
,
0011
0000
0000
0000
0010
0000
0000
0001
0000
0000
0000
0100
0000
0000
0010
0000
,
0010
0000
1000
0000
0001
0100
0010
0000
,
0100
0000
0000
0000
0001
0000
0000
1001
0000
0000
0000
1000
0000
0000
0000
0000
,
0002
0203
0320
1030
,
0000
0000
0000
0000
1001
0000
0000
0000
0001
0000
0000
0100
0000
0010
0000
0000
,
1000
0000
0000
0000
0001
0000
0000
0100
0000
0000
0001
0000
1000
0000
0000
0000
,
0100
0000
0000
0000
1000
0000
0000
0010
0000
0000
0000
0000
0100
0000
0000
0000
,
0001
1000
0001
1000
0100
0000
1000
0000
,
2002
0000
0000
0000
3003
0000
0000
0000
0000
0000
0000
0001
0000
0000
0100
0000
,
0100
0001
1000
0001
,
1000
0000
0000
0000
0001
0000
0000
0100
0000
0000
0000
0010
0000
0000
0000
0000
,
2000
3200
0320
0031
,
0001
1000
0100
0000
1000
0000
0010
0000
,
1000
0001
0100
0000
0001
0000
0010
0000
,
0001
1000
0100
0000
1000
0000
0010
0000
,
1000
0001
0100
0000
0001
0010
0100
0000
,
1000
0001
0100
0000
0010
0000
0100
0000
,
0001
1000
0010
0000
1000
0000
0001
0000
,
1000
0100
0010
0000
0001
0000
1000
0000
,
0002
0203
0320
1030
,
1000
0000
0001
0000
0100
0000
0000
0000
0010
0000
0000
0010
0000
0000
0000
0000
,
1000
0001
0100
0000
0010
0000
0010
0000
,
0100
0001
1000
0000
0010
0000
0010
0000
,
0100
0001
1000
0000
0100
0000
0010
0000
,
0100
0000
1000
0000
0001
0000
0000
0000
0100
0000
0000
0100
0000
0000
0000
0000
,
0001
1000
0010
0000
0100
0000
0100
0000
,
0010
0000
1000
0000
0001
0000
0000
0000
0100
0000
0000
0100
0000
0000
0000
0000
,
0220
0000
0000
0330
,
0001
0000
0001
0000
,
1000
0000
1000
0000
,
0001
0000
0001
0000
,
1000
0100
0002
0003
,
0100
0000
1000
0000
,
0010
0000
0100
0000
,
0001
0000
1000
0000
,
0001
0000
0000
1000
0000
0000
0010
0000
0100
0000
0010
0000
0100
0000
0000
0000
,
0001
0001
1000
1000
,
0001
0001
1000
1000
,
0001
0010
0001
0010
0100
1000
0100
1000
,
0010
0100
0001
1000
0200
0000
0300
0000
,
0110
0000
0010
0000
,
0001
0000
0000
0000
1000
0000
0000
0010
,
0010
0000
0000
0100
0000
0000
0001
0000
,
1000
0000
1000
0010
0100
0000
0001
0000
,
1000
0000
0100
0000
,
1000
0000
0000
0000
0010
0000
0000
0100
,
0100
0000
0000
0001
0000
0000
1000
0000
,
2002
0000
0000
3003
,
0001
0000
1000
0000
0001
0100
0010
0000
,
1000
0000
0001
0000
1000
0010
0100
0000
,
0101
0000
0000
0011
0000
0000
0110
0000
,
0000
0000
1000
0100
1000
0100
0010
0000
,
0001
0000
1000
0000
0010
0100
0010
0000
,
1000
0000
0000
0000
0001
0000
0000
0000
1000
0000
0000
0100
0000
0000
0010
0000
,
0011
0000
0000
1001
0000
0000
1100
0000
,
0002
2003
3020
0130
,
0002
0000
0000
0000
0003
0000
0000
0000
1000
0000
0000
0010
0000
0000
0100
0000
,
0020
0000
0030
0000
,
1000
0000
0000
0001
0000
0000
0010
0000
,
0200
0000
0300
0000
,
2000
0000
0000
0000
3000
0000
0000
0000
0100
0000
0000
1000
0000
0000
0001
0000
,
0020
0000
0030
0000
,
0001
0000
0000
0100
0000
0000
0010
0000
,
2000
0000
0000
3001
,
0000
0000
0000
0000
;
#NOTES:
     dance-single:
     :
     Hard:
     16:
     :
0000
0000
0000
0000
,
0000
0000
0000
0000
,
0000
0000
0000
0000
,
0000
0000
0000
0000
,
0000
0000
0000
0000
,
1001
0000
0000
0000
1000
0000
1000
0000
0001
0000
0001
0000
1000
0100
0000
0000
,
0010
0000
0001
0000
0100
0000
0010
0000
1000
0000
1000
0000
0001
0100
0000
0000
,
0001
0001
1000
1000
0100
0000
0110
0000
,
0001
0000
0000
0010
0000
0000
0100
0000
1000
0000
0001
0000
1001
0000
0000
0000
,
0200
0000
0310
1001
,
0001
0000
1000
0000
0001
0100
0001
0100
0010
0000
0000
0000
1010
0000
0000
0000
,
0010
1000
0200
0000
0320
0000
0031
0000
,
0001
1000
0001
1000
0010
0100
0010
0100
0001
1000
0001
1000
0100
0000
0000
0000
,
0020
0000
0130
1001
,
1000
0000
0001
0000
1000
0100
1000
0100
0010
0000
0000
0000
0011
0000
0000
0000
,
0010
0001
0200
0000
0320
0000
1030
0001
,
1000
0010
1000
0010
0100
0001
0100
0001
1000
0000
0001
0000
0010
0000
0100
0000
,
1000
0000
0000
0000
1001
0000
0000
0000
0001
0000
1000
0010
0000
0100
0000
0010
,
1000
0000
0001
0000
1000
0100
0010
0001
0000
0100
0000
0001
0010
0000
0100
0000
,
1000
0000
0010
0100
0010
0000
1000
0200
0000
0000
0310
0001
1000
0000
0001
0000
,
0100
0000
0010
0000
1000
0001
1000
0000
0001
0010
0000
0100
1000
0000
0000
0000
,
1001
0000
0001
0000
1000
0000
0002
0100
0003
0000
2000
0010
3000
0000
0001
0100
,
0010
1000
0000
0100
0000
1000
0010
0000
1000
0000
0001
1000
0100
0000
0010
0000
,
0001
0000
0100
0010
0100
0000
0001
0020
0000
0000
0130
1000
0001
0000
1000
0000
,
0010
0100
0010
1000
0001
0010
0100
0010
0001
1000
0000
0000
,
0200
0000
0300
0000
1001
0000
0000
0000
1000
0000
0001
0100
0000
0010
0000
0100
,
0001
0000
0010
0000
0100
1000
0000
0001
0100
0001
0000
1000
0100
0000
0010
0000
,
0001
0000
0100
0010
0100
0000
0001
0020
0000
0000
0130
1000
0001
0000
1000
0000
,
0010
0000
0000
0000
0000
0000
0100
0000
0000
0000
0000
0000
0001
0000
0000
1000
0000
0000
0100
0000
0000
0010
0000
0000
0001
0000
0000
1000
0000
0000
0000
0000
0000
0001
0000
0000
1000
0000
0000
0000
0010
0000
0000
0000
0100
0000
0000
0000
,
0002
0000
0000
0000
1003
0000
0000
0001
0000
0000
1000
0100
0010
0000
0001
0000
,
0100
0000
0010
1000
0001
0000
0010
0000
0100
1000
0000
0001
0100
0000
0010
0000
,
1000
0000
0100
0010
0100
0000
1000
0020
0000
0000
0130
0001
1000
0000
0100
0000
,
0010
0001
1000
0010
1000
0001
0010
0100
1000
0001
0000
0000
,
1000
0100
1000
0000
0001
0000
0010
0000
0100
1000
0100
0000
0010
0000
0001
0000
,
1000
0010
1000
0000
0001
0000
0100
0000
0010
1000
0010
0000
0100
0000
0001
0000
,
1000
0100
1000
0000
0001
0000
0010
0000
0100
1000
0100
0000
0010
0000
0001
0000
,
0100
0010
0100
0000
0001
0000
1000
0100
0000
0010
0001
0000
1001
0000
0000
0000
,
0001
0100
0001
0000
1000
0000
0010
0000
0100
0001
0100
0000
0010
0000
1000
0000
,
0001
0010
0001
0000
1000
0000
0100
0000
0010
0001
0010
0000
0100
0000
1000
0000
,
0001
0100
0001
0000
1000
0000
0010
0000
0100
0001
0100
0000
0010
0000
1000
0000
,
0100
0010
0001
0001
0001
0001
0001
0000
,
1001
0000
1000
0001
0100
0000
0001
0000
1000
0010
0100
0010
0000
1000
0001
0000
,
0010
0000
0100
1000
0000
0100
1000
0000
0001
0100
0000
0001
0100
0000
0010
0000
,
1000
0000
0001
1000
0100
0000
1000
0000
0001
0010
0100
0010
0000
0001
1000
0000
,
0010
0000
0100
0001
0000
0100
0001
0000
1000
0100
0000
1000
0100
0000
0010
0000
,
0001
0000
1000
0010
0100
0000
0001
0000
1000
0100
0010
0100
0000
1000
0001
0000
,
1000
0000
0010
0100
0000
0010
0100
0000
0001
1000
0000
0001
1000
0000
0100
0000
,
0010
0000
0001
0100
0010
0000
1000
0000
0001
0010
0100
1000
0000
0001
0100
0000
,
0020
0000
1000
0130
,
0010
1000
0001
0000
0010
0001
1000
0000
,
0100
0000
1000
0001
0000
1000
0001
0000
0010
0000
0000
0000
0001
0000
1000
0000
,
1010
0000
0000
0001
0100
0000
0000
0000
0011
0000
0000
1000
0100
0000
0000
0000
,
1010
1000
1001
0001
0021
0000
0130
0000
,
0010
0001
1000
0000
0010
1000
0001
0000
,
0100
0000
0001
1000
0000
0001
1000
0000
0010
0000
0000
0000
1000
0000
0001
0000
,
0011
0000
0000
1000
0100
0000
0000
0000
1010
0000
0000
0001
0100
0000
0000
0000
,
0001
1000
0001
0100
0000
0010
1000
0001
1000
0000
0100
0000
0010
0000
0000
0000
,
0011
0001
1000
0100
1100
1000
0001
0100
,
0101
0001
1000
0010
1010
1000
0001
0010
,
0100
0100
1000
1000
0001
0001
0100
0100
,
0010
0100
0010
0100
0010
0100
0010
0100
0020
0000
0000
0000
0130
0000
0000
0000
,
1001
0000
0000
0000
0001
0010
0100
1000
0001
0100
0000
0001
0000
0000
1000
0000
,
0200
0000
0000
0000
0300
0000
0010
0001
1000
0000
0010
0000
0100
0000
0001
0000
,
0011
0000
1000
1100
0000
1000
1010
0000
,
0001
0000
0000
0000
1000
0100
0010
0000
0001
0010
0100
0000
1000
0000
0000
0000
,
1001
0000
0000
0000
1000
0100
0010
0001
1000
0010
0000
1000
0000
0000
0001
0000
,
0020
0000
0000
0000
0130
1000
0001
0000
0100
0000
0000
0010
0000
0000
1000
0000
,
1010
0000
0001
0101
0000
0001
0011
0000
,
1000
0000
0000
0001
0010
0100
1000
0001
1000
0010
0100
0001
1000
0000
0000
0000
,
0001
0000
1000
0000
0010
0100
0001
0100
0010
0000
1000
0000
0100
0000
0010
0001
,
1000
0001
0100
0010
1000
0001
1000
0100
0010
0000
0001
0000
1000
0000
0010
0000
,
0100
0000
0001
1000
0000
0001
0010
0001
1000
0100
1000
0001
,
0100
0000
0000
0000
0001
0000
0010
0000
0000
0000
0100
0000
1000
0000
0000
0001
0000
0000
0100
0000
0000
0000
0000
0000
,
0010
0000
0020
0000
0000
0030
0100
0001
1000
0001
0010
0100
1000
0001
1000
0010
,
0100
0000
0001
0000
0010
0001
1000
0000
1100
0000
0000
0011
0000
0000
1001
0000
,
1000
0000
0001
0100
0000
0010
1000
0001
0010
0001
1000
0010
,
0100
0000
0001
0010
0000
0100
1000
0000
0000
1001
0000
0000
,
0001
0100
0000
0100
0001
0000
0001
0100
,
0010
0010
0100
0100
0001
0001
0010
0010
,
0100
1000
0000
1000
0100
0000
0100
1000
,
0100
0100
1000
1000
0010
0010
0100
0000
,
0001
0000
1000
0000
0001
0000
1000
0000
0000
0010
0000
0000
0100
0000
0000
0000
0000
0000
0010
0000
0000
0100
0000
0000
,
0001
0001
1000
1000
0001
0001
1000
1000
,
0100
0010
0000
0010
0100
0000
0100
0010
,
0001
1000
0100
1000
0001
0100
0010
1000
0001
0010
0000
0000
,
0000
0000
0000
0000
;
#NOTES:
     dance-double:
     :
     Easy:
     6:
     :
00000000
00000000
00000000
00000000
,
00000000
00000000
00000000
00000000
,
00000000
00000000
00000000
00000000
,
00000000
00000000
00000000
00000000
,
00000000
00000000
00000000
00000000
,
00001000
00000000
00010000
00000000
,
00100000
00000000
01000000
00000000
,
00010000
00000000
10000000
00000000
,
00010000
00100000
01000000
00000000
,
20000000
00000000
30000000
00000000
,
00010000
00000000
01000000
00000000
,
00001000
00000000
00010000
00000000
,
00001000
00000000
00010000
00000100
,
00000020
00000000
00000030
00000000
,
00000100
00000000
00001000
00000000
,
00000010
00000010
00000010
00000000
,
00001000
00000000
00000001
00000000
,
00001001
00000001
00000100
00000000
,
00000001
00000100
00001000
00000000
,
00000100
00001000
00010000
00001000
,
00100000
00010000
02000000
03000000
,
10100000
00100000
01000000
00000000
,
00010000
10000000
01000000
00000000
,
00100000
00010000
00100000
00001000
,
00020000
00000000
00000000
00030000
,
00000000
00011000
00000000
00000000
,
00001000
00010000
00000100
00000000
,
00001000
00000010
00001000
00000010
,
00000110
00000001
00000000
00000000
,
00000100
00000110
00000010
00000000
,
00010000
00001000
00010000
00000000
,
00001000
01000000
00010000
00100000
,
02000000
00000000
00000000
03000000
,
10000000
00100000
00010000
00000000
,
00001000
00010000
00000100
00000000
,
00010000
00001000
00000010
00000000
,
00000001
00000010
00000001
00000010
,
00000001
00000100
00000010
00000000
,
00010000
00001000
00100000
00000000
,
00001000
00010000
01000000
00000000
,
20000000
00000000
00000000
30000000
,
10010000
10000000
01000000
00000000
,
00100000
00001000
00010000
00000000
,
00010000
00001000
00000100
00000000
,
00000100
00001000
00010000
00000000
,
00010000
00000100
00000010
00000000
,
00000010
00000100
00001000
00000000
,
00001000
00000001
00001000
00000001
,
00000200
00000000
00000000
00000300
,
00000010
00000000
00000010
00000000
,
00010000
00000000
00001000
00000000
,
00100000
00000000
00100000
00000000
,
00001000
00010000
00100000
00000000
,
10000000
00000000
00010000
00000000
,
01000000
00000000
00010000
00000000
,
00100000
00000000
00001000
00000000
,
00010000
00000000
00000000
00000000
,
00002000
00000000
00003000
00000000
,
00000020
00000000
00000030
00000000
,
00000001
00000010
00000100
00010000
,
00001000
01000000
00100000
00000000
,
10000000
00000000
00000000
00000000
,
01000000
00000000
00000000
00000000
,
00010000
00000000
00000000
00000000
,
00001000
00000000
00000000
00000000
,
00000100
00000000
00000000
00000000
,
00000001
00000000
00000000
00000000
,
00000010
00000000
00000000
00000000
,
00001000
00000000
00000000
00000000
,
00011000
00001000
01000000
00000000
,
01000000
00010000
00100000
00000000
,
00001000
00010000
00100000
10000000
,
01000000
00010000
00001000
00000000
,
00011000
00010000
00000100
00000000
,
00000100
00001000
00000010
00000000
,
00010000
00001000
00000010
00000001
,
00000100
00001000
00010000
00000000
,
00012000
00000000
00000000
00003000
,
02000000
00000000
00000000
03000000
,
00020000
00000000
00000000
00030000
,
20000000
00000000
00000000
30000000
,
02000000
00000000
03000000
00000000
,
00020000
00000000
00030000
00000000
,
00002000
00000000
00003000
00000000
,
00000200
00000000
00000300
00000010
,
00000000
00000000
00000000
00000000
;
#NOTES:
     dance-double:
     :
     Medium:
     10:
     :
00000000
00000000
00000000
00000000
,
00000000
00000000
00000000
00000000
,
00000000
00000000
00000000
00000000
,
00000000
00000000
00000000
00000000
,
00000000
00000000
00000000
00000000
,
00001000
00000000
00010000
00001000
00010000
00001000
00010000
00000000
,
00001000
00100000
00010000
00000000
00100000
00000000
00000000
00000000
,
01000000
10000000
01000000
10000000
01000000
00000000
00100000
00000000
,
00001000
00010000
00001000
00000000
00010000
00001000
00010000
00000000
,
00000020
00000000
00000130
00000000
,
00000001
00000000
00001000
00000000
00000001
00000010
00000001
00000010
,
00000100
00010000
00001000
00001000
,
00100000
00000000
00010000
00000000
10000000
10000000
00010000
00010000
,
02000000
00000000
03100000
00000000
,
10000000
00000000
00010000
00000000
01000000
00100000
01000000
00000000
,
00010000
10000000
01000000
00100000
,
00001000
00000000
00000000
00010000
00000000
00000000
00001000
00000000
00010000
00000000
00000000
00000000
00011000
00000000
00000000
00000000
,
00010000
00000000
00000000
00000000
00000010
00000000
00000000
00000000
00001000
00000000
00000000
00000100
00000000
00000000
00000000
00000000
,
00001000
00000000
00000100
00000000
00000010
00000000
00000000
00000001
00000000
00000000
00000010
00000000
00000100
00000000
00000000
00000000
,
00010000
00000000
00000000
00000000
00001000
00000000
00000000
00011000
00000000
00000000
00000000
00000000
00001000
00000000
00000000
00000000
,
01000000
00000000
00010000
00100000
00010000
00100000
01000000
00000000
,
10000000
00000000
00000000
00000000
00010000
00000000
00000000
01000000
00000000
00000000
00000000
00100000
00000000
00000000
01000000
00000000
,
01000000
00010000
10000000
01000000
,
00100000
00000000
00000000
00000000
00001000
00000000
00000000
00011000
00000000
00000000
00000000
00000000
00000000
00000000
00000000
00000000
,
00002000
00003200
00000302
00000013
,
00000000
00000000
00000000
00000000
00001001
00000000
00000000
00000000
00000001
00000000
00000000
00000100
00000000
00000000
00000000
00000000
,
00000001
00000000
00000000
00000000
00001000
00000000
00000000
00000001
00000000
00000000
00000010
00000000
00000100
00000000
00000000
00000000
,
00010000
00000000
00000000
00000000
00001000
00000000
00000000
00011000
00000000
00000000
00000000
00000000
00010000
00000000
00000000
00000000
,
01000000
00000000
10000000
00100000
01000000
00000000
00010000
00000000
,
00220000
00000000
00000000
00000000
00330000
00000000
00000000
00000000
00000000
00000000
00000000
00010000
00000000
00000000
10000000
00000000
,
10000000
01000000
00100000
00010000
,
00100000
00000000
00000000
00000000
00001000
00000000
00000000
00011000
00000000
00000000
00000000
00000000
00000000
00000000
00000000
00000000
,
00002000
00003020
00000032
00001003
,
00000001
00000100
00000010
00000000
00001000
00000000
00000100
00000000
,
00010000
00001000
00010000
00000000
00001000
00000000
01000000
00000000
,
00010000
00100000
01000000
00000000
10000000
00000000
00010000
00000000
,
10000000
00100000
01000000
00000000
00010000
00000000
00100000
00000000
,
00001000
00010000
00001000
00000000
00010000
00000000
00000100
00000000
,
00001000
00000100
00000010
00000000
00000100
00000000
00001000
00000000
,
00000001
00000100
00000010
00000000
00001000
00000000
00000001
00000000
,
00000002
00000203
00002300
00013000
,
00001000
00000000
00100000
00010000
01000000
00000000
00001000
00000000
,
00010000
00000000
00000010
00001000
00000100
00000000
00010000
00000000
,
00001000
00000000
00100000
00010000
01000000
00000000
00001000
00000000
,
00010000
00000000
00000010
00001000
00000100
00000000
00010000
00000000
,
00001000
00000100
00000001
00000001
,
00000010
00001000
00010000
00010000
,
00100000
10000000
10000000
01000000
,
02200000
00000000
00000000
03300000
,
00001000
00000000
00001000
00000000
,
00010000
00000000
00010000
00000000
,
00001000
00000000
00001000
00000000
,
00010000
00001000
00000200
00000300
,
00001000
00000000
00001000
00000000
,
00010000
00000000
00010000
00000000
,
00001000
00000000
00001000
00000000
,
00010000
00000000
00000000
00000010
00000000
00000000
00001000
00000000
00000100
00000000
00001000
00000000
00000100
00000000
00000000
00000000
,
00001000
00001000
00000001
00000001
,
00000100
00000100
00001000
00001000
,
00010000
00001000
00010000
00001000
00100000
00010000
00100000
00010000
,
01000000
00100000
10000000
00010000
00200000
00000000
00300000
00000000
,
01100000
00000000
01000000
00000000
,
10000000
00000000
00100000
00000000
,
00010000
00000000
00000000
00001000
00000000
00000000
00000010
00000000
,
00000001
00000000
00000001
00000010
00000100
00000000
00000000
00000000
,
00000010
00000000
00000001
00000000
,
00000100
00000000
00001000
00000000
,
00010000
00000000
00000000
01000000
00000000
00000000
10000000
00000000
,
20020000
00000000
00000000
30030000
,
10000000
00000000
00010000
00000000
01000000
00100000
00010000
00000000
,
00001000
00100000
00001000
00010000
,
01000000
00000000
00000000
10000000
00000000
00000000
00100000
00000000
,
00000000
00010000
00000000
00000000
00001000
00010000
00000100
00000000
,
00001000
00000000
00000001
00000000
00000010
00000100
00001000
00000100
,
00000010
00000000
00000000
00000000
00000001
00000000
00000000
00000000
00000100
00000000
00000000
00000010
00000000
00000000
00010000
00000000
,
00001000
00000000
00000000
00000100
00000000
00000000
00000001
00000000
,
00000020
00000230
00020300
00031000
,
00020000
00000000
00000000
00000000
00030000
00000000
00000000
00000000
00001000
00000000
00000000
00100000
00000000
00000000
00010000
00000000
,
02000000
00000000
03000000
00000000
,
00100000
00000000
00000000
00010000
00000000
00000000
00001000
00000000
,
00020000
00000000
00030000
00000000
,
00000020
00000000
00000000
00000000
00000030
00000000
00000000
00000000
00001000
00000000
00000000
00000100
00000000
00000000
00000010
00000000
,
00000200
00000000
00000300
00000000
,
00010000
00000000
00000000
00001000
00000000
00000000
00000100
00000000
,
00000002
00000000
00000000
00000013
,
00000000
00000000
00000000
00000000
;
#NOTES:
     dance-double:
     :
     Hard:
     16:
     :
00000000
00000000
00000000
00000000
,
00000000
00000000
00000000
00000000
,
00000000
00000000
00000000
00000000
,
00000000
00000000
00000000
00000000
,
00000000
00000000
00000000
00000000
,
00011000
00000000
00000000
00000000
00001000
00000000
00001000
00000000
00010000
00000000
00010000
00000000
00000010
00001000
00000000
00000000
,
00000010
00000000
00000100
00000000
00000001
00000000
00000000
00000000
00001000
00000000
00000100
00000000
00010000
00001000
00000000
00000000
,
00010000
00010000
01000000
00100000
00010000
00000000
10000000
00000000
,
00100000
00000000
00000000
01000000
00000000
00000000
00001000
00000000
00010000
00000000
00001000
00000000
00011000
00000000
00000000
00000000
,
00020000
00000000
01030000
01100000
,
00100000
00000000
00001000
00000000
00010000
00001000
00010000
00001000
00010000
00000000
00001000
00000000
00000100
00000000
00000000
00000000
,
00000010
00001000
00000002
00000000
00002003
00000000
00003010
00000000
,
00010000
00001000
00010000
00001000
00010000
00000000
00000000
00000000
00001000
01000000
00001000
01000000
00010000
01000000
00010000
00000000
,
02000000
00000000
03100000
10010000
,
10000000
00000000
00010000
00000000
10000000
01000000
10000000
01000000
00100000
00000000
00001000
00000000
00010000
00000000
00000000
00000000
,
00000010
00001000
00000200
00000000
00000320
00000000
00000130
00000000
,
00001000
00000100
00001000
00000100
00010000
00001000
00010000
00001000
00100000
00000000
00010000
00000000
01000000
00000000
00100000
00000000
,
10100000
00000000
00000000
00000000
10000000
00000000
00010000
00000000
10000000
00000000
01000000
00100000
00000000
00010000
00000000
00100000
,
01000000
00000000
00010000
00000000
00001000
00000000
00010000
00000000
00000100
00001000
00000000
00000010
00000100
00000000
00001000
00000000
,
00010000
00000000
00001000
00000000
00010000
00000000
00001000
00200000
00000000
00000000
01300000
10000000
00010000
00000000
00100000
00000000
,
01000000
00000000
10000000
00000000
01000000
10000000
01000000
00000000
00010000
00001000
00000000
00010000
00000010
00000000
00000000
00000000
,
00001000
00000000
00000001
00000000
00001000
00000000
00000100
00001000
00000000
00000000
00000100
00001000
00000000
00000000
00000100
00001000
,
00000100
00000000
00000000
00010000
00001000
00010000
00001000
00000000
01000000
00000000
00100000
00000000
00010000
00000000
00100000
00000000
,
01000000
00000000
00010000
10000000
00010000
00000000
00100000
02000000
00000000
00000000
03000000
10000000
00000000
10000000
00000000
01000000
,
10000000
01000000
00100000
00001000
00010000
00001000
00010000
00000100
00000010
00000001
00000000
00000000
,
00000200
00000000
00000300
00000000
00001001
00000000
00000000
00000000
00000001
00000000
00000100
00000010
00000000
00000100
00000000
00000000
,
00000001
00000000
00001000
00000000
00000010
00010000
00000000
00001000
00010000
00001000
00000000
00010000
00000100
00000000
00001000
00000000
,
00000001
00000000
00000010
00000100
00001000
00000000
00000010
00020000
00000000
00000000
00030000
00000000
00001000
00000000
00010000
00000000
,
01000000
00000000
00000000
00000000
00000000
00000000
10000000
00000000
00000000
00000000
00000000
00000000
00010000
00000000
00000000
00100000
00000000
00000000
00010000
00000000
00000000
00100000
00000000
00000000
01000000
00000000
00000000
10000000
00000000
00000000
00000000
00000000
00000000
01000000
00000000
00000000
10000000
00000000
00000000
00000000
01000000
00000000
00000000
00000000
00100000
00000000
00000000
00000000
,
00002000
00000000
00000000
00000000
00013000
00000000
00001000
00010000
00000000
00000100
00001000
00000100
00000000
00010000
00001000
00000000
,
00010000
00000000
00000010
00000000
00001000
00000000
00000100
00000000
00000010
00000000
00000001
00001000
00000001
00000000
00001000
00000000
,
00000001
00000100
00000010
00000000
00001000
00000000
00000100
00020000
00000000
00000000
00030000
00001000
00000000
00010000
00000000
00001000
,
00010000
00001000
00100000
00010000
01000000
00100000
10000000
00010000
00100000
01000000
00000000
00000000
,
10000000
01000000
10000000
00000000
01000000
00000000
00100000
00000000
00010000
00100000
00010000
00100000
00000000
00000000
00001000
00000000
,
00010000
00001000
00010000
00000000
00001000
00000000
00000100
00000000
00000010
00001000
00000001
00000000
00000100
00000000
00000010
00000000
,
00001000
00000001
00001000
00000000
00000100
00000000
00010000
00000000
00001000
00010000
00001000
00010000
00001000
00000000
00010000
00000000
,
00000010
00000000
00001000
00000000
00000001
00000000
00001000
00000100
00000000
00000010
00000001
00000000
00001000
00000000
00000010
00000000
,
00001000
00000001
00001000
00000000
00000001
00000000
00000100
00000000
00000010
00001000
00000010
00001000
00000000
00000000
00000010
00000000
,
00010000
00001000
00010000
00000000
00001000
00000000
01000000
00000000
00010000
00100000
00010000
00000000
00100000
00000000
01000000
00000000
,
10000000
01000000
10000000
00000000
00010000
00000000
01000000
00000000
00100000
01000000
00100000
01000000
00100000
00000000
00010000
00000000
,
00001000
00010000
00001000
00001000
00001000
00001000
00011000
00000000
,
00010000
00000000
00000100
00001000
00000100
00000000
00001000
00000000
00000001
00000010
00000001
00000010
00000000
00000000
00000001
00000000
,
00001000
00000000
00000010
00001000
00000000
00000010
00001000
00000000
00000010
00010000
00000000
00000010
00010000
00000000
00001000
00000000
,
00100000
00000000
00010000
00100000
00010000
00000000
10000000
00000000
00100000
01000000
00010000
00000000
10000000
00000000
01000000
00000000
,
00100000
00000000
00010000
00100000
00000000
00010000
00100000
00000000
00001000
00010000
00000000
00001000
00010000
00000000
00001000
00000000
,
00000100
00000000
00000010
00000100
00000010
00000000
00001000
00000000
00000001
00001000
00000001
00001000
00000000
00000000
00000010
00000000
,
00010000
00000000
00001000
00010000
00000000
00001000
00010000
00000000
01000000
00100000
00000000
01000000
00100000
00000000
00010000
00000000
,
10000000
00000000
01000000
10000000
01000000
00000000
00100000
00000000
00001000
00010000
00001000
00010000
00000000
00000000
00001000
00000000
,
00020000
00000000
00031000
00000100
,
00000120
00000100
00000001
00000001
,
00000100
00000100
00001000
00001000
,
00010030
00000000
00000000
00001000
00010000
00000000
00000000
00000000
00001000
00000000
00000000
00100000
00010000
00000000
00000000
00000000
,
00120000
10000000
02030000
03000000
,
02100000
00100000
10000000
10000000
,
00100000
00100000
00010000
00010000
,
03001000
00000000
00000000
00010000
00001000
00000000
00000000
00000000
00010000
00000000
00000000
00000100
00001000
00000000
00000000
00000000
,
00000001
00000100
00000001
00000100
00000000
00000010
00001000
00000000
00000001
00000000
00000010
00000000
00000100
00000000
00000000
00000000
,
00010000
00001000
00100000
00010000
00110000
00100000
00001000
00010000
,
00011000
00001000
01000000
00010000
01010000
01000000
00100000
10000000
,
01000000
01000000
00100000
00100000
00001000
00001000
00010000
00010000
,
00001000
00010000
00001000
00010000
00001000
00010000
00001000
00010000
00002000
00000000
00000000
00000000
00013000
00000000
00000000
00000000
,
00011000
00000000
00000000
00000000
00010000
00001000
00000100
00000000
00000010
00000000
00000000
00001000
00000000
00000000
00000100
00000000
,
00000020
00000000
00000000
00000000
00000030
00000000
00000100
00001000
00000100
00000000
00010000
00000000
00001000
00000000
00000010
00000000
,
00000001
00000000
00000001
00000100
00000000
00000010
00010000
00000000
,
00001000
00000000
00000000
00000000
00010000
00001000
00010000
00000000
01000000
00000000
00100000
00000000
00001000
00000000
00000000
00000000
,
00010000
00000000
00000000
00000000
00001000
00010000
00100000
00000000
01000000
00000000
00000000
00010000
00000000
00000000
00100000
00000000
,
02000000
00000000
00000000
00000000
03100000
00010000
00100000
00000000
00001000
00000000
00000000
00010000
00000000
00000000
01000000
00000000
,
10000000
00000000
10000000
01000000
00000000
00100000
00001000
00000000
,
00010000
00000000
00000000
00001000
00010000
00000100
00001000
00000010
00000100
00000001
00001000
00000100
00000010
00000000
00000000
00000000
,
00000001
00000000
00001000
00000000
00000001
00000100
00000010
00000100
00000001
00000000
00001000
00000000
00000100
00000000
00010000
00001000
,
00100000
00010000
00100000
00010000
10000000
01000000
10000000
01000000
00100000
00010000
10000000
00000000
00100000
00000000
01000000
00000000
,
00010000
10000000
01000000
00100000
00000000
00001000
00010000
00001000
01000000
00010000
01000000
00100000
,
00010000
00000000
00000000
00000000
00000000
00000000
00000000
00000000
00001000
00000000
00000000
00000000
00010000
00000000
00000000
00000000
00000000
00000000
00001000
00000000
00000000
00000000
00000000
00000000
00000010
00000000
00000000
00000001
00000000
00000000
00000010
00000000
00000000
00000000
00000000
00000000
00000001
00000000
00000000
00000000
00000000
00000000
00000000
00000000
00000000
00000000
00000000
00000000
,
00000100
00000000
00000020
00000000
00000000
00000030
00001000
00000010
00010000
00001000
00010000
00001000
00100000
00001000
00100000
00001000
,
00100000
00000000
00010000
00000000
10000000
00000000
01000000
00000000
00110000
00000000
00000000
00101000
00000000
00000000
00001000
00000000
,
00011000
00000000
00010000
00010100
00000000
00000100
00001100
00000000
,
00001000
00000000
00000000
00000000
00000001
00000000
00000100
00000000
00000000
00000000
00000000
00000000
00000010
00000000
00000000
00010000
00000000
00000000
00002000
00000000
00000000
00000000
00000000
00000000
,
00013000
00000000
00000000
00000000
00001000
00010000
00001000
00000000
00010000
00000000
00000000
00001000
00000000
00000000
00100000
00000000
,
00020000
00000000
00000000
00000000
00030000
00000000
00100000
00010000
00100000
00000000
00010000
00000000
10000000
00000000
00100000
00000000
,
01000000
00000000
00000000
00000000
00010000
00100000
00010000
00000000
00100000
00000000
00000000
01000000
00000000
00000000
00010000
00000000
,
00002000
00000000
00000000
00003000
00010000
00001000
00010000
00000000
00001000
00000000
00000100
00000000
00000020
00000000
00000000
00000000
,
00000030
00000000
00000000
00000000
00001000
00000010
00001000
00000000
00000001
00000000
00000000
00000100
00000000
00000000
00000010
00000000
,
00020000
00000000
00000000
00030000
00001000
00010000
00001000
00000000
01000000
00000000
00000000
00010000
00000000
00000000
00100000
00000000
,
00000000
00000000
00000000
00000000
01000000
10000000
01000000
00000000
00100000
00000000
00000000
00001000
00000000
00000000
00010000
00000000
,
00002000
00000000
00000000
00013000
,
00000000
00000000
00000000
00000000
;
