
//----- song ID: sibr -----//
#TITLE:SILKY BRAVE;
#ARTIST:DJ Shimamura;
#BANNER:SILKY BRAVE.png;
#BACKGROUND:SILKY BRAVE-bg.png;
#CDTITLE:./CDTitles/bm IIDX 33 Sparkle Shower.png;
#MUSIC:SILKY BRAVE.ogg;
#SAMPLESTART:11.698;
#SAMPLELENGTH:15;
#BPMS:0=178;
#BGSTAGE:17;
#NOTES:
     dance-single:
     :
     Beginner:
     3:
     :
0000
0000
0000
0000
,
0000
0000
0000
0000
,
0000
0000
0000
0000
,
0000
0000
0000
0000
,
0000
0000
0000
0000
,
0000
0000
0000
0000
,
0000
0000
0000
0000
,
0000
0000
0000
0000
,
0000
0000
0000
0000
,
1000
0000
0000
0000
,
1000
0000
0000
0000
,
0001
0000
0000
0000
,
0001
0000
0000
0000
,
1000
0000
1000
0000
,
1000
0000
1000
0000
,
0001
0000
0001
0000
,
0002
0000
0003
0000
,
0010
0000
0000
0000
,
0010
0000
0000
0000
,
0100
0000
0000
0000
,
0100
0000
0100
0000
,
1000
0000
0000
0000
,
1000
0000
0000
0000
,
0001
0000
0001
0000
,
0002
0000
0000
0003
,
1000
0000
0000
0000
,
1000
0000
0000
0000
,
1000
0000
0000
0000
,
1000
0000
0000
0000
,
0001
0000
0000
0000
,
0001
0000
0000
0000
,
0001
0000
0000
0000
,
0001
0000
1000
0000
,
0020
0000
0030
0000
,
0200
0000
0300
0000
,
0020
0000
0030
0000
,
0200
0000
0300
0000
,
0020
0000
0030
0000
,
0020
0000
0030
0000
,
0020
0000
0000
0000
,
0030
0000
0000
0000
,
1000
0000
0000
0000
,
1000
0000
0000
0000
,
0001
0000
0000
0000
,
0001
0000
0000
0000
,
0100
0000
0000
0000
,
0100
0000
0000
0000
,
0010
0000
0000
0000
,
0010
0000
0000
0000
,
1000
0000
0000
0000
,
1000
0000
0000
0000
,
0001
0000
0000
0000
,
0001
0000
0000
0000
,
0010
0000
0000
0000
,
0010
0000
0000
0000
,
0100
0000
0000
0000
,
0100
0000
0000
0000
,
1000
0000
0000
0000
,
1000
0000
0000
0000
,
1000
0000
0000
0000
,
1000
0000
0000
0000
,
0001
0000
0000
0000
,
0001
0000
0000
0000
,
0001
0000
0001
0000
,
0002
0000
0000
0003
,
0100
0000
0100
0000
,
0100
0000
0100
0000
,
0020
0000
0030
0000
,
0020
0000
0030
0000
,
0010
0000
0010
0000
,
0010
0000
0010
0000
,
0200
0000
0300
0000
,
0200
0000
0300
0000
,
0001
0000
0001
0000
,
0001
0000
0001
0000
,
2000
0000
3000
0000
,
2000
0000
3000
0000
,
0100
0000
0100
0000
,
0010
0000
0010
0000
,
0020
0000
0030
0000
,
0200
0000
0300
0000
,
1001
0000
0000
0000
,
0000
0000
0000
0000
;
#NOTES:
     dance-single:
     :
     Easy:
     7:
     :
0000
0000
0000
0000
,
0000
0000
0000
0000
,
0000
0000
0000
0000
,
0000
0000
0000
0000
,
0000
0000
0000
0000
,
0000
0000
0000
0000
,
0000
0000
0000
0000
,
0000
0000
0000
0000
,
0000
0000
0000
1000
,
1001
0000
0000
0001
,
1001
0000
0000
0010
,
1001
0000
0000
0100
,
1001
0000
0000
1000
,
1001
0000
0101
0000
,
1001
0000
0011
0000
,
0010
0001
1000
0100
,
0010
0010
0100
1001
,
0001
0010
0001
0000
,
1000
0100
1000
0000
,
0010
0000
0010
0000
,
0200
0310
0200
0310
,
1000
0010
1000
0000
,
0001
0100
0001
0000
,
0010
0000
0010
0000
,
0100
0100
0100
0100
,
1001
0000
0000
0001
,
0011
0000
0000
1000
,
1100
0000
0000
0100
,
1001
0000
0110
0000
,
1001
0000
0000
0001
,
0101
0000
0000
1000
,
1010
0000
1000
0000
,
0001
0001
0001
0011
,
2100
0000
0000
3000
,
0002
0000
0000
0013
,
0200
0000
0000
0300
,
2000
3000
0020
0030
,
0200
0000
0000
0300
,
0002
0000
0000
1003
,
0020
0000
0000
0000
,
0000
0000
0000
0030
,
1000
0000
0000
1000
0000
0000
1000
0000
,
0000
0001
0000
0000
0001
0000
0001
0000
,
0010
0000
0000
0010
0000
0000
0010
0000
,
0000
0100
0000
0000
0110
0000
0000
0000
,
0010
0000
0000
0010
0000
0000
0010
0000
,
0000
0001
0000
0000
0001
0000
0001
0000
,
0100
0000
0000
0100
0000
0000
0100
0000
,
0000
0010
0000
0000
1010
0000
0000
0000
,
1000
0000
0000
0100
0000
0000
0010
0000
,
0000
0001
0000
0000
0100
0000
0100
0000
,
0001
0000
0000
0010
0000
0000
0100
0000
,
0000
1000
0000
0000
1100
0000
0000
0000
,
2000
0000
0000
3000
,
0002
0000
0000
0003
,
0220
0000
0000
0330
,
2002
0000
3003
0001
,
1001
0000
0000
1000
,
1001
0000
0000
0010
,
1001
0000
0000
0100
,
1001
0000
0000
1000
,
1001
0000
1010
0000
,
0101
0000
1010
0000
,
0010
0010
0010
0010
,
0100
0010
0100
1001
,
1100
0100
0010
0001
,
0011
0010
0100
1000
,
0010
0000
0100
0000
,
0001
0000
1000
0000
,
0001
0100
0001
0100
,
0010
0100
0010
0100
,
0110
0000
1001
0000
,
1000
0001
1000
1001
,
0011
0010
0100
1000
,
1100
0100
0010
0001
,
0010
0000
0010
0000
,
0100
0000
0100
0000
,
1000
1000
0010
0010
,
0100
0000
0100
0000
0001
0000
0001
0100
,
0000
0000
0000
0010
0000
0010
0000
0010
,
0000
0000
0000
0100
,
1001
0000
0000
0000
,
0000
0000
0000
0000
;
#NOTES:
     dance-single:
     :
     Medium:
     12:
     :
0000
0000
0000
0000
,
0000
0000
0000
0000
,
0000
0000
0000
0000
,
0000
0000
0000
0000
,
0000
0000
0000
0000
,
1001
0000
0001
0010
0000
0000
0010
0000
,
0001
0010
0000
0000
0100
0000
1000
0000
,
1001
0000
1000
0010
0000
0000
0010
0000
,
1000
0010
0000
0000
0100
0000
0001
0000
,
1001
0000
0001
0100
0001
0000
1000
0000
,
1001
0000
1000
0010
1000
0000
0010
0000
,
1001
0000
0001
0010
0001
0000
0100
0000
,
1001
0000
1000
0100
1000
0100
0010
0000
,
0001
1000
0001
0000
0100
0010
0100
0000
,
0010
1000
0010
0000
1000
0100
1000
0000
,
1000
0001
1000
0001
1000
0001
1000
0000
,
1001
1010
0101
1001
,
1000
0100
0010
0100
1000
0000
0001
0010
,
0100
0010
0001
0000
0010
0000
0100
0000
,
1000
0010
0100
0010
1000
0000
0001
0000
,
0001
0100
1000
0100
0001
0010
0100
0000
,
0001
0100
0010
0100
0001
0000
1000
0010
,
0100
0010
1000
0000
0010
0000
0100
0000
,
0110
0000
1001
0000
,
0010
0100
0010
0100
0010
0100
0010
0000
,
1001
0000
1000
0100
0010
0000
0001
0000
,
1001
0000
0001
0100
0010
0000
1000
0000
,
1001
0000
0010
0100
0010
0000
0100
0000
,
1001
0000
0110
0000
,
1001
0000
0001
0100
1000
0100
0001
0000
,
1001
0000
1000
0010
0001
0010
1000
0000
,
1001
0000
0000
0000
0000
0000
0000
0000
1000
0000
0000
0001
0000
0000
1000
0000
,
0010
0000
0010
0000
0100
0010
0100
0000
,
1002
0000
0000
0000
,
0203
0000
0000
0001
,
0320
0000
0000
0000
,
2030
0000
3002
0000
,
2003
0000
0000
0000
,
3200
0000
0000
0010
,
1300
0000
0000
0001
0000
0000
1000
0000
,
0000
0010
0000
0000
1010
0000
0000
0000
,
1001
0000
0000
1000
1000
0001
1000
0010
,
0000
0100
0000
0010
0000
1000
0000
0001
,
0000
1000
2000
0000
0000
0000
0000
0000
,
3010
0000
0000
0100
0000
0000
0010
0000
,
0110
0000
0000
0100
0100
0010
1000
0001
,
0000
0011
0000
0010
0000
0100
0000
1000
,
0000
0010
0200
0000
0000
0000
0310
0020
,
0000
0130
0200
0000
0000
0000
0000
0000
,
0300
0000
0000
0001
0100
0001
0100
0010
,
0000
0110
0000
2010
0000
0000
3100
0200
,
0000
0310
0020
0000
0000
0000
0000
0000
,
0031
0000
0000
1000
0000
0000
0001
0000
,
0101
0000
0000
0001
1000
0001
0100
0020
,
0000
0000
0130
0002
0000
0000
0103
0020
,
0000
0000
2030
0000
0000
0000
3000
0100
,
0000
0010
0200
0000
0000
0000
0310
0000
,
0110
0000
0010
0100
0010
0000
0001
0000
,
1001
0000
0001
1000
0001
0000
0100
0000
,
1001
0000
1000
0001
1000
0000
1000
0000
,
1001
0001
0010
0100
,
1000
0100
0010
0000
0100
0010
0001
0000
,
0010
0001
0100
0000
0010
1000
0100
0000
,
1000
0100
1000
0100
0010
0001
0010
0001
,
0010
0110
0011
1100
,
1001
0000
0000
0001
1000
0100
0010
0002
,
0000
1003
0000
0020
0000
0130
0000
0002
,
0000
0013
0200
0000
0000
0000
0000
0000
,
1300
0000
0000
0001
0000
0000
1000
0000
,
1100
0000
0000
0100
0100
0010
0001
0200
,
0000
0310
0000
2000
0000
3001
0000
0020
,
0000
0031
0200
0000
0000
0000
0310
0020
,
0000
0130
0200
0000
0000
0000
0300
0000
,
1001
0000
0000
1000
0001
0100
0010
2000
,
0000
3010
0000
0200
0000
0300
0001
0002
,
0000
1003
2000
0000
0000
0000
3010
0010
,
0000
0100
0100
0000
0100
0000
0010
0001
,
0010
0000
0000
1000
1000
0001
1000
0100
,
0000
1000
0100
0001
0000
0001
0100
1000
,
0000
0000
0000
0110
0000
1001
0000
0110
,
0000
0000
0000
0010
,
1001
0000
0000
0000
,
0000
0000
0000
0000
;
#NOTES:
     dance-single:
     :
     Hard:
     16:
     :
0000
0000
0000
0000
,
0000
0000
0000
0000
,
0000
0000
0000
0000
,
0000
0000
0000
0000
,
0000
0000
0000
0000
,
1100
1000
0100
0010
0000
0001
0010
0001
,
0010
1000
0000
0010
0011
0000
1100
0000
,
0011
0001
0010
0100
0000
1000
0100
1000
,
0100
0001
0000
0100
1100
0000
1000
0000
,
1001
0000
0001
0100
0001
0000
0100
0000
0010
0000
0100
0000
0001
0000
0000
0000
,
1001
0000
1000
0010
1000
0000
0100
0000
1000
0000
0100
0000
0010
0000
0000
0000
,
1001
0000
0001
0010
0001
0000
0010
0000
0100
0000
0010
0000
0100
0000
0000
0000
,
1001
0000
1000
0100
1000
0000
0100
0000
0010
0000
0100
0000
1000
0000
0000
0000
,
1001
0000
1000
0100
0010
0000
0000
0000
1001
0000
0001
0100
0010
0000
0000
0000
,
1001
0000
1000
0010
0100
0000
0000
0000
1001
0000
0001
0010
0100
0000
0000
0000
,
1000
0100
1000
0000
1000
0100
1000
0000
0001
0010
0001
0000
0001
0010
0001
0000
,
0011
0101
1010
1100
,
1000
0100
0010
0000
0001
0000
0010
0000
1000
0000
0010
0000
0001
0100
0010
0000
,
1000
0100
0001
0100
0010
1000
0010
0001
,
0010
0001
1000
0000
0100
0000
1000
0000
0010
0000
1000
0000
0001
0000
0100
0000
,
0011
0010
0100
1000
1100
0100
0020
0000
,
0130
1000
0001
0000
0010
0000
0001
0000
0010
0000
0001
0000
0100
0001
1000
0000
,
0010
0100
0010
1000
0010
1000
0001
0100
,
0110
0010
0100
0000
1001
1000
0001
0000
,
1001
0100
1001
0100
1001
0100
0020
0030
,
1001
0000
1000
0001
0100
0000
0010
0000
1000
0000
0100
0000
0010
0000
0100
0000
,
0010
0000
0001
1000
0100
0000
0010
0000
0001
0000
0100
0000
0010
0000
0100
0000
,
0010
0000
1000
0001
0010
0000
0100
0000
1000
0000
0010
0000
0001
0000
0010
0000
,
0110
0000
1001
0000
,
1000
0100
1000
0000
0010
0000
0100
0000
0010
0000
0001
0000
0010
0000
0100
0000
,
0001
0100
0001
0000
0010
0000
0100
0000
0010
0000
1000
0000
0010
0000
0100
1000
,
0010
0100
0010
0100
0001
0100
0001
0100
0010
0000
0000
0010
0000
0000
0010
0000
,
0110
0000
0000
0000
1001
0000
0000
0000
1000
0100
0010
0001
0010
0001
1000
0100
,
0020
0000
0000
0000
,
0200
0000
0000
0000
0000
0030
0001
0000
,
0020
0000
0000
0000
0000
0000
0000
0300
,
2000
0000
0000
3000
0002
0000
0000
0030
,
2000
0000
0000
0000
0000
0000
0000
0003
,
3020
0000
0000
0100
,
1030
0000
0000
1001
0000
0000
0101
0000
,
0000
0110
0000
0000
1010
0000
0000
0000
,
0101
0001
0100
0001
0010
0100
0010
0100
,
0010
1000
0010
1000
0010
0001
0100
0000
,
1010
1000
0010
1000
0100
0010
0100
0010
,
0100
0001
0100
0001
0100
1000
0010
0000
,
1000
0000
0001
0000
1000
0000
0100
1000
0010
0000
1000
0000
0100
0000
1000
0000
,
0100
0010
0001
1000
0001
0010
0100
0010
,
0000
0100
0200
0000
0000
0000
0310
0020
,
0000
0031
0002
0000
0000
0000
0000
0000
,
0003
0000
0000
0100
0010
0100
0010
0001
,
1000
0001
0010
0100
0110
0000
1010
0000
,
0110
0010
0100
0010
0100
1000
0001
1000
,
0001
1000
0100
0010
0110
0000
0101
0000
,
0110
0000
0100
0000
0001
0000
0100
0001
0010
0000
0001
0000
0010
0000
0100
0000
,
1000
0100
0001
0100
0010
0001
1000
0100
,
0010
0100
0001
0100
0010
0001
0100
0220
,
0000
0000
0330
0110
,
1001
0000
1000
0001
1000
0001
0010
0000
0100
0000
1000
0000
0100
0000
0001
0000
,
0100
0000
0010
0001
0010
0001
1000
0000
0010
0000
0001
0000
0010
0000
1000
0000
,
0010
0000
1000
0010
1000
0010
0100
0000
0001
0000
1000
0000
0010
0000
0100
0000
,
1000
0100
0001
0000
0010
0000
0100
0000
0001
0100
1000
0000
0100
0000
0010
0000
,
0001
1000
0001
0000
0100
0000
0010
0000
1000
0001
1000
0000
0100
0000
0010
0000
,
0001
0010
0001
0000
1000
0000
0001
0000
1000
0100
1000
0000
0001
0000
1000
0000
,
0001
0100
0010
1000
0010
1000
0010
1000
0001
0100
0010
1000
0010
1000
0010
1000
,
0100
0110
1100
0110
,
1001
0000
1000
0100
0010
0000
0100
0010
0001
0000
0010
0000
0100
0000
0010
0000
,
0001
0000
1000
0100
0001
0000
0100
1000
0010
0000
0100
0000
0001
0000
0010
0000
,
0100
0000
0010
0001
1000
0000
0001
1000
0100
0000
0010
0000
1000
0000
0010
0000
,
0011
0000
0001
0100
0000
1000
0100
0010
,
1010
0000
0000
0000
0010
0000
0100
0010
1000
0000
0010
0000
0001
0000
0010
0000
,
1000
0100
1000
0010
0100
0001
0010
0001
,
0011
0000
0000
0000
0000
0000
0001
0000
0100
0000
0000
0100
0000
0000
0100
0000
,
0010
0000
0000
1000
0100
0000
0000
0000
0100
1000
0100
1000
0001
0010
0100
1000
,
0010
0000
0100
0000
0001
0000
0010
0000
0001
1000
0001
0000
0010
0000
0100
0000
,
1000
0000
0100
0010
0001
0000
0001
0010
0100
0000
0010
0000
0001
0000
1001
0000
,
0000
0000
1000
0000
1000
0000
0100
1000
0001
0000
0001
0100
0001
0000
0001
0000
,
0000
0000
0001
0100
0010
0000
0100
0000
0010
1000
0010
0000
1010
0000
0110
0000
,
0001
0000
0100
0000
1000
0000
0100
0001
0010
0000
0100
1000
0010
0000
0001
0000
,
0010
0000
1000
0000
0100
0000
0001
0000
0100
1000
0010
1000
0010
0000
1010
0000
,
0000
0000
0000
1001
0000
0110
0000
1001
,
0000
0000
0000
0100
,
1001
0000
0000
0000
,
0000
0000
0000
0000
;
#NOTES:
     dance-double:
     :
     Easy:
     7:
     :
00000000
00000000
00000000
00000000
,
00000000
00000000
00000000
00000000
,
00000000
00000000
00000000
00000000
,
00000000
00000000
00000000
00000000
,
00000000
00000000
00000000
00000000
,
00000000
00000000
00000000
00000000
,
00000000
00000000
00000000
00000000
,
00000000
00000000
00000000
00000000
,
00000000
00000000
00000000
00001000
,
00011000
00000000
00000000
00010000
,
00010100
00000000
00000000
00000100
,
00000110
00000000
00000000
00000010
,
00001001
00000000
00000000
00000001
,
00001001
00000000
00000110
00000000
,
00001001
00000000
00000011
00000000
,
00000001
00000100
00001000
00000100
,
00000001
00000001
00001000
00001001
,
00000001
00000100
00001000
00000000
,
00001000
00000100
00000010
00000000
,
00010000
00000000
00001000
00000000
,
00200000
01300000
00200000
01300000
,
10000000
01000000
00010000
00000000
,
00010000
01000000
00100000
00000000
,
00001000
00000000
00010000
00000000
,
00001000
00010000
00001000
00010000
,
00011000
00000000
00000000
00001000
,
00101000
00000000
00000000
00100000
,
01100000
00000000
00000000
01000000
,
11000000
00000000
10010000
00000000
,
00110000
00000000
00000000
00100000
,
01100000
00000000
00000000
01000000
,
11000000
00000000
10000000
00000000
,
00010000
00010000
00010000
00110000
,
21000000
00000000
00000000
30000000
,
02000000
00000000
00000000
03000000
,
00020000
00000000
00000000
00030000
,
00002000
00003000
00020000
00030000
,
02000000
00000000
00000000
03000000
,
00200000
00000000
00000000
00300000
,
00002000
00000000
00000000
00000000
,
00000000
00000000
00000000
00003000
,
00010000
00000000
00000000
00010000
00000000
00000000
00010000
00000000
,
00000000
00100000
00000000
00000000
00100000
00000000
00100000
00000000
,
10000000
00000000
00000000
10000000
00000000
00000000
10000000
00000000
,
00000000
01000000
00000000
00000000
01100000
00000000
00000000
00000000
,
00100000
00000000
00000000
00100000
00000000
00000000
00100000
00000000
,
00000000
00001000
00000000
00000000
00001000
00000000
00001000
00000000
,
00010000
00000000
00000000
00010000
00000000
00000000
00010000
00000000
,
00000000
00000100
00000000
00000000
00000110
00000000
00000000
00000000
,
00000010
00000000
00000000
00000001
00000000
00000000
00000100
00000000
,
00000000
00000010
00000000
00000000
00010000
00000000
00010000
00000000
,
00001000
00000000
00000000
01000000
00000000
00000000
00100000
00000000
,
00000000
10000000
00000000
00000000
11000000
00000000
00000000
00000000
,
02000000
00000000
00000000
03000000
,
00200000
00000000
00000000
00300000
,
02200000
00000000
00000000
03300000
,
20020000
00000000
30030000
00010000
,
10010000
00000000
00000000
10000000
,
10100000
00000000
00000000
00100000
,
01100000
00000000
00000000
01000000
,
01001000
00000000
00000000
00001000
,
00011000
00000000
00010100
00000000
,
00000110
00000000
00000011
00000000
,
00000001
00000001
00000001
00000001
,
00001000
00000100
00000010
00000110
,
00001001
00000001
00000100
00001000
,
00000100
00000010
00001000
00000100
,
00010000
00000000
00001000
00000000
,
00100000
00000000
00010000
00000000
,
10000000
01000000
10000000
01000000
,
00100000
01000000
00100000
00010000
,
00110000
00000000
00101000
00000000
,
00001000
00010000
00001000
00011000
,
00010010
00000010
00000100
00000010
,
00001000
00000100
00010000
00001000
,
01000000
00000000
00100000
00000000
,
01000000
00000000
00100000
00000000
,
10000000
10000000
01000000
01000000
,
00100000
00000000
00100000
00000000
00001000
00000000
00001000
00010000
,
00000000
00000000
00000000
00001000
00000000
00001000
00000000
00001000
,
00000000
00000000
00000000
00010000
,
00011000
00000000
00000000
00000000
,
00000000
00000000
00000000
00000000
;
#NOTES:
     dance-double:
     :
     Medium:
     11:
     :
00000000
00000000
00000000
00000000
,
00000000
00000000
00000000
00000000
,
00000000
00000000
00000000
00000000
,
00000000
00000000
00000000
00000000
,
00000000
00000000
00000000
00000000
,
00001000
00000000
00010000
00001000
00000000
00000000
00010000
00000000
,
00001000
00010000
00000000
00000000
00001000
00000000
01000000
00000000
,
00100000
00000000
10000000
00100000
00000000
00000000
00100000
00000000
,
10000000
00100000
00000000
00000000
01000000
00000000
00010000
00000000
,
10010000
00000000
10000000
01000000
00010000
00000000
00001000
00000000
,
00011000
00000000
00010000
00001000
00000010
00000000
00000100
00000000
,
00000110
00000000
00000010
00000001
00000100
00000000
00001000
00000000
,
00000100
00000100
00000010
00000100
,
00000001
00000010
00000001
00000000
00001000
00000010
00001000
00000000
,
00000100
00010000
00000100
00000000
00010000
00001000
00010000
00000000
,
00010000
00001000
00010000
00001000
00010000
00001000
00010000
00000000
,
00001000
00101000
00110000
01010000
,
00010000
10000000
01000000
10000000
00010000
00000000
00100000
00001000
,
00010000
00001000
00100000
00000000
00001000
00010000
00001000
00000000
,
00000100
00000000
00000010
00000100
00000010
00000000
00010000
00000000
,
00001000
00010000
00100000
10000000
01000000
00100000
00010000
00000000
,
10000000
00000000
01000000
00100000
01000000
00000000
00100000
00000000
,
00001000
00010000
00001000
00000000
00010000
00000000
00000010
00000000
,
00000110
00000000
00001001
00000000
,
00000001
00001000
00000001
00001000
00000001
00001000
00000001
00000000
,
00000011
00000000
00000001
00000100
00001000
00000000
00010000
00000000
,
00011000
00000000
00001000
00010000
00100000
00000000
10000000
00000000
,
11000000
00000000
01000000
00100000
00010000
00000000
01000000
00000000
,
01001000
00000000
00011000
00000000
,
00010100
00000000
00010000
00000100
00001000
00000010
00000100
00000000
,
00000110
00000000
00000010
00001000
00000100
00000010
00000100
00000000
,
00001001
00000000
00000000
00000000
00000000
00000000
00000000
00000000
00000001
00000000
00000000
00001000
00000000
00000000
00000001
00000000
,
00000010
00000000
00000100
00000000
00010000
00001000
00100000
00010000
,
02000000
00000000
00000000
00000000
,
03200000
00000000
00000000
00310000
,
00002000
00000000
00000000
00000000
,
00023000
00000000
00032000
00000000
,
00003020
00000000
00000000
00000000
,
00000230
00000000
00000000
00000310
,
00000001
00000000
00000000
00001000
00000000
00000000
00000010
00000000
,
00000000
00000100
00000000
00000000
00001001
00000000
00000000
00000000
,
00000011
00000000
00000000
00000010
00000001
00000010
00000100
00001000
,
00000000
00000100
00000000
00010000
00000000
00001000
00000000
01000000
,
00000000
00010000
00200000
00000000
00000000
00000000
00000000
00000000
,
00302000
00000000
00000000
00023000
00000000
00000000
00031000
00000000
,
00100000
00000000
00000000
00001000
00010000
00000010
00010000
00001000
,
00000000
00100000
00000000
00001000
00000000
00010000
00000000
00001000
,
00000000
00010000
00200000
00000000
00000000
00300000
01000000
02000000
,
00000000
03100000
00200000
00000000
00000000
00000000
00000000
00000000
,
00300000
00000000
00000000
10000000
01000000
00100000
01000000
10000000
,
00000000
00010000
00000000
00200000
00000000
00000000
00301000
00002000
,
00000000
00013000
00020000
00000000
00000000
00000000
00000000
00000000
,
00031000
00000000
00000000
00000010
00000000
00000000
00000100
00000000
,
00000000
00000000
00000000
00001000
00000100
00000001
00000100
00000010
,
00000000
00000000
00000001
00000002
00000000
00000000
00001003
00002000
,
00000000
00000000
00003020
00000000
00000000
00000000
00000000
00000130
,
00000000
00000010
00000020
00000000
00000000
00000000
00000130
00000000
,
00000101
00000000
00000001
00000100
00000010
00000000
00001000
00000000
,
00001100
00000000
00000100
00010000
00001000
00000000
00010000
00000000
,
00011000
00000000
00001000
00010000
00100000
00000000
10000000
00000000
,
10100000
00000000
00100000
01000000
,
00010000
00000000
00100000
00001000
00010000
00000000
00001000
00000000
,
00010000
00000000
00001000
00010000
00000100
00000000
00000010
00000000
,
00000001
00001000
00000001
00001000
00000001
00001000
00000001
00000000
,
00001000
00001100
00000011
00001001
,
00000101
00000000
00000000
00000001
00000100
00001000
00010000
00001000
,
00000000
00010000
00000000
00001000
00000000
00010000
00000000
01000000
,
00000000
00100000
02000000
00000000
00000000
00000000
00000000
00000000
,
13000000
00000000
00000000
00010000
00000000
00000000
10000000
00000000
,
00100000
00000000
00000000
10000000
01000000
00010000
00001000
00010000
,
00000000
00001000
00000000
00010000
00000000
01000000
00000000
00010000
,
00000000
00001000
00002000
00000000
00000000
00000000
00013000
00020000
,
00000000
00031000
00002000
00000000
00000000
00000000
00000000
00000000
,
00013000
00000000
00000000
00010000
00001000
00100000
01000000
00200000
,
00000000
01300000
00000000
00200000
00000000
00000000
00310000
00020000
,
00000000
10030000
20000000
00000000
00000000
00000000
30100000
01000000
,
00000000
00100000
01000000
00000000
00001000
00000000
00010000
00000000
,
00001000
00000000
00000000
00010000
00001000
00100000
00001000
00010000
,
00000000
00000010
00001000
00000100
00000000
00000010
00000001
00000100
,
00000000
00000000
00000000
00000101
00000000
00001001
00000000
00001010
,
00000000
00000000
00000000
00000100
,
00001001
00000000
00000000
00000000
,
00000000
00000000
00000000
00000000
;
#NOTES:
     dance-double:
     :
     Hard:
     15:
     :
00000000
00000000
00000000
00000000
,
00000000
00000000
00000000
00000000
,
00000000
00000000
00000000
00000000
,
00000000
00000000
00000000
00000000
,
00000000
00000000
00000000
00000000
,
00011000
00010000
00001000
00000100
00000000
00000001
00000100
00000001
,
00000100
00000010
00000000
00010000
00001000
00000000
00010100
00000000
,
00011000
00001000
00010000
00100000
00000000
10000000
01000000
10000000
,
01000000
00100000
00000000
00001000
00010000
00000000
00101000
00000000
,
00100000
00000000
00010000
10000000
01000000
00000000
00010000
00000000
00001000
00000000
00010000
00000000
00001000
00000000
00000000
00000000
,
00000010
00000000
00000001
00000100
00000010
00000000
00001000
00000000
00000010
00000000
00000100
00000000
00000010
00000000
00000000
00000000
,
00000100
00000000
00001000
00010000
00000100
00000000
00001000
00000000
00000010
00000000
00000100
00000000
00001000
00000000
00000000
00000000
,
00010000
00000000
00001000
00010000
00100000
00000000
00010000
00000000
00001000
00000000
00010000
00000000
01000000
00000000
00000000
00000000
,
11000000
01000000
00100000
00000000
00110000
00100000
00001000
00000000
,
00011000
00010000
00000100
00000000
00000110
00000010
00000001
00000000
,
00000001
00000100
00000010
00000000
00000100
00000010
00001000
00000000
00000010
00001000
00000100
00000000
00001000
00000100
00010000
00000000
,
00011000
00101000
01010000
10010000
,
10000000
01000000
00010000
01000000
00100000
00010000
00100000
00010000
,
10000000
00100000
00010000
00001000
00000100
00000010
00000100
00000010
,
00000001
00000010
00001000
00000100
00000010
00001000
00010000
01000000
,
01100000
00100000
01000000
00010000
00011000
00001000
00020000
00000000
,
00031000
00010000
00100000
00010000
00001000
00000100
00001000
00010000
,
00001000
00000010
00000100
00000010
00001000
00010000
01000000
00100000
,
01100000
01000000
00100000
00000000
00011000
00001000
00010000
00000000
,
00001000
00100000
00010000
01000000
00001000
00010000
00000100
00000000
,
00001000
00000000
00000100
00000010
00000001
00000000
00000010
00000000
00000100
00000000
00001000
00000000
00000010
00000000
00000000
00000000
,
00000001
00000000
00000010
00000100
00001000
00000000
00010000
00000000
00001000
00000000
00100000
00000000
00010000
00000000
00000000
00000000
,
10000000
00000000
00100000
01000000
10000000
00000000
01000000
00000000
00010000
00000000
00100000
00000000
00001000
00000000
00010000
00000000
,
00011000
00000000
00000110
00000000
,
00001001
00000001
00000100
00001000
00010000
01000000
00100000
00000000
,
10010000
00000000
10000000
00000000
01000000
00000000
00010000
00000000
00001000
00000000
00010000
00000000
00000100
00000000
00000010
00000001
,
00000010
00000000
00000100
00000010
00000100
00000010
00000001
00000000
00001000
00000000
00000000
00000100
00000000
00000000
00001000
00000000
,
00001100
00000000
00000000
00000000
00001001
00000000
00000000
00000000
00000001
00000100
00000001
00000100
00000010
00000000
00010000
00001000
,
00020000
00000000
00000000
00000000
,
00200000
00000000
00000000
00000000
00000000
00030000
01000000
00000000
,
20000000
00000000
00000000
00000000
00000000
00000000
00000000
00300000
,
00020000
00000000
00000000
00030000
00200000
00000000
00000000
30000000
,
00020000
00000000
00000000
00000000
00000000
00000000
00000000
00300000
,
00032000
00000000
00000000
00000100
,
00013000
00000000
00000000
00010010
00000000
00000000
00000110
00000000
,
00000000
00000101
00000000
00000000
00001001
00000000
00000000
00000000
,
00001000
00000100
00000010
00000100
00010000
00001000
00000100
00001000
,
00010000
00100000
01000000
00001000
00010000
00001000
01000000
00000000
,
00010000
00100000
01000000
00100000
00001000
00010000
00100000
00010000
,
00001000
00000100
00000010
00010000
00001000
00010000
00000010
00000000
,
00000100
00000000
00000001
00000000
00000010
00000000
00000100
00001000
00000010
00000000
00000100
00000000
00001000
00000000
00010000
00000000
,
00001000
00010000
00100000
01000000
00010000
01000000
10000000
01000000
,
00000000
00100000
00200000
00000000
00000000
00000000
01300000
02000000
,
00000000
03010000
00020000
00000000
00000000
00000000
00000000
00000000
,
00030000
00000000
00000000
01000000
00100000
00010000
00001000
00100000
,
00010000
01000000
00001000
01000000
00010000
00100000
00010000
00100000
,
00001000
01000000
00001000
00100000
00001000
00010000
00001000
00000100
,
00000010
00000001
00000010
00000100
00000010
00001000
00000001
00000000
,
00001000
00000000
00000001
00000000
00001000
00000000
00000010
00000100
00001000
00000000
00010000
00000000
00100000
00000000
10000000
00000000
,
00100000
01000000
00010000
10000000
00100000
00010000
00001000
00000010
,
00001000
00010000
01000000
00010000
10000000
00100000
00010000
20020000
,
00000000
00000000
30030000
01100000
,
10010000
00000000
10000000
01000000
10000000
00000000
01000000
00000000
00100000
00000000
00010000
00000000
00100000
00000000
00010000
00000000
,
01000000
00000000
00001000
00010000
00001000
00000000
00100000
00000000
00001000
00000000
00010000
00000000
01000000
00000000
00000000
00000000
,
00010000
00000000
00001000
00100000
00001000
00000000
00010000
00000000
00001000
00000000
00000010
00000000
00000001
00000000
00000010
00000000
,
00001000
00000001
00000100
00001000
00000010
00000100
00000010
00000000
,
00001000
00000100
00000010
00000000
00001000
00000000
00010000
00000000
00001000
01000000
00010000
00000000
01000000
00000000
00100000
00000000
,
00010000
00100000
01000000
00000000
00100000
00000000
10000000
00000000
00100000
01000000
00100000
00000000
00010000
00000000
00001000
00000000
,
00000100
00000010
00001000
00000000
00000010
00001000
00000001
00000000
00001000
00000100
00010000
00000000
00001000
00010000
00001000
00010000
,
00001000
00011000
00101000
00110000
,
10010000
00000000
10000000
01000000
00100000
00000000
01000000
00100000
00010000
00000000
00100000
00000000
01000000
00000000
00100000
00000000
,
00010000
00000000
01000000
00001000
00010000
00000000
00001000
00010000
00001000
00000000
00010000
00000000
00001000
00000000
00000010
00000000
,
00000100
00000001
00000100
00001000
00000001
00000010
00000100
00010000
,
00011000
00000000
00000000
00010100
00000000
00000000
00001100
00000000
,
00001001
00000000
00000000
00000000
00000001
00000000
00000100
00000001
00000010
00000000
00000001
00000000
00000100
00000000
00001000
00000000
,
00010000
00000100
00000010
00001000
00010000
00001000
00010000
00100000
,
01100000
00000000
00000000
00000000
00000000
00000000
10000000
00000000
01000000
00000000
00000000
01000000
00000000
00000000
01000000
00000000
,
00100000
00000000
00000000
00100000
00010000
00000000
00000000
00000000
00010000
00100000
00001000
00100000
00010000
00000000
10000000
01000000
,
10000000
00000000
00100000
00000000
01000000
00000000
00001000
00010000
00001000
00000000
00000100
00000000
00000010
00000000
00000100
00000000
,
00000001
00000000
00000100
00000001
00000010
00000000
00000100
00001000
00000010
00000000
00010000
00000000
00001000
00000000
00011000
00000000
,
00000000
00000000
00001000
00000000
00001000
00000000
00100000
00010000
01000000
00000000
00100000
01000000
00100000
00000000
00100000
00000000
,
00000000
00000000
10000000
01000000
00100000
00000000
01000000
00000000
00100000
01000000
00010000
00000000
01010000
00000000
01000000
00000000
,
10000000
00000000
00100000
00000000
00010000
00001000
00010000
00000000
00000100
00010000
00000010
00000000
00001000
00000000
00000001
00000000
,
00001000
00000000
00000010
00000000
00000001
00000000
00000010
00000000
00001000
00000000
00000100
00010000
00001000
00000000
00011000
00000000
,
00000000
00000000
00000000
00101000
00000000
01010000
00000000
10010000
,
00000000
00000000
00000000
01000000
,
10010000
00000000
00000000
00000000
,
00000000
00000000
00000000
00000000
;
