
//----- song ID: scre -----//
#VERSION:0.83;
#TITLE:SCREW \/\/ owo \/\/ SCREW;
#ARTIST:かめりあ;
#TITLETRANSLIT:SCREW owo SCREW;
#ARTISTTRANSLIT:Camellia;
#BANNER:SCREW owo SCREW.png;
#BACKGROUND:SCREW owo SCREW-bg.png;
#CDTITLE:./CDTitles/bm IIDX 27 HEROIC VERSE.png;
#MUSIC:SCREW owo SCREW.ogg;
#SAMPLESTART:79.982;
#SAMPLELENGTH:15;
#DISPLAYBPM:114;
#BPMS:0=114;
#NOTEDATA:;
#STEPSTYPE:dance-single;
#DIFFICULTY:Beginner;
#METER:4;
#NOTES:
0000
0000
0000
0000
,
0000
0000
0000
0000
,
0000
0000
0000
0000
,
0000
0000
0000
0000
,
0000
0000
0000
0000
,
0001
0000
0001
0000
,
0010
0000
0000
0000
,
0010
0000
0010
0000
,
1000
0000
0000
0000
,
1001
0000
0000
0000
,
1001
0000
0000
0000
,
1001
0000
0000
0000
,
0010
0010
0010
0000
,
1001
0000
0000
0000
,
1001
0000
0000
0000
,
1001
0000
0000
0000
,
0010
0010
0010
0000
,
1000
0000
0001
0000
,
1001
0000
0000
0000
,
0001
0000
1000
0000
,
1001
0000
0000
0000
,
0001
0000
0010
0000
,
0001
0000
0000
0000
,
1000
0000
0010
0000
,
1000
0000
0000
0000
,
2000
0000
0000
0000
,
3000
0000
0000
0000
,
0002
0000
0000
0000
,
0003
0000
0000
0000
,
0001
0000
0010
0000
,
0100
0000
0000
0000
,
1000
0000
0010
0000
,
0100
0000
0000
0000
,
1001
0000
0000
0000
,
1001
0000
0000
0000
,
0001
0000
0010
0000
,
1000
0000
0000
0000
,
1001
0000
0000
0000
,
1000
1000
1000
0000
,
1000
1000
0010
0000
,
0010
0010
0010
0000
,
0010
0010
0001
0000
,
0001
0001
0001
0000
,
0001
0001
0010
0000
,
0010
0010
0010
0000
,
0010
0010
1000
0000
,
1000
0100
1000
0100
,
1000
0000
1001
0000
,
0001
0100
0001
0100
,
0001
0000
1001
0000
,
0020
0000
0000
0000
,
0030
0000
0000
0000
,
0200
0000
0000
0000
,
0300
0000
0000
0000
,
0001
0010
1000
0000
,
1000
0010
0001
0000
,
1001
0000
0000
0000
;
#NOTEDATA:;
#STEPSTYPE:dance-single;
#DIFFICULTY:Easy;
#METER:7;
#NOTES:
0000
0000
0000
0000
,
0000
0000
0000
0000
,
0000
0000
0000
0000
,
0000
0000
0000
0000
,
0000
0000
0000
0000
,
0001
0010
0001
0001
,
1000
0010
1000
1000
,
0001
1000
0001
1000
,
0010
0000
0100
0000
0010
0100
0010
0000
,
1000
1000
1000
0000
,
0100
0100
0100
0000
,
0010
0010
0010
0000
,
0001
0001
0001
0000
,
0001
0100
0010
0000
,
0100
0010
1000
0000
,
1000
0100
0010
0000
,
0100
0010
0001
0000
,
1001
0000
1001
0000
,
1001
0000
0000
0000
,
0110
0000
0110
0000
,
0110
0000
0000
0000
,
0001
0000
1000
0000
0001
1000
0001
0000
,
1000
0000
0001
0000
1000
0001
1000
0000
,
0010
0000
0100
0000
0010
0100
0010
0000
,
0100
0010
0100
0000
,
1001
0000
0000
0000
,
0001
0001
0100
0100
,
0010
0000
0000
0000
,
1000
1000
0100
0100
,
0010
0000
0000
0000
,
0110
0000
0000
0000
,
1001
0000
0000
0000
,
0001
1000
0001
0000
,
1000
0001
1000
0000
0100
0000
0010
0000
,
0001
1000
0001
0000
0100
0000
0010
0000
,
1000
0010
1000
0000
0001
0100
0001
0000
,
1000
0100
1000
0000
0001
0010
0001
0000
,
1001
0000
0000
0000
,
1000
0100
1000
0100
1000
0000
0100
0000
,
0010
0001
0010
0001
0010
0000
0001
0000
,
0010
0100
0010
0100
0010
0000
0100
0000
,
1000
0001
1000
0001
1000
0000
0001
0000
,
2000
0000
0000
3000
,
0002
0000
0000
0003
,
0100
0100
0010
0010
,
0100
0010
0100
0010
0100
0000
0110
0000
,
0001
0100
0010
0000
0100
0010
1000
0000
,
1001
0000
1001
0000
,
1000
0100
0010
0000
0100
0010
0001
0000
,
1001
0000
1001
0000
,
1000
0100
0010
0001
1000
0000
0000
0000
,
0001
0100
0010
1000
0001
0000
0000
0000
,
1001
0000
1000
0010
1000
0100
1000
0000
,
0001
0010
0001
0100
0001
0000
0000
0000
,
1000
0100
1001
0000
,
0001
0010
1001
0000
,
0110
0000
0000
0000
;
#NOTEDATA:;
#STEPSTYPE:dance-single;
#DIFFICULTY:Medium;
#METER:13;
#BPMS:0=114,51=342,51.750=228,52.250=171,53=114,162=342,162.750=228,163.250=171,164=114;
#STOPS:69=0.789,69.500=0.789,74=0.789,74.500=0.789;
#NOTES:
0000
0000
0000
0000
,
0000
0000
0000
0000
,
0000
0000
0000
0000
,
0000
0000
0000
0000
,
0000
0000
0000
0000
,
0001
0000
0100
0010
0100
0000
0010
0000
1000
0000
0100
0010
0100
0000
0010
0000
,
0001
0000
0100
0010
0100
0000
0010
0000
1000
0000
0100
0010
0100
0000
0010
0000
,
0001
0010
0001
0000
1000
0010
1000
0000
0001
0100
0001
0000
1000
0100
1000
0000
,
0001
1000
0001
1000
0001
0000
1000
0000
1001
0000
0000
0000
0000
0000
0000
0000
,
1000
0000
0100
0000
1000
0010
0000
0010
0100
0000
0001
0000
1000
0000
0000
0000
,
0001
0000
0100
0000
0001
0010
0000
0010
0100
0000
1000
0000
0001
0000
0000
0000
,
1000
0000
0100
0000
0001
0100
0000
0100
1000
0000
0100
0000
0010
0000
0000
0000
,
0001
0000
0100
0000
1000
0100
0000
0100
0001
0000
1000
0000
0002
0000
0000
0000
,
0000
0000
0000
0000
1003
0000
0001
0000
0100
0010
0000
0010
1000
0000
0001
0000
,
0100
0010
0100
0000
0001
0000
0010
0000
0100
1000
0000
1000
0001
0000
0100
0000
,
0010
0100
0010
0000
2000
0000
3200
0000
0302
0000
0203
0000
2300
0000
3020
0000
,
0032
0000
0023
0000
1030
0000
0100
0010
0001
0000
0100
0010
1000
0000
1000
0000
,
1000
0000
0000
0000
0000
0000
0000
0000
0000
0000
0000
0000
0000
0000
0000
0000
2002
3003
0000
0000
0000
0000
0000
0000
2002
3003
0000
0000
0000
0000
0000
0000
1001
0000
0000
0000
0000
0000
0000
0000
1000
0000
0000
0000
0100
0000
0000
0000
1000
0000
0000
0000
0100
0000
0000
0000
1000
0000
0000
0000
0100
0000
0000
0000
,
0000
0000
0000
0000
0010
0000
0000
0000
0001
0000
0000
0000
0010
0000
0000
0000
0001
0000
0000
0000
0010
0000
0000
0000
0001
0000
0000
0000
0000
0000
0000
0000
2002
3003
0000
0000
0000
0000
0000
0000
2002
3003
0000
0000
0000
0000
0000
0000
0001
0000
0000
0000
0000
0000
0000
0000
0100
0000
0000
0000
0000
0000
0000
0000
,
1000
0000
0100
0000
0001
0000
1000
0000
1001
0000
0000
0000
0001
0000
0000
0001
,
0001
0000
0001
0000
0010
0001
0100
0000
0010
1000
0100
0000
1000
0000
0000
1000
,
1000
0000
1000
0000
0100
1000
0010
0000
0100
0001
0010
0000
0100
0000
0000
0100
,
0100
0000
0100
0000
1000
0001
0100
0000
0001
1000
0100
0000
0010
0000
0000
0010
,
0010
0010
0001
2000
0000
0000
3001
0000
,
0000
0000
0000
0000
0000
0000
0000
0000
0000
0000
0001
0010
0100
1000
0100
1000
,
0000
0001
1000
0001
1000
0000
0010
0100
0000
0010
0100
0000
0001
0000
0000
0000
,
0000
0000
0000
0000
0000
0000
0000
0000
0000
0000
0000
0000
1000
0010
0100
0010
,
1000
0100
0010
0000
0001
0000
1000
0000
0110
0000
1001
0000
0001
0100
0010
1000
,
0010
0100
0001
1000
0100
0000
0010
0100
0000
0010
0100
0000
1000
0100
0010
0001
,
1000
0001
0010
0100
1000
0000
0010
0100
0000
0010
0100
0000
0001
0000
0100
1000
,
0100
0000
0001
0000
0010
1000
0010
0001
0000
1000
0100
0010
0001
0000
0000
0011
,
0000
0000
0101
0000
0000
1010
0000
0000
0000
1000
0000
0000
1001
0000
0100
0010
,
0100
0000
0010
0000
1001
0000
0010
0100
0010
0000
0100
0000
1001
0000
0100
0010
,
0100
0000
0010
0000
1001
0000
0010
0100
0010
0000
0100
0000
0110
0000
0000
0000
,
1001
0000
0000
0000
0110
0000
0000
0000
1001
0000
0000
0000
1000
0100
0010
0000
,
0001
0100
0010
0000
1000
0001
1000
0001
1000
0000
0001
0000
1001
0000
0000
0000
,
0000
0000
0000
0000
0000
0000
1000
0100
,
0001
0100
0000
0100
1000
0010
0100
0001
0010
0100
1000
0000
0001
0000
0100
0000
,
1000
0100
0000
0100
0010
1000
0100
0010
0001
0100
0010
0000
1000
0010
0001
0000
,
0010
1000
0000
1000
0001
0100
0001
0010
0100
1000
0001
0000
0011
0000
0011
0000
,
1100
0000
1100
0000
1000
0001
1000
0001
2000
0000
0000
0000
0000
0000
0000
0000
,
3002
0010
0010
0013
,
2000
0010
0010
3010
,
0001
0100
1000
0100
0001
0100
1000
0100
,
0001
0001
1000
1000
0000
0000
0000
0000
,
0001
1000
0001
1000
0001
0010
0001
0100
0010
1000
0100
1000
0010
0100
0001
0010
,
0100
0000
0000
1000
0001
0000
1000
0000
0000
0001
1000
0000
0000
0001
0000
0000
,
1000
0001
1000
0001
1000
0010
1000
0100
0010
0001
0100
0001
0010
0100
1000
0010
,
0100
0000
0000
0001
1000
0000
0001
0000
0000
1000
0001
0000
0000
1000
0000
0000
,
0010
0000
0100
0000
0001
0000
0001
0000
0011
0000
0011
0000
0001
1000
0001
0000
,
0010
0000
0100
0000
1000
0010
1000
0100
1000
0010
0100
0001
0010
0001
0100
0001
,
0010
0000
0000
0000
0000
0000
0000
0000
0001
0000
0000
0001
0000
0000
0001
0000
1000
0000
0000
1000
0000
0000
1000
0000
0010
0000
0000
0000
0000
0000
0000
0000
,
1000
0000
0000
1000
0000
0000
1000
0000
0001
0000
0000
0001
0000
0000
0001
0000
0100
0000
0000
0100
0000
0000
0100
0000
0010
0000
0000
0000
0000
0000
0000
0000
,
1000
0000
0000
1000
1000
0000
1000
0000
0010
1000
0100
0000
0010
0001
0100
0000
,
0001
0000
0000
0001
0001
0000
0001
0000
0100
0001
0010
0000
0100
1000
0010
0000
,
1001
0000
0000
0000
;
#NOTEDATA:;
#STEPSTYPE:dance-single;
#DIFFICULTY:Hard;
#METER:16;
#BPMS:0=114,51=342,51.750=228,52.250=171,53=114,162=342,162.750=228,163.250=171,164=114;
#STOPS:69=0.789,69.500=0.789,74=0.789,74.500=0.789;
#NOTES:
0000
0000
0000
0000
,
0000
0000
0000
0000
,
0000
0000
0000
0000
,
0000
0000
0000
0000
,
0000
0000
0000
0000
,
1001
0000
1000
0100
0010
0001
0010
0000
1001
0000
0001
0100
0010
1000
0010
0000
,
1001
0000
1000
0010
0100
0001
0100
0000
1001
0000
0001
0010
0100
1000
0100
0000
,
1000
0100
0010
0000
0001
0100
0010
0000
1000
0100
0010
0000
0001
0100
0010
0000
,
1000
0100
1000
0100
0010
0001
0010
0001
2000
0000
0000
0000
0000
0000
3000
0000
,
1010
0000
0000
0000
0101
0000
0000
0000
0001
0000
1000
0000
0000
0000
1000
0000
0001
0100
0001
0000
1000
0100
1000
0000
0001
0000
1000
0000
0001
0000
0000
0000
,
0011
0000
0000
0000
1100
0000
0000
0000
1000
0000
0001
0000
0000
0000
0001
0000
1000
0100
1000
0000
0001
0100
0001
0000
1000
0000
0001
0000
1000
0000
0010
0000
,
0100
0000
0001
0000
1000
0000
0100
0010
0001
0000
1000
0000
0010
0000
0100
0000
0001
0010
0001
0000
1000
0010
1000
0000
0010
0000
0100
0000
0010
0000
1000
0000
,
0001
0000
0000
0000
0000
0000
0000
0000
0001
0000
0000
0001
0010
0000
0100
0000
1000
0000
1000
0000
0001
0000
0001
0000
0200
0000
0000
0000
0000
0000
0000
0000
,
0000
0000
0300
0000
0000
0000
0000
0000
1001
0000
0000
0000
0110
0000
0000
0000
1000
0000
0010
0000
0000
0000
0010
0000
0100
0001
0100
0000
0010
1000
0010
0000
,
1000
0000
0001
0000
0010
0000
0000
0000
0110
0000
0000
0000
1000
0000
0001
0000
0010
0000
0001
0000
0100
0000
0001
0000
0010
0100
0010
0000
0100
1000
0100
0000
,
1000
0000
0000
0001
0000
0000
0100
0000
0000
0010
0000
0000
1000
0000
0000
0000
0000
0000
0000
0000
0000
0000
0000
0000
1000
0000
0000
0100
0000
0000
0010
0000
0000
0001
0000
0000
1000
0000
0100
0000
0010
0000
0100
0000
0010
0000
0001
0000
,
1000
0100
0010
0001
0000
0000
0011
0000
0000
0000
0000
0000
1010
0000
0000
0000
0000
0000
0011
0000
0000
1010
0000
0000
,
1001
0000
0000
0000
0000
0000
0000
0000
0000
0000
0000
0000
0000
0000
0000
0000
2002
3003
0000
0000
0000
0000
0000
0000
2002
3003
0000
0000
0000
0000
0000
0000
1001
0000
0000
0000
0000
0000
0000
0000
0001
0000
0000
0000
0100
0000
0000
0000
0010
0000
1000
0000
0010
0000
0000
0000
1000
0000
0000
0000
0001
0000
0000
0000
,
0000
0000
0000
0000
0001
0000
0000
0000
0010
0000
0000
0000
1000
0000
0000
0000
0001
0000
0000
0000
0100
0000
0000
0000
1000
0000
0000
0000
0000
0000
0000
0000
2002
3003
0000
0000
0000
0000
0000
0000
2002
3003
0000
0000
0000
0000
0000
0000
1000
0000
0000
0000
0000
0000
0000
0000
1010
0000
0000
0000
0000
0000
0000
0000
,
0001
0000
0101
0000
0001
0000
1000
0000
2002
0000
3003
0000
1000
0100
1000
0010
,
0100
0000
0000
0000
0101
0000
0000
0000
0001
1000
0001
0000
0100
0000
1000
0000
0100
0000
0001
0000
1000
0000
0000
0000
0001
0000
0010
0000
0001
0000
0100
0000
,
0010
0000
0000
0000
1010
0000
0000
0000
1000
0001
1000
0000
0010
0000
0001
0000
0010
0000
1000
0000
0001
0000
0000
0000
1000
0000
0010
0000
1000
0000
0100
0000
,
0010
0000
0001
0000
0010
0000
0000
0000
0001
1000
0001
0000
0010
0000
1000
0000
0010
0000
0001
0000
1000
0000
0000
0000
0001
0000
0100
0000
0001
0000
1000
0000
,
0100
0000
1000
0000
0010
0000
0100
0000
0001
1000
0001
0000
0200
0000
0000
0000
0000
0000
0000
0000
0000
0000
0000
0000
0310
0000
0000
0000
1000
0000
0010
0000
,
0100
0010
0100
0001
0010
1000
0010
0001
0000
0001
1000
0100
1000
0010
0100
0010
,
0000
0000
0010
1000
0010
0000
0100
0000
0001
0000
0010
0000
0100
0000
1000
0000
0000
0000
0001
0000
1000
0000
0100
0000
1000
0000
0000
0000
0001
0000
0010
0000
,
0100
0010
0100
1000
0010
0001
0010
1000
0000
1000
0001
0100
0001
0010
0100
0010
,
0001
0010
0001
0000
1000
0100
1000
0000
0010
0000
0001
0000
0010
0000
1000
0000
0010
0000
0001
0000
0010
0000
0000
0000
0110
0000
0000
0000
0000
0000
0000
0000
,
0001
0100
0010
1000
0100
0010
0001
1000
0000
1000
0001
0000
1001
0000
0000
0000
,
1000
0010
0100
0001
0010
0100
1000
0001
0000
0001
1000
0000
0110
0000
0000
0000
,
0001
0100
1000
0100
0001
0010
1000
0010
0000
0010
0001
0000
0011
0000
0000
1100
,
0000
0000
1010
0000
0000
0101
0000
0000
0100
0010
0000
0000
1001
0000
0001
0100
,
1000
0100
0001
1000
0100
0010
0001
0000
0100
0010
1000
0000
0001
0010
0001
0010
,
1000
0000
0000
0010
0000
0000
0001
0000
0000
0010
0000
0000
0100
0000
0000
1000
0000
0000
0010
0000
0000
0100
0000
0000
0001
0000
0010
0000
0100
0000
1000
0000
0010
0000
0100
0000
0001
0000
0000
1000
0000
0000
0100
0000
0000
0000
0000
0000
,
1000
0001
0100
0000
0001
1000
0010
0000
1000
0001
0010
0000
0001
0100
0010
1000
,
0001
0000
0100
0000
0010
0000
1000
0000
0001
1000
0001
1000
0001
0000
0000
0000
0000
0000
0000
0000
0000
0000
0000
0000
2002
0000
0000
0000
0000
0000
0000
0000
,
0000
0000
0000
0000
0000
0000
0000
0000
3003
0000
0000
0000
1000
0010
0100
0000
,
0001
0000
1000
0000
0000
0000
1000
0000
0001
0010
0100
0000
0010
0100
1000
0000
0020
0000
0000
0000
0230
0000
0000
0000
0301
0000
0010
0000
0001
0000
0000
0000
,
1000
0000
0010
0000
0000
0000
0010
0000
0100
0001
1000
0000
0100
1000
0001
0000
0200
0000
0000
0000
0320
0000
0000
0000
1030
0000
0000
0000
0001
0000
1000
0000
,
0001
0000
0010
0000
0000
0000
0010
0000
0100
1000
0001
0000
0010
0001
1000
0000
0010
0000
0100
0000
0001
0000
0000
0000
0101
0000
0000
0000
1100
0000
0000
0000
,
1010
0000
0011
0000
0001
0010
0100
1000
0002
0000
0000
0000
0000
0000
0000
0000
,
1003
0000
0000
0000
0000
0000
0110
0000
0000
0000
0000
0000
0001
0000
0000
1000
0000
0000
0000
0000
0000
1000
0000
0000
0010
0000
0100
0000
0010
0000
0100
0000
0001
0000
0100
0000
0001
0000
0000
0000
0000
0000
1000
0000
0000
0000
0000
0000
,
0001
0000
0000
0000
0000
0000
0000
0000
0000
0000
0000
0000
0110
0000
0000
0000
0000
0000
0000
0000
0000
0000
0000
0000
1000
0000
0000
0000
0000
0000
0001
0000
0000
0000
0000
0000
0000
0000
0000
0000
0000
0000
0001
0000
0000
0000
0000
0000
0010
0000
0000
0000
0100
0000
0000
0000
0010
0000
0000
0000
0100
0000
0000
0000
1000
0000
0000
0000
0100
0000
0000
0000
1000
0000
0000
0000
0000
0000
0000
0000
0000
0001
0000
0000
0000
0000
0000
0000
0000
0000
1000
0000
0000
0000
0000
0000
,
0100
0000
0010
0001
0100
0000
0010
1000
0100
0000
0010
0001
0100
0000
0010
1000
,
0100
0010
0001
0100
0010
1000
0100
0010
0002
0000
0000
0000
0000
0000
0003
0000
,
1000
0000
0001
0000
1000
0000
0100
0000
0010
0000
0100
0000
0010
0000
0001
0000
0000
0000
1000
0000
0010
0000
0100
0001
0100
0000
0001
0000
1000
0001
1000
0001
,
1000
0000
0000
1010
0101
0000
1001
0000
0000
0011
1100
0000
0000
1000
0001
1000
,
0100
0000
0010
0000
0001
0000
0100
0000
0010
0000
0000
0000
1000
0010
1000
0000
0000
0000
0001
0100
0001
0000
0000
0000
1000
0000
0001
0000
1000
0000
0010
0000
,
0100
0000
0000
0101
1001
0000
0110
0000
0000
1010
1001
0000
0001
0010
0100
1000
,
0002
0000
0000
0000
2003
0000
0000
0000
3001
0010
0001
0000
0100
0000
0010
0000
1000
0100
1000
0000
0010
0000
0100
0000
0001
0100
0001
0000
0010
0000
0100
0000
,
1000
0010
0100
0001
1000
0010
0100
0001
0100
0010
1000
0001
1000
0100
0010
0001
,
1000
0000
0000
0000
0000
0000
0000
0000
0001
0010
0000
0001
0010
0000
0001
0000
1000
0010
0000
1000
0010
0000
1000
0000
0001
0000
0100
0000
0001
0100
0001
0000
,
1000
0100
0000
1000
0100
0000
0010
0000
0001
0100
0000
0001
0100
0000
0010
0000
1000
0100
0000
0010
0001
0000
1000
0000
0200
0000
0000
0000
0300
0000
0000
0000
,
1000
0000
0010
0000
0100
0000
0001
0000
0010
0000
0000
0000
1100
0000
0000
0000
0001
0010
0100
0000
1000
0000
0100
0000
0001
0000
0100
0000
1000
0000
0000
0000
,
0001
0000
0010
0000
0100
0000
1000
0000
0010
0000
0000
0000
0101
0000
0000
0000
1000
0010
0100
0000
0001
0000
0100
0000
1000
0000
0100
0000
0001
1000
0001
1000
,
0001
0000
0000
0000
;
#NOTEDATA:;
#STEPSTYPE:dance-double;
#DIFFICULTY:Easy;
#METER:7;
#NOTES:
00000000
00000000
00000000
00000000
,
00000000
00000000
00000000
00000000
,
00000000
00000000
00000000
00000000
,
00000000
00000000
00000000
00000000
,
00000000
00000000
00000000
00000000
,
00001000
00010000
00000100
00001000
,
00000010
00000100
00000001
00000001
,
00000010
00000100
00001000
00000100
,
00010000
00000000
00001000
00000000
00010000
00001000
00010000
00000000
,
00001000
00001000
00001000
00000000
,
01000000
01000000
01000000
00000000
,
00010000
00010000
00010000
00000000
,
00100000
00100000
00100000
00000000
,
00100000
01000000
10000000
00000000
,
00010000
10000000
00010000
00000000
,
01000000
00001000
00010000
00000000
,
00001000
00010000
00001000
00000000
,
00011000
00000000
00011000
00000000
,
00011000
00000000
00000000
00000000
,
00011000
00000000
00011000
00000000
,
00011000
00000000
00000000
00000000
,
00001000
00000000
00010000
00000000
00000010
00001000
00000010
00000000
,
00001000
00000000
00000100
00000000
00000010
00000001
00000010
00000000
,
00000001
00000000
00001000
00000000
00000100
00001000
00000100
00000000
,
00010000
00001000
00010000
00000000
,
00011000
00000000
00000000
00000000
,
00001000
00001000
00100000
00100000
,
00010000
00000000
00000000
00000000
,
10000000
10000000
01000000
01000000
,
00100000
00000000
00000000
00000000
,
01100000
00000000
00000000
00000000
,
10010000
00000000
00000000
00000000
,
10000000
01000000
00010000
00000000
,
00001000
00010000
00001000
00000000
00010000
00000000
00000000
00000000
,
00000100
00001000
00000100
00000000
00000010
00000000
00000000
00000000
,
00000001
00000010
00000001
00000000
00001000
00000100
00001000
00000000
,
00000100
00010000
00000100
00000000
00010000
00001000
00010000
00000000
,
00011000
00000000
00000000
00000000
,
00001000
00010000
00001000
00010000
00001000
00000000
00100000
00000000
,
00010000
01000000
00010000
01000000
00010000
00000000
00100000
00000000
,
01000000
10000000
01000000
10000000
01000000
00000000
10000000
00000000
,
00010000
00100000
00010000
00100000
00010000
00000000
00100000
00000000
,
00002000
00000000
00000000
00003000
,
00020000
00000000
00000000
00030000
,
00001000
00001000
00010000
00010000
,
00001000
00010000
00001000
00010000
00001000
00000000
00011000
00000000
,
00001000
00010000
00000100
00000000
00001000
00000100
00000010
00000000
,
00000001
00000000
00001001
00000000
,
00000001
00001000
00000010
00000000
00001000
00000010
00010000
00000000
,
00001000
00000000
00011000
00000000
,
00001000
00100000
00010000
01000000
00010000
00000000
00000000
00000000
,
01000000
00010000
10000000
01000000
00100000
00000000
00000000
00000000
,
01100000
00000000
10010000
00000000
,
10000000
01000000
00100000
00001000
00010000
00000000
00000000
00000000
,
00010000
00001000
00000010
00000000
,
00000001
00001000
00000001
00000000
,
00001001
00000000
00000000
00000000
;
#NOTEDATA:;
#STEPSTYPE:dance-double;
#DIFFICULTY:Medium;
#METER:13;
#BPMS:0=114,51=342,51.750=228,52.250=171,53=114,162=342,162.750=228,163.250=171,164=114;
#STOPS:69=0.789,69.500=0.789,74=0.789,74.500=0.789;
#NOTES:
00000000
00000000
00000000
00000000
,
00000000
00000000
00000000
00000000
,
00000000
00000000
00000000
00000000
,
00000000
00000000
00000000
00000000
,
00000000
00000000
00000000
00000000
,
00011000
00000000
00010000
00001000
00010000
00000000
00000100
00000000
00001000
00000000
00000010
00000100
00000010
00000000
00000001
00000000
,
00000010
00000000
00001000
00000001
00001000
00000000
00000100
00000000
00010000
00000000
00001000
00010000
00001000
00000000
01000000
00000000
,
00010000
00100000
00010000
00000000
00100000
01000000
00100000
00000000
01000000
10000000
01000000
00000000
10000000
00010000
10000000
00000000
,
01000000
00100000
00010000
00000000
00100000
00001000
00010000
00001000
00010000
00000000
00000000
00000000
00000000
00000000
00000000
00000000
,
00001000
00000000
00010000
00000000
00000100
00001000
00000000
00001000
00000010
00000000
00000100
00000000
00000001
00000000
00000000
00000000
,
00001000
00000000
00000001
00000000
00000010
00000100
00000000
00000100
00001000
00000000
00000100
00000000
00010000
00000000
00000000
00000000
,
00001000
00000000
00100000
00000000
00010000
01000000
00000000
01000000
00010000
00000000
00100000
00000000
01000000
00000000
00000000
00000000
,
10000000
00000000
01000000
00000000
00010000
00001000
00000000
00000010
00000001
00000000
00000001
00000000
00000002
00000000
00000000
00000000
,
00000000
00000000
00000000
00000000
00001003
00000000
00000001
00000000
00000100
00000010
00000000
00000010
00001000
00000000
00000001
00000000
,
00000100
00000010
00000100
00000000
00001000
00000000
00010000
00000000
00100000
01000000
00000000
01000000
00010000
00000000
10000000
00000000
,
01000000
00100000
01000000
00000000
20000000
00000000
32000000
00000000
03020000
00000000
00032000
00000000
00003020
00000000
00000032
00000000
,
00001003
00000100
00000010
00000000
00000001
00000000
00000100
00000000
00001000
00000000
00010000
00000000
00100000
10000000
00100000
00000000
,
00100000
00000000
00000000
00000000
00000000
00000000
00000000
00000000
00000000
00000000
00000000
00000000
00000000
00000000
00000000
00000000
02200000
03300000
00000000
00000000
00000000
00000000
00000000
00000000
02200000
03300000
00000000
00000000
00000000
00000000
00000000
00000000
01100000
00000000
00000000
00000000
00000000
00000000
00000000
00000000
00100000
00000000
00000000
00000000
10000000
00000000
00000000
00000000
00100000
00000000
00000000
00000000
10000000
00000000
00000000
00000000
00100000
00000000
00000000
00000000
10000000
00000000
00000000
00000000
,
00000000
00000000
00000000
00000000
00010000
00000000
00000000
00000000
10000000
00000000
00000000
00000000
00010000
00000000
00000000
00000000
10000000
00000000
00000000
00000000
00010000
00000000
00000000
00000000
10000000
00000000
00000000
00000000
00000000
00000000
00000000
00000000
20020000
30030000
00000000
00000000
00000000
00000000
00000000
00000000
20020000
30030000
00000000
00000000
00000000
00000000
00000000
00000000
10000000
00000000
00000000
00000000
00000000
00000000
00000000
00000000
01000000
00000000
00000000
00000000
00000000
00000000
00000000
00000000
,
00010000
00000000
00001000
00000000
00000010
00000000
00000001
00000000
00001001
00000000
00000000
00000000
00000001
00000000
00000000
00001000
,
00000001
00000000
00001001
00000000
00000001
00000010
00001000
00000000
00010000
00000000
01000000
00000000
10000000
00000000
00000000
00010000
,
10000000
00000000
10010000
00000000
10000000
00100000
00010000
00000000
00001000
00000000
00000100
00000000
00000001
00000000
00000000
00001000
,
00000001
00000000
00001001
00000000
00000001
00000100
00001000
00000000
00010000
00000000
00100000
00000000
10000000
00000000
00000000
00010000
,
10000000
00000000
10010000
00000000
10000000
01000000
00020000
00000000
00000000
00000000
00000000
00000000
00031000
00000000
00000000
00000000
,
00000000
00000000
00000000
00000000
00000000
00000000
00000000
00000000
00000000
00000000
00001000
00010000
00000100
00001000
00000100
00001000
,
00000000
00000001
00001000
00000001
00001000
00000000
00000010
00000100
00000000
00000010
00000100
00000000
00000001
00000000
00000000
00000000
,
00000000
00000000
00000000
00000000
00000000
00000000
00000000
00000000
00000000
00000000
00000000
00000000
00000001
00000100
00000001
00000100
,
00000010
00001000
00000010
00000000
00001000
00000000
00000100
00000000
00010000
00000000
00001000
00000000
00011000
00000000
00001000
00010000
,
00001000
01000000
00010000
01000000
00100000
00000000
01000000
00100000
00000000
01000000
00100000
00000000
01100000
00000000
10000000
01000000
,
00100000
00010000
10000000
00010000
00100000
00000000
00001000
00100000
00000000
00001000
00100000
00000000
00001000
00000000
00010000
00000100
,
00010000
00000000
00001000
00000000
00000100
00000000
00000001
00001000
00000000
00000100
00000010
00000001
00001000
00000000
00000000
00001010
,
00000000
00000000
00000101
00000000
00000000
00000011
00000000
00000000
00000000
00000001
00000000
00000000
00001001
00000000
00000001
00000100
,
00000010
00000000
00000100
00000000
00000010
00000000
00000100
00001000
00010000
00000000
00001000
00000000
00010000
00000000
00001000
00010000
,
00100000
00000000
01000000
00000000
00100000
00000000
01000000
00100000
10000000
00000000
00010000
00000000
10010000
00000000
00000000
00000000
,
01100000
00000000
00000000
00000000
00011000
00000000
00000000
00000000
00000110
00000000
00000000
00000000
00000001
00000100
00000010
00000000
,
00001000
00000100
00000010
00000000
00000001
00001000
00000001
00001000
00000001
00000000
00000000
00000000
00001001
00000000
00000000
00000000
,
00000000
00000000
00000000
00000000
00000000
00000000
00000001
00001000
,
00000010
00000100
00000000
00000100
00000001
00001000
00000010
00010000
00001000
00100000
00010000
00000000
10000000
00000000
01000000
00000000
,
00100000
00010000
00000000
00010000
10000000
00100000
01000000
00010000
00100000
00001000
00010000
00000000
00001000
00000010
00000001
00000000
,
00000010
00000100
00000000
00000100
00010000
00001000
00100000
00010000
01000000
00100000
00010000
00000000
00011000
00000000
00010010
00000000
,
00011000
00000000
00101000
00000000
00001000
00010000
00001000
00010000
00002000
00000000
00000000
00000000
00000000
00000000
00000000
00000000
,
00023000
00001000
00001000
00031000
,
00002000
00010000
00010000
00013000
,
00001000
00010000
01000000
00010000
00001000
00000010
00001000
00010000
,
00001000
00001000
00010000
00010000
00000000
00000000
00000000
00000000
,
00001000
01000000
00001000
01000000
00010000
00100000
00010000
00100000
01000000
10000000
00010000
01000000
00100000
10000000
00010000
00000000
,
01000000
00000000
00000000
00100000
01000000
00000000
00100000
00000000
00000000
01000000
00100000
00000000
00000000
01100000
00000000
00000000
,
10000000
00100000
10000000
00010000
00100000
00001000
00010000
00001000
00000000
00001000
00010000
00000100
00001000
00000100
00000010
00000000
,
00000001
00000000
00000000
00001000
00000001
00000000
00001000
00000000
00000000
00000001
00001000
00000000
00000000
00001001
00000000
00000000
,
00000001
00000000
00001000
00000000
00000100
00000000
00001100
00000000
00000100
00000000
00010100
00000000
00010000
00001000
00010000
00000000
,
00001000
00000000
01001000
00000000
01000000
00000000
01010000
00000000
00010000
00100000
01000000
10000000
00100000
01000000
00010000
00100000
,
00001000
00000000
00000000
00000000
00000000
00000000
00000000
00000000
00010000
00000000
00000000
00010000
00000000
00000000
00010000
00000000
00000010
00000000
00000000
00000010
00000000
00000000
00000010
00000000
00001000
00000000
00000000
00000000
00000000
00000000
00000000
00000000
,
00000001
00000000
00000000
00000001
00000000
00000000
00000001
00000000
00000100
00000000
00000000
00000100
00000000
00000000
00000100
00000000
00001000
00000000
00000000
00001000
00000000
00000000
00001000
00000000
00010000
00000000
00000000
00000000
00000000
00000000
00000000
00000000
,
00001000
00000000
00000000
00010000
00001000
00000000
00010000
00000000
00001000
00010000
00100000
00000000
01000000
00001000
00010000
00000000
,
00001000
00000000
00000000
00010000
00001000
00000000
00010000
00000000
00001000
00000010
00000100
00000000
00001000
00000100
00010000
00000000
,
00011000
00000000
00000000
00000000
;
#NOTEDATA:;
#STEPSTYPE:dance-double;
#DIFFICULTY:Hard;
#METER:16;
#BPMS:0=114,51=342,51.750=228,52.250=171,53=114,162=342,162.750=228,163.250=171,164=114;
#STOPS:69=0.789,69.500=0.789,74=0.789,74.500=0.789;
#NOTES:
00000000
00000000
00000000
00000000
,
00000000
00000000
00000000
00000000
,
00000000
00000000
00000000
00000000
,
00000000
00000000
00000000
00000000
,
00000000
00000000
00000000
00000000
,
00011000
00000000
00001000
00010000
00100000
10000000
00100000
00000000
10010000
00000000
00010000
00100000
01000000
10000000
00010000
00000000
,
10010000
00000000
10000000
01000000
00010000
00001000
00010000
00000000
00011000
00000000
00001000
01000000
00100000
00010000
00001000
00000000
,
00010000
00001000
00000010
00000000
00000010
00000001
00000100
00000000
00000100
00001000
00010000
00000000
00010000
00100000
10000000
00000000
,
10000000
01000000
00100000
00010000
00001000
00000100
00000010
00000001
00002000
00000000
00000000
00000000
00000000
00000000
00003000
00000000
,
00001100
00000000
00000000
00000000
00000011
00000000
00000000
00000000
00000001
00000000
00001000
00000000
00000000
00000000
00001000
00000000
00000010
00001000
00000010
00000000
00010000
00000010
00010000
00000000
00001000
00000000
00010000
00000000
00001000
00000000
00000000
00000000
,
00101000
00000000
00000000
00000000
01010000
00000000
00000000
00000000
00010000
00000000
10000000
00000000
00000000
00000000
10000000
00000000
01000000
00100000
01000000
00000000
00100000
00010000
00100000
00000000
00010000
00000000
10000000
00000000
01000000
00000000
00010000
00000000
,
00001000
00000000
00000010
00000000
00000001
00000000
00001000
00000100
00000010
00000000
00000001
00000000
00000100
00000000
00000010
00000000
00001000
00000010
00001000
00000000
00000100
00010000
00000100
00000000
00010000
00000000
00001000
00000000
01000000
00000000
00010000
00000000
,
01000000
00000000
00000000
00000000
00000000
00000000
00000000
00000000
00010000
00000000
00000000
00010000
10000000
00000000
01000000
00000000
00010000
00000000
00010000
00000000
00001000
00000000
00001000
00000000
00020000
00000000
00000000
00000000
00000000
00000000
00000000
00000000
,
00000000
00000000
00030000
00000000
00000000
00000000
00000000
00000000
00011000
00000000
00000000
00000000
00011000
00000000
00000000
00000000
00010000
00000000
00001000
00000000
00000000
00000000
00001000
00000000
00000100
00000001
00000100
00000000
00000001
00001000
00000001
00000000
,
00000010
00000000
00000100
00000000
00000010
00000000
00000000
00000000
00000011
00000000
00000000
00000000
00000001
00000000
00001000
00000000
00000100
00000000
00010000
00000000
00001000
00000000
00100000
00000000
00010000
01000000
00010000
00000000
01000000
00100000
01000000
00000000
,
00100000
00000000
00000000
10000000
00000000
00000000
01000000
00000000
00000000
00100000
00000000
00000000
00010000
00000000
00000000
00000000
00000000
00000000
00000000
00000000
00000000
00000000
00000000
00000000
10000000
00000000
00000000
01000000
00000000
00000000
00010000
00000000
00000000
00001000
00000000
00000000
00000010
00000000
00000001
00000000
00001000
00000000
00000100
00000000
00000010
00000000
00000001
00000000
,
00000100
00001000
00010000
00001000
00000000
00000000
00011000
00000000
00000000
00000000
00000000
00000000
01100000
00000000
00000000
00000000
00000000
00000000
10100000
00000000
00000000
00110000
00000000
00000000
,
10010000
00000000
00000000
00000000
00000000
00000000
00000000
00000000
00000000
00000000
00000000
00000000
00000000
00000000
00000000
00000000
20020000
30030000
00000000
00000000
00000000
00000000
00000000
00000000
20020000
30030000
00000000
00000000
00000000
00000000
00000000
00000000
10010000
00000000
00000000
00000000
00000000
00000000
00000000
00000000
00010000
00000000
00000000
00000000
10000000
00000000
00000000
00000000
00100000
00000000
01000000
00000000
00100000
00000000
00000000
00000000
00010000
00000000
00000000
00000000
00001000
00000000
00000000
00000000
,
00000000
00000000
00000000
00000000
00001000
00000000
00000000
00000000
00000100
00000000
00000000
00000000
00000001
00000000
00000000
00000000
00001000
00000000
00000000
00000000
00000100
00000000
00000000
00000000
00000010
00000000
00000000
00000000
00000000
00000000
00000000
00000000
00002002
00003003
00000000
00000000
00000000
00000000
00000000
00000000
00002002
00003003
00000000
00000000
00000000
00000000
00000000
00000000
00001001
00000000
00000000
00000000
00000000
00000000
00000000
00000000
00001000
00000000
00000000
00000000
00000000
00000000
00000000
00000000
,
00001010
00000000
00000010
00000000
00010010
00000000
00010000
00000000
00022000
00000000
00033000
00000000
00001000
00010000
00100000
10000000
,
00010000
00000000
00000000
00000000
10010000
00000000
00000000
00000000
10000000
00100000
10000000
00000000
01000000
00000000
10000000
00000000
00100000
00000000
01000000
00000000
00010000
00000000
00000000
00000000
10000000
00000000
01000000
00000000
00010000
00000000
00001000
00000000
,
00010000
00000000
00000000
00000000
00011000
00000000
00000000
00000000
00001000
01000000
00001000
00000000
00100000
00000000
01000000
00000000
00010000
00000000
00001000
00000000
00010000
00000000
00000000
00000000
00010000
00000000
00001000
00000000
00000010
00000000
00000001
00000000
,
00001000
00000000
00000001
00000000
00001000
00000000
00000000
00000000
00000001
00000010
00000001
00000000
00000100
00000000
00000001
00000000
00000010
00000000
00000100
00000000
00001000
00000000
00000000
00000000
00000001
00000000
00000100
00000000
00001000
00000000
00010000
00000000
,
00001000
00100000
00010000
10000000
00100000
01000000
00020000
00000000
00000000
00000000
00000000
00000000
10030000
00000000
10000000
00100000
,
01000000
00010000
01000000
00010000
01000000
00001000
00010000
00001000
00000000
00001000
00010000
00001000
00000010
00000001
00001000
00000100
,
00000000
00000000
00000100
00000010
00000100
00000000
00001000
00000000
00000001
00000000
00000010
00000000
00000100
00000000
00001000
00000000
00000000
00000000
00000001
00000000
00000100
00000000
00001000
00000000
00010000
00000000
00000000
00000000
00001000
00000000
00010000
00000000
,
01000000
10000000
01000000
10000000
00010000
00100000
10000000
00100000
00000000
00100000
00010000
10000000
00100000
01000000
00100000
00010000
,
00001000
00010000
00001000
00000000
00010000
00001000
00010000
00000000
00001000
00000000
00000100
00000000
00000001
00000000
00001000
00000000
00000010
00000000
00000100
00000000
00000001
00000000
00000000
00000000
00001001
00000000
00000000
00000000
00000000
00000000
00000000
00000000
,
00000001
00000100
00000010
00001000
00010000
01000000
00100000
10000000
00000000
10000000
00010000
00000000
10010000
00000000
00000000
00000000
,
10000000
01000000
00100000
00010000
00001000
00000100
00000010
00000001
00000000
00000001
00001000
00000000
00001001
00000000
00000000
00000000
,
00000001
00000100
00000001
00000100
00001000
00010000
00001000
00010000
00000000
00010000
00100000
10000000
00100000
00000000
00000000
10100000
,
00000000
00000000
11000000
00000000
00000000
00110000
00000000
00000000
00100000
00001000
00000000
00000000
00011000
00000000
00010000
00001000
,
00000010
00001000
00010000
00000000
00011000
00000000
00001000
00010000
01000000
00010000
00001000
00000000
00011000
00000000
00010000
00001000
,
00000100
00001000
00010000
00000000
00011000
00000000
00001000
00010000
00100000
00010000
00001000
00000000
00001000
00010000
01000000
10000000
,
00100000
00010000
00001000
00010000
01000000
00100000
00001000
00010000
00001000
00000010
00000100
00010000
00001000
00000100
00000001
00000100
,
00001000
00000000
00010000
00000000
00001000
00000000
00000010
00000000
00000001
00001000
00000001
00001000
00000001
00000000
00000000
00000000
00000000
00000000
00000000
00000000
00000000
00000000
00000000
00000000
00002002
00000000
00000000
00000000
00000000
00000000
00000000
00000000
,
00000000
00000000
00000000
00000000
00000000
00000000
00000000
00000000
00003003
00000000
00000000
00000000
00000001
00000100
00000010
00000000
,
00001000
00000000
00000001
00000000
00000000
00000000
00000001
00000000
00001000
00000100
00001000
00000000
00000100
00010000
00000100
00000000
00020000
00000000
00000000
00000000
00032000
00000000
00000000
00000000
00103000
00000000
00010000
00000000
01000000
00000000
00000000
00000000
,
00100000
00000000
10000000
00000000
00000000
00000000
10000000
00000000
01000000
00100000
00010000
00000000
01000000
00100000
10000000
00000000
02000000
00000000
00000000
00000000
03020000
00000000
00000000
00000000
00031000
00000000
00000000
00000000
00010000
00000000
00000010
00000000
,
00001000
00000000
00000100
00000000
00000000
00000000
00000100
00000000
00000010
00000001
00001000
00000000
00000100
00010000
00001000
00000000
00010000
00000000
00001000
00000000
00010000
00000000
00000000
00000000
00011000
00000000
00000000
00000000
01001000
00000000
00000000
00000000
,
01010000
00000000
10010000
00000000
10000000
01000000
00100000
00010000
20000000
00000000
00000000
00000000
00000000
00000000
00000000
00000000
,
30010000
00000000
00000000
00000000
00000000
00000000
01100000
00000000
00000000
00000000
00000000
00000000
10000000
00000000
00000000
00010000
00000000
00000000
00000000
00000000
00000000
00010000
00000000
00000000
00100000
00000000
00001000
00000000
00100000
00000000
00001000
00000000
00010000
00000000
00001000
00000000
00010000
00000000
00000000
00000000
00000000
00000000
00000100
00000000
00000000
00000000
00000000
00000000
,
00000010
00000000
00000000
00000000
00000000
00000000
00000000
00000000
00000000
00000000
00000000
00000000
00000110
00000000
00000000
00000000
00000000
00000000
00000000
00000000
00000000
00000000
00000000
00000000
00000001
00000000
00000000
00000000
00000000
00000000
00001000
00000000
00000000
00000000
00000000
00000000
00000000
00000000
00000000
00000000
00000000
00000000
00001000
00000000
00000000
00000000
00000000
00000000
00000100
00000000
00000000
00000000
00010000
00000000
00000000
00000000
00000100
00000000
00000000
00000000
00010000
00000000
00000000
00000000
00001000
00000000
00000000
00000000
00010000
00000000
00000000
00000000
00001000
00000000
00000000
00000000
00000000
00000000
00000000
00000000
00000000
00010000
00000000
00000000
00000000
00000000
00000000
00000000
00000000
00000000
00001000
00000000
00000000
00000000
00000000
00000000
,
00010000
00000000
00010000
00100000
10000000
00000000
10000000
01000000
00010000
00000000
00001000
00000010
00000001
00000000
00000001
00000100
,
00001000
00010000
00100000
00010000
00001000
00010000
00001000
00010000
00002000
00000000
00000000
00000000
00000000
00000000
00003000
00000000
,
00001000
00000000
01000000
00000000
00010000
00000000
00100000
00000000
01000000
00000000
10000000
00000000
00010000
00000000
10000000
00000000
00000000
00000000
10000000
00000000
00100000
00000000
01000000
00010000
01000000
00000000
00001000
00000000
00010000
00001000
00010000
00001000
,
00010000
00000000
00000000
00011000
00011000
00000000
00010010
00000000
00000000
00001010
00001010
00000000
00000000
00001000
00000001
00001000
,
00000001
00000000
00000010
00000000
00000100
00000000
00001000
00000000
00000100
00000000
00000000
00000000
00010000
00001000
00010000
00000000
00000000
00000000
00001000
00010000
00001000
00000000
00000000
00000000
00010000
00000000
01000000
00000000
10000000
00000000
00010000
00000000
,
00100000
00000000
00000000
00110000
00110000
00000000
11000000
00000000
00000000
01100000
01100000
00000000
10000000
01000000
00100000
00010000
,
20000000
00000000
00000000
00000000
32000000
00000000
00000000
00000000
03100000
00010000
00100000
00000000
00001000
00000000
00010000
00000000
00000100
00001000
00000100
00000000
00000010
00000000
00000001
00000000
00000100
00000001
00000100
00000000
00000010
00000000
00001000
00000000
,
00010000
01000000
00100000
10000000
01000000
00010000
00001000
00000010
00000001
00000010
00001000
00010000
01000000
10000000
00010000
00000000
,
10010000
00000000
00000000
00000000
00000000
00000000
00000000
00000000
10000000
00100000
00000000
10000000
00100000
00000000
01000000
00000000
00001000
00010000
00000000
00001000
00010000
00000000
00000010
00000000
00001000
00000000
00000100
00000000
00000010
00000100
00000010
00000000
,
00000001
00000100
00000000
00000001
00000100
00000000
00000010
00000000
00010000
00001000
00000000
00010000
00001000
00000000
01000000
00000000
00010000
01000000
00000000
00100000
10000000
00000000
00010000
00000000
20000000
00000000
00000000
00000000
30000000
00000000
00000000
00000000
,
10000000
00000000
01000000
00000000
00010000
00000000
00001000
00000000
00000010
00000000
00000000
00000000
00000011
00000000
00000000
00000000
00000001
00001000
00000001
00000000
00000010
00000000
00001000
00000000
00010000
00000000
00001000
00000000
00000100
00000000
00000000
00000000
,
00000001
00000000
00000100
00000000
00001000
00000000
00010000
00000000
00100000
00000000
00000000
00000000
10100000
00000000
00000000
00000000
10000000
00010000
10000000
00000000
00100000
00000000
00010000
00000000
00001000
00000000
00010000
00000000
00001000
00010000
00001000
00010000
,
00001000
00000000
00000000
00000000
;
