
//----- song ID: sodd -----//
#TITLE:S.O.D;
#ARTIST:iso\:R;
#BANNER:S.O.D.png;
#BACKGROUND:S.O.D-bg.png;
#CDTITLE:./CDTitles/DDR WORLD.png;
#MUSIC:S.O.D.ogg;
#SAMPLESTART:35.011;
#SAMPLELENGTH:15;
#BPMS:0=178;
#NOTES:
     dance-single:
     :
     Beginner:
     3:
     :
0000
0000
0000
0000
,
0000
0000
0000
0000
,
0000
0000
0000
0000
,
0000
0000
0000
0000
,
0000
0000
0000
0000
,
0000
0000
0000
0000
,
0000
0000
0000
0000
,
0000
0000
0000
0000
,
0000
0000
0000
0000
,
0000
0000
0000
0000
,
0002
0000
0000
0000
,
0003
0000
0000
0000
,
1000
0000
0000
0000
,
0001
0000
0000
0000
,
2000
0000
0000
0000
,
3000
0000
0000
0000
,
0010
0000
0000
0000
,
1000
0000
0000
0000
,
1001
0000
0000
0000
,
0000
0000
0000
0000
,
1001
0000
0000
0000
,
0000
0000
0000
0000
,
0001
0000
0001
0000
,
1000
0000
1000
0000
,
0002
0000
0000
0000
,
0003
0000
0000
0000
,
1000
0000
0000
0000
,
0001
0000
0000
0000
,
1000
0000
1000
0000
,
0010
0000
0000
0000
,
1000
0000
0000
0000
,
0001
0000
0000
0000
,
1000
0000
1000
0000
,
0100
0000
0000
0000
,
1000
0000
0001
0000
,
1000
0000
0000
0000
,
1000
0000
0010
0000
,
1000
0000
0000
0000
,
0001
0000
1000
0000
,
0001
0000
0000
0000
,
0001
0000
0010
0000
,
0001
0000
0000
0000
,
2002
0000
0000
0000
,
3003
0000
0000
0000
,
1000
0000
0000
0000
,
0100
0000
0000
0000
,
1000
0000
0000
0000
,
0001
0000
0000
0000
,
0020
0000
0000
0000
,
0030
0000
0000
0000
,
0001
0000
1000
0000
,
0010
0000
1000
0000
,
0001
0000
1000
0000
,
0010
0000
0000
0000
,
2000
0000
3000
0000
,
0002
0000
0003
0000
,
2000
0000
3000
0000
,
0100
0000
0000
0000
,
1000
0000
0001
0000
,
0010
0000
0001
0000
,
1000
0000
0001
0000
,
0010
0000
0000
0000
,
0002
0000
0003
0000
,
2000
0000
3000
0000
,
0020
0000
0030
0000
,
0000
0000
0000
0000
,
2000
0000
3000
0000
,
0001
0000
0000
0000
,
0002
0000
0003
0000
,
1000
0000
0000
0000
,
2000
0000
3000
0000
,
0100
0000
0000
0000
,
0200
0000
0300
0000
,
1000
0000
0000
0000
,
1001
0000
0000
0000
,
1001
0000
0000
0000
,
0110
0000
0000
0000
,
0110
0000
0000
0000
,
1000
0000
0001
0000
,
1000
0000
0001
0000
,
1000
0000
0010
0000
,
1000
0000
0010
0000
,
0000
0000
1001
0000
,
0000
0000
0000
0000
;
#NOTES:
     dance-single:
     :
     Easy:
     6:
     :
0000
0000
0000
0000
,
0000
0000
0000
0000
,
0000
0000
0000
0000
,
0000
0000
0000
0000
,
0000
0000
0000
0000
,
0000
0000
0000
0000
,
0000
0000
0000
0000
,
0000
0000
0000
0000
,
0000
0000
0000
0000
,
0000
0000
0000
0000
,
2002
0000
0000
0000
,
3003
0000
0000
0000
,
2200
0000
0000
0000
,
3300
0000
0000
0000
,
0220
0000
0000
0000
,
0330
0000
0000
0000
,
0022
0000
0000
0000
,
0033
0000
0000
0000
,
0001
0000
0010
0000
,
0100
0000
1000
0000
,
0001
0000
0100
0000
,
0010
0000
1000
0000
,
0001
1000
0001
0000
,
1000
0001
1000
0000
,
0020
0000
0000
0000
,
0030
0000
0000
0000
,
1000
0000
0010
0000
,
1000
0010
1000
0000
,
0001
0000
0010
0000
,
0001
0000
1000
0000
,
0001
0000
0100
0000
,
0001
0100
0001
0000
,
1000
0000
0010
0000
,
1000
0000
0000
0000
,
0001
0000
1000
0000
,
0010
0000
1000
0000
,
0100
0000
1000
0000
,
0001
0000
0000
0000
,
1000
0000
0001
0000
,
0010
0000
0001
0000
,
0100
0000
0001
0000
,
1000
0000
0000
0000
,
2000
0000
0000
0000
,
3000
0001
1000
0001
,
1000
0000
0000
1000
0000
0000
2000
0000
,
0000
3000
0000
0001
,
1000
0000
0000
1000
0000
0000
1000
0000
,
0001
0000
0000
0001
0000
0000
0001
0000
,
0020
0000
0000
0000
,
0030
0000
1001
0000
,
1000
0000
0100
0000
,
0010
0001
1000
0000
,
0001
0000
0100
0000
,
0010
1000
0001
0000
,
2000
0000
3100
0000
,
0200
0000
0310
0000
,
0020
0000
0031
0000
,
1001
0000
0000
0000
,
0001
0000
0010
0000
,
0100
1000
0001
0000
,
1000
0000
0010
0000
,
0100
0001
1000
0000
,
0002
0000
0103
0000
,
0200
0000
0310
0000
,
0020
0000
2000
0000
,
3030
0000
0000
0000
,
2001
0000
0000
0000
,
0010
0010
3010
0000
,
1020
0000
0000
0000
,
0100
0100
0130
0000
,
0210
0000
0000
0000
,
0001
0001
0301
0000
,
0102
0000
0000
0000
,
1000
1000
1003
0000
,
1001
0000
0000
0000
,
0101
0000
0000
0000
,
0110
0000
0000
0000
,
1010
0000
0000
0000
,
0001
0001
0001
0000
,
1000
1000
1000
0000
,
1001
1001
1001
0000
,
0110
0110
0110
0000
,
2002
3003
1001
0000
,
0000
0000
0000
0000
;
#NOTES:
     dance-single:
     :
     Medium:
     12:
     :
0000
0000
0000
0000
,
0000
0000
0000
0000
,
0000
0000
0000
0000
,
0000
0000
0000
0000
,
0000
0000
0000
0000
,
0000
0000
0000
0000
,
0000
0000
0000
0000
,
0000
0000
0000
0000
,
0000
0000
0000
0000
,
0000
0000
0000
0000
,
1002
0000
0000
0000
,
0000
0203
0320
0000
,
2030
0000
0000
3002
,
0203
0000
0000
0300
,
1002
0000
0000
0023
,
0230
0000
0320
0000
,
0032
0000
0000
0000
,
2000
0000
0000
3003
,
1001
0000
0000
1100
0000
0000
0110
0000
,
0000
0011
0000
0000
1001
0000
1001
0000
,
1001
0000
0000
0101
0000
0000
0110
0000
,
0000
1010
0000
0000
1001
0000
1001
0000
,
0001
0010
0001
0010
0100
1000
0100
1000
,
0010
1000
0010
1000
0001
0100
0001
0100
,
0020
0000
0000
0000
,
1030
0001
0100
0010
1000
0001
1000
0000
,
0001
0000
1000
0010
0000
0010
1000
0000
,
0001
1000
0100
0010
0000
0010
0001
0000
,
1000
0000
0001
0100
0000
0100
0001
0000
,
1000
0001
0010
0100
0000
0100
1000
0000
,
0001
0000
0100
1000
0000
1000
0100
0000
,
0001
0010
0100
0001
0000
0001
0100
0000
,
1000
0000
0010
0001
0000
0001
0010
0000
,
1000
0100
0010
1000
0000
1000
0010
0000
,
0001
1000
0010
1000
0001
1000
0100
1000
,
0000
1000
0100
1000
0001
1000
0010
0000
,
1000
0001
0010
0001
1000
0001
0100
0001
,
0000
0001
0100
0001
1000
0001
0010
0000
,
0001
0010
1000
0010
0001
0010
0100
0010
,
0000
0010
0100
0010
1000
0010
0001
0000
,
1000
0010
0001
0010
1000
0010
0100
0010
,
0000
0010
0100
0010
0001
0010
1000
0000
,
2020
0000
0000
0000
,
3030
1001
0101
0110
,
2010
0000
0000
3002
0000
0000
0203
0000
,
0000
0000
0000
0301
,
1001
0000
0000
1100
0000
0000
0101
0000
,
1010
0000
0000
0011
0000
0000
0110
0000
,
2002
0000
0000
0000
,
3003
0000
1100
0011
,
0001
0010
0100
1000
0010
0100
0001
0010
,
0100
1000
0010
0100
0001
0000
1001
0000
,
0001
0100
0010
1000
0100
0010
0001
0100
,
0010
1000
0100
0010
0001
0000
1001
0000
,
0002
0000
0000
0023
0000
0000
0130
0000
,
0002
0000
0000
0203
0000
0000
0310
0000
,
0002
0000
0000
0203
0000
0000
0320
0000
,
1030
0000
0101
1010
,
1000
0010
0100
0001
0010
0100
1000
0010
,
0100
0001
0010
0100
1000
0000
1001
0000
,
1000
0100
0010
0001
0100
0010
1000
0100
,
0010
0001
0100
0010
1000
0000
1001
0000
,
2000
0000
0000
3020
0000
0000
0130
0000
,
2000
0000
0000
3200
0000
0000
0310
0000
,
2000
0000
0000
0002
0000
0000
0000
0000
,
3003
0000
0000
0000
,
2000
0001
0100
0100
,
0100
0100
0100
3100
,
1000
0000
1000
0100
0002
0000
0100
0000
,
0200
0300
0100
0103
,
0200
0000
0010
0000
0010
0000
0310
0001
,
0010
0200
0010
0000
0010
0000
0310
0000
,
0020
0000
0001
0000
0031
0000
0001
1000
,
0010
0200
0001
0000
0301
0010
0100
0000
,
0110
0000
0110
0000
0011
0000
0001
0010
,
0001
0010
0001
0000
0011
0000
0010
0001
,
1000
0000
0000
0000
1001
0000
0000
0000
1001
0000
0000
0000
0001
1000
0000
0000
,
0001
0000
1000
0000
0010
0000
0000
0000
1000
0010
0000
0000
1000
0000
0010
0000
,
1000
0000
0000
0000
1010
0000
0000
0000
0010
1000
0000
0000
0010
0000
0000
0000
,
0110
0000
0000
0000
0110
0000
0000
0000
0100
0010
0000
0000
0100
0000
0000
0000
,
0101
0000
0000
0000
0101
0000
0000
0000
0001
0000
0100
0000
0001
0100
0000
0000
,
0010
0000
0100
0000
0010
0000
0000
0000
0100
0010
0000
0000
0100
0000
0000
0000
,
0220
0330
1001
0000
,
0000
0000
0000
0000
;
#NOTES:
     dance-single:
     :
     Hard:
     14:
     :
0000
0000
0000
0000
,
0000
0000
0000
0000
,
0000
0000
0000
0000
,
0000
0000
0000
0000
,
0000
0000
0000
0000
,
0000
0000
0000
0000
,
0000
0000
0000
0000
,
0000
0000
0000
0000
,
0000
0000
0000
0000
,
0000
0000
0000
0000
,
1000
0010
1000
0010
1000
0010
1000
0010
,
0100
0001
0100
0001
0100
0001
0100
0001
,
0010
0001
0010
0001
0010
0001
0010
0001
,
1000
0100
1000
0100
1000
0100
1000
0100
,
1000
0010
0100
0001
1000
0010
0100
0001
,
1000
0100
0010
0001
1000
0100
0010
0001
,
1000
0010
0001
0010
1000
0010
0001
0010
,
1000
0100
0001
0100
1000
0100
0001
0100
,
1100
0000
0001
0101
0000
1000
1010
0000
,
0001
0011
0000
1000
1001
0000
1001
0000
,
0101
0000
1000
1100
0000
0001
0011
0000
,
1000
1010
0000
0001
1001
0000
1001
0000
,
0001
0100
0001
0000
0000
0000
1000
0010
1000
0000
0000
0000
0001
0010
0001
0000
,
0000
0000
1000
0100
1000
0000
0000
0000
0001
1000
0001
0000
1000
0001
1000
0000
,
0002
0000
0000
0000
,
0013
0100
0100
1000
0010
0010
0110
0000
,
0001
0000
0010
0100
0000
0100
1000
0000
,
0010
0010
0010
0100
0000
0100
0001
0000
,
1000
0000
0100
0010
0000
0010
0001
0000
,
0100
0100
0100
0010
0000
0010
1000
0000
,
0001
0000
0010
1000
0000
1000
0001
0000
,
0100
0100
0100
0010
0000
0010
0001
0000
,
1000
0000
0010
0001
0000
0001
1000
0000
,
0100
0100
0100
0010
0000
0010
1000
0000
,
1000
0000
0010
0000
0000
0000
0010
0000
1000
0010
1000
0000
0010
0000
0010
0000
,
0000
0000
0100
0000
0100
0001
0100
0000
0010
0000
0010
0000
0100
0010
0100
0000
,
0001
0020
0030
0010
0001
0010
0100
1000
,
0000
0000
0000
0000
0000
0000
0000
0000
0000
0000
0000
0000
0100
0000
0000
0000
0000
0000
0000
0000
0000
0000
0000
0000
0000
0000
0000
0000
0000
0000
0000
0000
0000
0000
0000
0000
0200
0300
0000
0000
0000
0000
0000
0000
0000
0000
0000
0000
0200
0300
0000
0000
0000
0000
0000
0000
0000
0000
0000
0000
0200
0300
0000
0000
0000
0000
0000
0000
0000
0000
0000
0000
0200
0300
0000
0000
0000
0000
0000
0000
0000
0000
0000
0000
0000
0000
0000
0000
0000
0000
0000
0000
0000
0000
0000
0000
,
0001
0000
0100
0000
0000
0000
0100
0000
0001
0100
0001
0000
0100
0000
0100
0000
,
0000
0010
0000
0010
2000
0000
3000
0000
,
1000
0000
0100
0000
0000
0000
0100
0000
1000
0100
1000
0000
0002
0000
0003
0000
,
1000
0001
1000
0001
0010
0100
0010
0100
,
1000
0000
1010
0000
0100
0100
0101
0000
,
0001
0000
0011
0000
0100
0100
1100
0000
,
1000
0000
1010
0000
0100
0100
0101
0000
,
0001
0000
0011
0000
0100
0100
1100
0000
,
1000
0000
0110
0000
0100
0100
0101
0000
,
0001
0000
0110
0000
0100
0100
1100
0000
,
0001
0000
1000
0100
1000
0000
0000
0000
0001
0100
0001
0000
0000
0000
1000
0100
,
0010
0000
0010
0000
0010
0100
0010
0000
0001
0000
0001
0000
0001
1000
0001
0000
,
1000
0100
0001
1000
0010
0001
1000
0010
,
0001
1000
0100
0001
1000
0100
0001
0000
,
0001
0100
1000
0001
0100
1000
0001
0010
,
1000
0001
0010
1000
0001
0100
1000
0000
,
0020
0000
0000
2030
0000
0000
3100
0000
,
0002
0000
0000
0203
0000
0000
1300
0000
,
0020
0000
0000
0032
0000
0000
2003
0000
,
3100
0000
0000
0000
0000
0000
0000
0000
0001
1000
0001
0000
1000
0001
1000
0000
,
0001
0010
0100
0001
0100
0010
0001
0100
,
0010
0001
0010
0100
0001
0010
0100
0000
,
1000
0010
0100
1000
0100
0010
1000
0100
,
0010
1000
0010
0100
1000
0010
0100
0000
,
0020
0000
0000
0032
0000
0000
1003
0000
,
0200
0000
0000
0302
0000
0000
0013
0000
,
0200
0000
0000
2000
0000
0000
0000
0000
,
3300
0000
0000
0000
,
0011
0000
0000
0000
0001
0020
0000
0000
1030
0020
0000
0000
0031
0020
0000
0000
,
1030
0020
0000
0000
0031
0020
0000
0000
1030
0020
0000
0000
0031
0010
0000
0000
,
1100
0000
0000
0000
1000
0100
1000
0100
1000
0200
0000
0000
0301
0200
0000
0000
,
1300
0000
0100
0000
0200
0000
0000
0300
0200
0300
0200
0300
0200
0300
0000
0000
,
1010
0000
0000
0000
1000
0020
0000
0000
0031
0020
0000
0030
0020
0030
0020
0030
,
0020
0030
0020
0030
0020
0000
0000
0000
0031
0020
0000
0000
1030
0010
0000
0000
,
0101
0000
0000
0000
0001
0200
0000
0000
1300
0200
0000
0300
0200
0300
0200
0300
,
0200
0300
0200
0300
0200
0000
0000
0000
0301
0200
0000
0000
1300
0100
0000
0000
,
0101
0000
0011
0000
1100
0000
1010
1010
,
0110
0110
0101
0000
1001
0000
0011
0011
,
0110
0000
0000
0000
1100
0000
0000
0000
0011
0000
0000
0000
0001
0010
0001
0000
,
0011
0000
0011
0000
1001
0000
0000
0000
1000
0010
1000
0000
1010
0000
1010
0000
,
0110
0000
0000
0000
0101
0000
0000
0000
0001
0100
0001
0000
1001
0000
0000
0000
,
0011
0000
0000
0000
1100
0000
0000
0000
1000
0100
1000
0000
1100
0000
0000
0000
,
1010
0000
0000
0000
0101
0000
0000
0000
1001
0000
1001
0000
0001
1000
0001
0000
,
0011
0000
0011
0000
0110
0000
0000
0000
0010
0100
0010
0000
0110
0000
0000
0000
,
0100
0010
0100
0010
0100
0000
0000
0000
1001
0000
0000
0000
0000
0000
0000
0000
,
0000
0000
0000
0000
;
#NOTES:
     dance-double:
     :
     Easy:
     6:
     :
00000000
00000000
00000000
00000000
,
00000000
00000000
00000000
00000000
,
00000000
00000000
00000000
00000000
,
00000000
00000000
00000000
00000000
,
00000000
00000000
00000000
00000000
,
00000000
00000000
00000000
00000000
,
00000000
00000000
00000000
00000000
,
00000000
00000000
00000000
00000000
,
00000000
00000000
00000000
00000000
,
00000000
00000000
00000000
00000000
,
00022000
00000000
00000000
00000000
,
00033000
00000000
00000000
00000000
,
00220000
00000000
00000000
00000000
,
00330000
00000000
00000000
00000000
,
20200000
00000000
00000000
00000000
,
30300000
00000000
00000000
00000000
,
22000000
00000000
00000000
00000000
,
33000000
00000000
00000000
00000000
,
10000000
00000000
01000000
00000000
,
00100000
00000000
00001000
00000000
,
00010000
00000000
00000100
00000000
,
00001000
00000000
00000001
00000000
,
00001000
00000010
00001000
00000000
,
00000010
00010000
00000010
00000000
,
00020000
00000000
00000000
00000000
,
00030000
00000000
00000000
00000000
,
00001000
00000000
00010000
00000000
,
00000010
00000000
00000100
00000000
,
00001000
00000000
00010000
00000000
,
00001000
00000000
00000000
00000000
,
00010000
00000000
00001000
00000000
,
01000000
00000000
00100000
00000000
,
00010000
00000000
00001000
00000000
,
00010000
00000000
00000000
00000000
,
00001000
00000000
00010000
00000000
,
00100000
00000000
10000000
00000000
,
01000000
00000000
00010000
00000000
,
00001000
00000000
00000000
00000000
,
00010000
00000000
00001000
00000000
,
00000100
00000000
00000001
00000000
,
00000010
00000000
00001000
00000000
,
00010000
00000000
00000000
00000000
,
00002000
00000000
00000000
00000000
,
00003000
00010000
00001000
00010000
,
00001000
00000000
00000000
00001000
00000000
00000000
00002000
00000000
,
00000000
00003000
00000000
00100000
,
00010000
00000000
00000000
00010000
00000000
00000000
00010000
00000000
,
10000000
00000000
00000000
10000000
00000000
00000000
10000000
00000000
,
02000000
00000000
00000000
00000000
,
03000000
00000000
10010000
00000000
,
10000000
00000000
00100000
00000000
,
00010000
00000000
00001000
00000000
,
00000100
00000000
00000001
00000000
,
00001000
00000000
00000010
00000000
,
00020000
00000000
00031000
00000000
,
00020000
00000000
01030000
00000000
,
00020000
00000000
00031000
00000000
,
00001010
00000000
00000011
00000000
,
00000001
00000000
00000010
00000000
,
00001000
00000000
00010000
00000000
,
01000000
00000000
10000000
00000000
,
00010000
00000000
00100000
00000000
,
00002000
00000000
00013000
00000000
,
00002000
00000000
00003100
00000000
,
00002000
00000000
00020000
00000000
,
00033000
00000000
00000000
00000000
,
00012000
00000000
00000000
00000000
,
00100000
00000000
00103000
00000000
,
00201000
00000000
00000000
00000000
,
00010000
00000000
00310000
00000000
,
00120000
00000000
00000000
00000000
,
00001000
00000000
00031000
00000000
,
00012000
00000000
00000000
00000000
,
00000100
00000000
00003100
00000000
,
00001100
00000000
00000000
00000000
,
00010100
00000000
00000000
00000000
,
00011000
00000000
00000000
00000000
,
01001000
00000000
00000000
00000000
,
01010000
00000000
01010000
00000000
,
10010000
00000000
10010000
00000000
,
00101000
00000000
00101000
00000000
,
00010010
00000000
00010010
00000000
,
00002002
00003003
00001001
00000000
,
00000000
00000000
00000000
00000000
;
#NOTES:
     dance-double:
     :
     Medium:
     12:
     :
00000000
00000000
00000000
00000000
,
00000000
00000000
00000000
00000000
,
00000000
00000000
00000000
00000000
,
00000000
00000000
00000000
00000000
,
00000000
00000000
00000000
00000000
,
00000000
00000000
00000000
00000000
,
00000000
00000000
00000000
00000000
,
00000000
00000000
00000000
00000000
,
00000000
00000000
00000000
00000000
,
00000000
00000000
00000000
00000000
,
00021000
00000000
00000000
00000000
,
00000000
02030000
23000000
00000000
,
30200000
00000000
00000000
00320000
,
00032000
00000000
00000000
00003000
,
00012000
00000000
00000000
00003020
,
00000032
00000000
00000203
00000000
,
00002300
00000000
00000000
00000000
,
00020000
00000000
00000000
00033000
,
00010010
00000000
00000000
00001010
00000000
00000000
00001001
00000000
,
00000000
00000011
00000000
00000000
00000110
00000000
00000110
00000000
,
00000011
00000000
00000000
00001001
00000000
00000000
00001010
00000000
,
00000000
00010010
00000000
00000000
00011000
00000000
00011000
00000000
,
00101000
00000000
00000000
00110000
00000000
00000000
10010000
00000000
,
00000000
10100000
00000000
00000000
01100000
00000000
01100000
00000000
,
02100000
00000000
00000000
00000000
,
03010000
10000000
01000000
00100000
00010000
00000000
10010000
00000000
,
00010000
00000000
00100000
01000000
00000000
01000000
00100000
00000000
,
01000000
00010000
00001000
00010000
00000000
00010000
00000010
00000000
,
00001000
00000000
00000010
00000100
00000000
00000100
00000010
00000000
,
00000100
00001000
00010000
00001000
00000000
00001000
00100000
00000000
,
00010000
00000000
01000000
00100000
00000000
00100000
01000000
00000000
,
00100000
00010000
00001000
00000100
00000000
00000100
00000001
00000000
,
00001000
00000000
00000100
00000010
00000000
00000010
00000100
00000000
,
00000010
00001000
00010000
01000000
00000000
01000000
10000000
00000000
,
10000000
00010000
00100000
00010000
10000000
00010000
01000000
00010000
,
00000000
00010000
01000000
00001000
00010000
00000100
00001000
00000000
,
00000001
00001000
00000010
00001000
00000001
00001000
00000100
00001000
,
00000000
00001000
00000100
00010000
00001000
01000000
00010000
00000000
,
00010000
00100000
00001000
00100000
00010000
00100000
01000000
00100000
,
00000000
00100000
01000000
00010000
00001000
00000010
00000001
00000000
,
00001000
00000010
00010000
00000010
00001000
00000010
00000100
00000010
,
00000000
00000010
00000100
00001000
00010000
00100000
10000000
00000000
,
20200000
00000000
00000000
00000000
,
30300000
10010000
00110000
00101000
,
00021000
00000000
00000000
00030020
00000000
00000000
00000230
00000000
,
00000000
00000000
00000000
00000301
,
00001001
00000000
00000000
00001010
00000000
00000000
00010010
00000000
,
00011000
00000000
00000000
00101000
00000000
00000000
00110000
00000000
,
20020000
00000000
00000000
00000000
,
30030000
00000000
00101000
00011000
,
00001000
00010000
00100000
10000000
00010000
00100000
00001000
00000000
,
00010000
00001000
00000010
00000001
00001000
00000010
00010000
00000000
,
00001000
00010000
01000000
10000000
00010000
01000000
00001000
00000000
,
00010000
00001000
00000100
00000001
00001000
00000100
00010000
00000000
,
00002000
00000000
00000000
00023000
00000000
00000000
00031000
00000000
,
00000200
00000000
00000000
00002300
00000000
00000000
00013000
00000000
,
00200000
00000000
00000000
20300000
00000000
00000000
31000000
00000000
,
00010000
00000000
00001000
00010000
,
00001000
00100000
00010000
10000000
01000000
00010000
00001000
00000000
,
00010000
00000010
00001000
00000001
00000100
00001000
00010000
00000000
,
00001000
01000000
00010000
10000000
00100000
00010000
00001000
00000000
,
00010000
00000100
00001000
00000001
00000010
00001000
00010000
00000000
,
00002000
00000000
00000000
00023000
00000000
00000000
00031000
00000000
,
00000020
00000000
00000000
00000032
00000000
00000000
00000103
00000000
,
00002000
00000000
00000000
00020000
00000000
00000000
00000000
00000000
,
00033000
00000000
00000000
00000000
,
00020000
00001000
00000100
00000100
,
00000100
00000100
00000100
00030100
,
00010000
00000000
00010000
00000100
00002000
00000000
00000001
00000000
,
00000002
00000003
00000001
00003001
,
00000002
00000000
00000100
00000000
00000100
00000000
00000103
00001000
,
00000100
00000002
00000100
00000000
00000100
00000000
00000103
00000000
,
00000200
00000000
00000010
00000000
00000010
00000000
00000310
00001000
,
00010000
02000000
00100000
00000000
03100000
00010000
00001000
00000000
,
00011000
00000000
00011000
00000000
00010010
00000000
00000010
00001000
,
00000010
00001000
00000010
00000000
00001010
00000000
00001000
00000010
,
00010000
00000000
00000000
00000000
00010010
00000000
00000000
00000000
00010010
00000000
00000000
00000000
00000010
00010000
00000000
00000000
,
00001000
00000000
01000000
00000000
00010000
00000000
00000000
00000000
01000000
00010000
00000000
00000000
10000000
00000000
00100000
00000000
,
01000000
00000000
00000000
00000000
01100000
00000000
00000000
00000000
00100000
01000000
00000000
00000000
00100000
00000000
00000000
00000000
,
10100000
00000000
00000000
00000000
10100000
00000000
00000000
00000000
10000000
00100000
00000000
00000000
10000000
00000000
00000000
00000000
,
10010000
00000000
00000000
00000000
10010000
00000000
00000000
00000000
00010000
00000000
00100000
00000000
00010000
00100000
00000000
00000000
,
00001000
00000000
00010000
00000000
00000010
00000000
00000000
00000000
00001000
00000010
00000000
00000000
00001000
00000000
00000000
00000000
,
00002020
00003030
00011000
00000000
,
00000000
00000000
00000000
00000000
;
#NOTES:
     dance-double:
     :
     Hard:
     14:
     :
00000000
00000000
00000000
00000000
,
00000000
00000000
00000000
00000000
,
00000000
00000000
00000000
00000000
,
00000000
00000000
00000000
00000000
,
00000000
00000000
00000000
00000000
,
00000000
00000000
00000000
00000000
,
00000000
00000000
00000000
00000000
,
00000000
00000000
00000000
00000000
,
00000000
00000000
00000000
00000000
,
00000000
00000000
00000000
00000000
,
00010000
00001000
00010000
00100000
00010000
00001000
00010000
00000000
,
00001000
00010000
00001000
00000010
00001000
00010000
00001000
00000000
,
00010000
00001000
00010000
01000000
00010000
00001000
00010000
00000000
,
00001000
00010000
00001000
00000100
00001000
00010000
00001000
00000000
,
00010000
00001000
00000010
00000100
00000010
00001000
00010000
00000000
,
00001000
00010000
00100000
01000000
00100000
00010000
00001000
00000000
,
00010000
00001000
00000100
00000010
00000100
00001000
00010000
00000000
,
00001000
00010000
01000000
00100000
01000000
00010000
00001000
00000000
,
00001010
00000000
00000010
00000011
00000000
00000001
00001001
00000000
,
00001000
00001010
00000000
00000010
00000110
00000000
00000101
00000000
,
00001001
00000000
00001000
00001100
00000000
00000100
00000110
00000000
,
00000010
00000011
00000000
00000001
00001001
00000000
00000101
00000000
,
00000001
00000100
00000001
00000000
00000000
00000000
00001000
00000010
00001000
00000000
00000000
00000000
00000001
00000010
00000001
00000000
,
00000000
00000000
00001000
00000100
00001000
00000000
00000000
00000000
00000100
00010000
00000100
00000000
00010000
00001000
00010000
00000000
,
00002000
00000000
00000000
00000000
,
00103000
00010000
00010000
10000000
01000000
01000000
01100000
00000000
,
00100000
00000000
01000000
10000000
00000000
10000000
00100000
00000000
,
01000000
00001000
00010000
00000010
00000000
00000010
00000001
00000000
,
00000010
00000000
00000100
00000001
00000000
00000001
00000010
00000000
,
00000100
00010000
00001000
00100000
00000000
00100000
10000000
00000000
,
00100000
00000000
00010000
01000000
00000000
01000000
10000000
00000000
,
01000000
00010000
00001000
00000010
00000000
00000010
00000001
00000000
,
00000010
00000000
00001000
00000100
00000000
00000100
00000001
00000000
,
00000100
00001000
00010000
00100000
00000000
00100000
10000000
00000000
,
00100000
00000000
00010000
00000000
00000000
00000000
00010000
00000000
00100000
00010000
00100000
00000000
00001000
00000000
00001000
00000000
,
00000000
00000000
00010000
00000000
00010000
00000010
00010000
00000000
00000010
00000000
00000010
00000000
00001000
00000010
00001000
00000000
,
00000001
00002000
00003000
00000001
00000010
00000100
00010000
00001000
,
00000000
00000000
00000000
00000000
00000000
00000000
00000000
00000000
00000000
00000000
00000000
00000000
00010000
00000000
00000000
00000000
00000000
00000000
00000000
00000000
00000000
00000000
00000000
00000000
00000000
00000000
00000000
00000000
00000000
00000000
00000000
00000000
00000000
00000000
00000000
00000000
00020000
00030000
00000000
00000000
00000000
00000000
00000000
00000000
00000000
00000000
00000000
00000000
00020000
00030000
00000000
00000000
00000000
00000000
00000000
00000000
00000000
00000000
00000000
00000000
00020000
00030000
00000000
00000000
00000000
00000000
00000000
00000000
00000000
00000000
00000000
00000000
00020000
00030000
00000000
00000000
00000000
00000000
00000000
00000000
00000000
00000000
00000000
00000000
00000000
00000000
00000000
00000000
00000000
00000000
00000000
00000000
00000000
00000000
00000000
00000000
,
01000000
00000000
00100000
00000000
00000000
00000000
00100000
00000000
01000000
00100000
01000000
00000000
00100000
00000000
00100000
00000000
,
00000000
00010000
00000000
00010000
00002000
00000000
00003000
00000000
,
00000100
00000000
00000010
00000000
00000000
00000000
00000010
00000000
00000100
00000010
00000100
00000000
00000110
00000000
00000000
00000000
,
00000001
00001000
00000010
00010000
00001000
00100000
00010000
10000000
,
00010000
00000000
01010000
00000000
00100000
00010000
00001000
00000000
,
00010000
00000000
00011000
00000000
00001000
00000100
00000001
00000000
,
00001000
00000000
00001100
00000000
00000010
00001000
00010000
00000000
,
00001000
00000000
00011000
00000000
00010000
01000000
10000000
00000000
,
00100000
00000000
01100000
00000000
01000000
00001000
00010000
00000000
,
00000100
00000000
00000110
00000000
00000010
00001000
00010000
00000000
,
01000000
00000000
00100000
01000000
00100000
00000000
00000000
00000000
00010000
10000000
00010000
00000000
00000000
00000000
10000000
00000000
,
01000000
00000000
00100000
00000000
00001000
00100000
00001000
00000000
00010000
00000000
00010000
00000000
00011000
00000000
00000000
00000000
,
00001000
00010000
01000000
00010000
00001000
00010000
00100000
00010000
,
00001000
00010000
01000000
00010000
00001000
00000000
00011000
00000000
,
00010000
00001000
00000100
00001000
00010000
00001000
00000010
00001000
,
00010000
00001000
00000100
00001000
00010000
00000000
00010010
00000000
,
00000020
00000000
00000000
00000032
00000000
00000000
00001003
00000000
,
00000200
00000000
00000000
00000302
00000000
00000000
00000013
00000000
,
00002000
00000000
00000000
00023000
00000000
00000000
02030000
00000000
,
13000000
00000000
10010000
00110000
,
00100000
01000000
00010000
00001000
01000000
00100000
00010000
00001000
,
00010000
01000000
00100000
00001000
00010000
00000000
00010010
00000000
,
00000010
00000100
00001000
00010000
00000100
00000010
00001000
00010000
,
00001000
00000100
00000010
00010000
00001000
00000000
00101000
00000000
,
00200000
00000000
00000000
20300000
00000000
00000000
30010000
00000000
,
02000000
00000000
00000000
23000000
00000000
00000000
30100000
00000000
,
00020000
00000000
00000000
00002000
00000000
00000000
00000000
00000000
,
00033000
00000000
00000000
00000000
,
00010000
00000000
00000000
00000000
00001000
00000020
00000000
00000000
00000031
00000020
00000000
00000000
00001030
00000020
00000000
00000000
,
00000130
00002000
00000000
00000000
00003010
00002000
00000000
00000000
00003100
00002000
00000000
00000000
00003010
00001000
00000000
00000000
,
00001100
00000000
00000000
00000000
00001000
00000100
00001000
00000100
00001000
00000200
00000000
00000000
00000301
00000200
00000000
00000000
,
00001300
00000000
00000100
00000000
00000200
00000000
00000000
00000300
00000200
00000300
00000200
00000300
00000200
00000300
00000000
00000000
,
00010100
00000000
00000000
00000000
00010000
00002000
00000000
00000000
00003100
00002000
00000000
00003000
00020000
00030000
00002000
00003000
,
00020000
00030000
00002000
00003000
00020000
00000000
00000000
00000000
01030000
00020000
00000000
00000000
00031000
00010000
00000000
00000000
,
01010000
00000000
00000000
00000000
01000000
20000000
00000000
00000000
30100000
20000000
00000000
30000000
02000000
03000000
00200000
00300000
,
00002000
00003000
00020000
00030000
00200000
00000000
00000000
00000000
10300000
00200000
00000000
00000000
00310000
00100000
00000000
00000000
,
10100000
00000000
11000000
00000000
00110000
00000000
01100000
01100000
,
11000000
11000000
10010000
00000000
10100000
00000000
01100000
01100000
,
01010000
00000000
00000000
00000000
01001000
00000000
00000000
00000000
00011000
00000000
00000000
00000000
00001000
00010000
00001000
00000000
,
00011000
00000000
00011000
00000000
00010010
00000000
00000000
00000000
00000010
00001000
00000010
00000000
00001010
00000000
00001010
00000000
,
00001001
00000000
00000000
00000000
00000011
00000000
00000000
00000000
00000010
00000001
00000010
00000000
00000011
00000000
00000000
00000000
,
00001001
00000000
00000000
00000000
00001100
00000000
00000000
00000000
00000100
00001000
00000100
00000000
00001100
00000000
00000000
00000000
,
00010100
00000000
00000000
00000000
00011000
00000000
00000000
00000000
01001000
00000000
01001000
00000000
01000000
00010000
01000000
00000000
,
01010000
00000000
01010000
00000000
01100000
00000000
00000000
00000000
00100000
01000000
00100000
00000000
01100000
00000000
00000000
00000000
,
01000000
00100000
01000000
00100000
01000000
00000000
00000000
00000000
10010000
00000000
00000000
00000000
00000000
00000000
00000000
00000000
,
00000000
00000000
00000000
00000000
;
