
//----- song ID: ryum2 -----//
#TITLE:量子の海のリントヴルム (STARDOM Remix);
#ARTIST:かめりあ;
#TITLETRANSLIT:Ryoushi no umi no Lindwurm (STARDOM Remix);
#ARTISTTRANSLIT:Camellia;
#BANNER:Ryoushi no umi no Lindwurm (STARDOM Remix).png;
#BACKGROUND:Ryoushi no umi no Lindwurm (STARDOM Remix)-bg.png;
#CDTITLE:./CDTitles/DANCERUSH STARDOM.png;
#MUSIC:Ryoushi no umi no Lindwurm (STARDOM Remix).ogg;
#SAMPLESTART:72.335;
#SAMPLELENGTH:15;
#BPMS:0=132;
#BGSTAGE:3;
#NOTES:
     dance-single:
     :
     Beginner:
     3:
     :
0000
0000
0000
0000
,
0000
0000
0000
0000
,
0000
0000
0000
0000
,
0000
0000
0000
0000
,
0000
0000
0000
0000
,
0001
0000
0000
0000
,
0010
0000
0000
0000
,
1000
0000
0000
0000
,
0100
0000
0000
0000
,
0001
0000
0001
0000
,
0010
0000
0000
0000
,
0010
0000
0010
0000
,
1000
0000
0000
0000
,
2000
0000
0000
0000
,
3000
0000
0000
0000
,
1000
0000
0100
0000
,
1000
1000
0010
0000
,
0001
0000
0100
0000
,
0001
0001
0010
0000
,
0001
0000
1000
0000
,
1001
0000
0000
0000
,
1000
0000
0001
0000
,
1001
0000
0000
0000
,
0010
0000
0000
0000
,
0100
0000
0000
0000
,
0010
0010
0010
0000
,
0010
0000
0000
0000
,
0001
0000
0000
0000
,
1000
0000
0000
0000
,
0001
0001
0001
0000
,
1000
0000
0000
0000
,
1001
0000
0000
0000
,
0000
0000
0000
0000
0000
0000
0000
1001
,
0000
0000
0000
0000
,
2000
0000
0000
0000
,
3000
0000
0000
0000
,
0020
0000
0000
0000
,
0030
0000
0000
0000
,
0002
0000
0000
0000
,
0003
0000
0000
0000
,
0001
0000
0010
0000
,
0001
0001
0010
0000
,
0100
0000
0010
0000
,
0100
0000
0000
0000
,
1000
0000
0010
0000
,
1000
1000
0010
0000
,
0100
0000
0010
0000
,
0100
0000
0000
0000
,
1001
0000
0000
0000
,
0001
0000
0010
0000
,
1001
0000
0000
0000
,
1000
0000
0010
0000
,
0001
0000
0100
0000
,
0001
0001
0010
0000
,
1000
0000
0100
0000
,
1000
1000
0010
0000
,
0001
0000
0001
0000
,
1000
1000
1000
0000
,
1000
0000
1000
0000
,
0001
0001
0001
0000
,
0020
0000
0000
0000
0000
0000
0000
0030
,
0000
0000
0000
0000
;
#NOTES:
     dance-single:
     :
     Easy:
     7:
     :
0000
0000
0000
0000
,
0000
0000
0000
0000
,
0000
0000
0000
0000
,
0000
0000
0000
0000
,
0000
0000
0000
0000
,
0001
0010
0100
1000
,
0001
0000
0010
0000
0100
1000
0100
0000
,
1000
0010
0100
0001
,
1000
0000
0010
0000
0100
0001
0100
0000
,
0002
0003
2000
3000
,
0200
0300
0020
0030
,
0001
0001
1000
1000
,
0010
0010
0100
0100
,
0110
0000
0000
0000
,
1001
0000
0000
0000
,
1000
0100
0010
0100
,
1000
0001
1000
0000
,
0001
0100
0010
0100
,
0001
1000
0001
0000
,
1000
0100
0001
0000
,
0001
0100
1000
0000
,
0001
0100
1000
0000
,
1000
0100
0001
0000
,
0020
0000
0000
0030
,
0200
0000
0000
0300
,
0010
0100
0010
0100
,
0010
0000
1001
0000
,
0001
0010
1000
0000
,
1000
0010
0001
0000
,
1000
0010
0001
0000
,
0001
0010
1000
0000
,
1001
0000
0000
1000
0000
0000
0100
0000
,
0000
0010
0000
0000
0001
0000
0000
1000
,
0000
0000
0000
0000
,
2000
0000
0000
3000
,
0100
0100
0010
0000
,
0002
0000
0000
0003
,
0100
0100
0010
0000
,
0220
0000
0000
0330
,
2002
0000
0000
3003
,
1000
0010
0100
0001
,
1000
0100
0010
0001
,
1000
1000
0001
0001
,
1000
0001
1000
0000
,
0001
0100
0010
1000
,
0001
0010
0100
1000
,
0010
0010
0100
0100
,
0010
0100
0010
0000
,
0220
0000
0000
0330
,
2002
0000
0000
3003
,
0220
0000
0000
0330
,
2002
0000
0000
3003
,
1000
1000
0100
0100
,
0010
0001
0010
0000
,
0001
0001
0100
0100
,
0010
1000
0010
0000
,
1000
0010
0001
0000
,
0001
0010
1000
0000
,
0001
0010
1000
0000
,
1000
0010
0001
0000
,
2000
0000
0000
0000
0000
0000
0000
3000
,
0000
0000
0000
0000
;
#NOTES:
     dance-single:
     :
     Medium:
     11:
     :
0000
0000
0000
0000
,
0000
0000
0000
0000
,
0000
0000
0000
0000
,
0000
0000
0000
0000
,
0000
0000
0000
0000
,
1000
0000
0000
0010
0000
0000
0100
0000
0000
0001
0000
0000
1000
0000
0000
0010
0000
0000
0100
0000
0010
0100
0000
0000
,
0001
0000
0000
0010
0000
0000
0100
0000
0000
1000
0000
0000
0001
0000
0000
0010
0000
0000
0100
0000
0010
0100
0000
0000
,
1000
1010
0001
0011
,
1000
1100
0001
0101
,
2000
0000
3200
0000
,
0320
0000
0032
0000
,
1003
0010
0100
0010
1000
0100
0010
0100
,
1000
0001
0010
0100
0001
0100
0010
0001
,
2000
0000
0000
3000
,
0002
0000
0000
0003
,
1000
0100
0001
0100
1000
0100
0001
0100
,
1000
0000
0000
0100
0000
0000
0001
0000
0000
0100
0000
0000
1000
0000
0000
0001
0000
0000
1000
0000
0001
1000
0000
0000
,
0001
0100
1000
0100
0001
0100
1000
0100
,
0001
0000
0000
0100
0000
0000
1000
0000
0000
0100
0000
0000
0001
0000
1000
0001
0000
0000
1000
0000
0000
0000
0000
0000
,
0001
0000
0000
0000
0000
0011
0000
0000
0000
0010
0000
0000
0000
0000
0110
0000
0000
0000
0100
0000
0000
1000
0000
0000
,
1000
0000
0000
0000
0000
1010
0000
0000
0000
0010
0000
0000
0100
0000
0000
0000
0000
0101
0000
0000
0000
0000
0000
0000
,
1000
0000
0000
0000
0000
1010
0000
0000
0000
0010
0000
0000
0000
0000
0110
0000
0000
0000
0100
0000
0000
0001
0000
0000
,
0001
0000
0000
0000
0000
0011
0000
0000
0000
0010
0000
0000
0100
0000
0000
0000
0000
1100
0000
0000
0000
1000
0000
0000
,
0002
0003
0200
0300
,
0020
0030
2000
3000
,
1000
0010
0001
0010
1000
0010
0001
0010
,
1000
0000
0000
0001
0000
0000
0000
0000
1000
0000
0000
1000
0000
0000
0000
0000
0000
0001
0000
0000
0000
0001
0000
0000
,
2000
3000
0200
0300
,
0020
0030
0002
0003
,
0001
0010
1000
0010
0001
0010
1000
0010
,
0001
0000
0000
1000
0000
0000
0000
0000
0001
0000
0000
0001
0000
0000
0000
0000
0000
1000
0000
0000
0000
1000
0000
0000
,
0001
0000
0000
0000
0000
0000
0000
0000
0000
1000
0000
0000
0000
0000
1000
0000
0000
0000
0100
0000
0000
0000
0000
0100
,
0000
0000
0000
0010
0000
0000
0000
0000
0010
0000
0000
0000
0001
0000
0000
0000
0000
0001
0000
0000
0000
1000
0000
0000
,
0000
0000
0000
0000
,
0000
1000
0100
1000
0001
0010
0001
0000
,
2000
0001
0010
3001
,
0000
0001
0100
0001
1000
0010
1000
0000
,
0002
1000
0010
1003
,
1000
0002
0000
0000
0000
0000
0000
0000
,
0003
0000
0010
0000
0000
0000
0100
0000
0000
0000
0000
0010
0000
0000
0000
0100
0000
0000
0000
0000
0010
0000
0000
0000
,
0001
0100
1000
0100
0010
1000
0001
0000
,
1000
0100
0001
0100
0010
0001
1000
0000
,
0001
0100
1000
0000
1000
0100
0001
0000
,
1000
0100
0001
0100
1000
0000
1001
0000
,
1000
0010
0001
0010
0100
0001
1000
0000
,
0001
0010
1000
0010
0100
1000
0001
0000
,
1000
0010
0001
0000
0001
0010
1000
0000
,
0001
0010
1000
0010
0001
0000
1001
0000
,
1000
0000
0000
0000
0000
0100
0000
0000
0000
0110
0000
0000
0000
0000
0000
0000
0000
0000
0000
0000
0000
0000
0000
0000
,
0001
0000
0000
0000
0000
0100
0000
0000
0000
0010
0000
0000
0000
0000
0110
0000
0000
0000
0000
0000
0000
0000
0000
0000
,
1000
0000
0000
0000
0000
0010
0000
0000
0000
0110
0000
0000
0000
0000
0000
0000
0000
0000
0000
0000
0000
0000
0000
0000
,
0001
0000
0000
0000
0000
0010
0000
0000
0000
0100
0000
0000
0000
0000
0110
0000
0000
0000
0000
0000
0000
0000
0000
0000
,
1000
0100
1000
0100
0010
0001
0010
0001
,
0010
1000
0010
1000
0010
0001
0010
0000
,
0001
0100
0001
0100
0010
1000
0010
1000
,
0010
0001
0010
0001
0010
1000
0010
0000
,
1000
0100
0010
0100
0001
0100
0010
0100
,
1000
0001
0010
0100
1000
0001
1000
0000
,
0001
0100
0010
0100
1000
0100
0010
0100
,
0001
1000
0010
0100
0001
1000
0001
0000
,
1000
0000
0100
0000
0010
0000
0000
1001
,
0000
0000
0000
0000
;
#NOTES:
     dance-single:
     :
     Hard:
     15:
     :
0000
0000
0000
0000
,
0000
0000
0000
0000
,
0000
0000
0000
0000
,
0000
0000
0000
0000
,
0000
0000
0000
0000
,
0001
0000
0100
0001
0000
0100
0010
0000
1000
0010
0000
0000
1000
0000
0100
0010
0000
0100
1000
0000
0100
0010
0000
0000
,
0001
0000
1000
0001
0000
1000
0010
0000
0100
0010
0000
0000
0100
0000
0001
0010
0000
0001
1000
0000
0001
0100
0000
0000
,
0001
0000
0100
0010
0000
0000
1000
0000
0100
0010
0000
0000
0001
0000
0010
0100
0000
0000
1000
0000
0010
0100
0000
0000
,
0001
0000
1000
0100
0000
0000
1000
0000
0001
0100
0000
0000
0001
0000
1000
0010
0000
0000
1000
0000
0001
0010
0000
0000
,
0002
0010
2003
0100
,
3002
0010
2003
0100
,
3002
0100
2003
0010
,
3002
0000
0100
0000
1003
0010
1000
0010
,
1000
0000
0001
0000
0000
1000
0000
0000
1001
0000
0000
0000
0000
0000
0001
0010
0000
0100
1000
0000
0001
0000
0000
0000
,
0010
0000
0100
0000
0000
0010
0000
0000
0110
0000
0000
0000
0000
0000
1000
0100
0000
0010
0001
0000
1000
0000
0000
0000
,
1001
0000
0000
0001
0000
0100
0010
0000
0000
1000
0000
0100
0001
0000
0000
0100
0000
1000
0001
0000
0000
0100
0000
0010
,
1000
0000
0000
0001
0000
0100
1000
0000
0000
0100
0000
0001
1000
0000
0000
0100
0000
0010
0001
0000
0000
0110
0000
0000
,
1001
0000
0000
0001
0000
0010
0100
0000
0000
1000
0000
0010
0001
0000
0000
0010
0000
1000
0001
0000
0000
0010
0000
0100
,
1000
0000
0000
0001
0000
0010
1000
0000
0000
0010
0000
0000
0001
0000
1000
0100
0000
0010
0001
0000
1000
0100
0000
0010
,
0001
0000
0100
0001
0000
1000
0100
0000
1000
0001
0000
0010
0001
0000
1000
0010
0000
1000
0001
0000
0010
0100
0000
1000
,
0001
0000
0100
0001
0000
1000
0100
0000
1000
0001
0000
0010
0001
0000
0100
0010
0000
1000
0000
0000
0000
1001
0000
0000
,
1000
0000
0100
1000
0000
0001
0100
0000
0001
1000
0000
0010
1000
0000
0001
0010
0000
0001
1000
0000
0010
0100
0000
0001
,
1000
0000
0100
1000
0000
0001
0100
0000
0001
1000
0000
0010
1000
0000
0100
0010
0000
0001
0000
0000
0000
1001
0000
0000
,
0002
0000
0023
0000
,
0230
0000
2300
0000
,
3000
0000
0001
1000
0000
0000
1000
0000
0100
0000
0000
0100
0010
0000
0000
0010
0000
0001
0000
0000
0001
1000
0000
0001
,
0000
0000
0000
0011
0000
0000
0000
0000
0110
0000
0000
0110
0000
0000
0000
0000
0000
1001
0000
0000
0000
0000
0000
0000
,
0001
0000
0001
0100
0000
0100
0010
0000
0010
1000
0000
1000
0001
0000
0010
0100
0000
1000
0000
0000
0000
1001
0000
0000
,
1000
0000
1000
0010
0000
0010
0100
0000
0100
0001
0000
0001
1000
0000
0100
0001
0000
0100
1000
0000
0100
0010
0000
0001
,
0000
0000
1000
0001
0000
0000
0001
0000
0010
0000
0000
0010
0100
0000
0000
0100
0000
1000
0000
0000
1000
0001
0000
1000
,
0000
0000
0000
1100
0000
0000
0000
0000
0110
0000
0000
0110
0000
0000
0000
0000
0000
1001
0000
0000
0000
0000
0000
0000
,
1001
0000
0000
0000
0000
0000
0000
0000
0000
0001
0000
0100
1000
0000
0001
0010
0000
1000
0001
0000
0010
1000
0000
0001
,
0100
0000
1000
0001
0000
0100
1000
0000
0001
0010
0000
1000
0001
0000
0010
1000
0000
0001
0100
0000
1000
0001
0000
0000
,
0000
0000
0000
0000
,
1000
0000
0100
0010
0000
0001
0010
0000
0100
1000
0000
0001
0100
0000
0001
1000
0000
0100
1000
0000
0010
1000
0000
0100
,
0020
1000
0001
1000
,
0031
0000
0100
0010
0000
1000
0010
0000
0100
0001
0000
1000
0100
0000
1000
0001
0000
0100
0001
0000
0010
0001
0000
0100
,
0020
0001
1000
0001
,
2030
0002
0000
0000
0000
0000
0000
0000
,
3003
0000
0011
0000
0000
0000
0101
0000
0000
0000
0000
1100
0000
0000
0000
1010
0000
0000
0000
0000
1001
0000
0000
0000
,
0001
0000
0100
0010
0000
0100
0010
0000
1000
0010
0000
1000
0001
0000
0001
0010
0000
0010
0100
0000
0100
1000
0000
0000
,
1100
0000
0000
0110
0000
0000
0011
0000
0000
1001
0000
0000
1000
0000
0001
0010
0000
0100
1000
0000
0001
0010
0000
0000
,
0100
0000
0000
0010
0000
0001
0000
0000
0011
0000
0000
0000
0001
0000
0000
0100
0000
0010
0000
0000
1010
0000
0000
0000
,
1000
0000
0100
0010
0000
0100
0001
0000
0100
0010
0000
0100
1000
0000
1000
0001
0000
0001
0100
0000
0100
0010
0000
0000
,
1000
0000
0100
0010
0000
0100
0010
0000
0001
0010
0000
0001
1000
0000
1000
0010
0000
0010
0100
0000
0100
0001
0000
0000
,
0101
0000
0000
0110
0000
0000
1010
0000
0000
1001
0000
0000
0001
0000
1000
0010
0000
0100
0001
0000
1000
0010
0000
0000
,
0100
0000
0000
0010
0000
1000
0000
0000
1010
0000
0000
0000
1000
0000
0000
0100
0000
0010
0000
0000
0011
0000
0000
0000
,
0001
0000
0100
0010
0000
0100
1000
0000
0100
0010
0000
0100
0001
0000
0001
1000
0000
1000
0100
0000
0100
0010
0000
0000
,
0011
0000
0000
0000
0000
0101
0000
0000
0000
2002
0000
0000
0000
0000
0000
0000
0000
0000
0000
0000
0000
3003
0000
0000
,
0010
0000
0000
0000
0000
1100
0000
0000
0000
0010
0000
0000
0000
0000
0101
0000
0000
0000
0000
0000
0000
0000
0000
0000
,
1010
0000
0000
0000
0000
1100
0000
0000
0000
2002
0000
0000
0000
0000
0000
0000
0000
0000
0000
0000
0000
3003
0000
0000
,
0100
0000
0000
0000
0000
0011
0000
0000
0000
0100
0000
0000
0000
0000
1010
0000
0000
0000
0000
0000
0000
0000
0000
0000
,
0001
0000
0100
1000
0000
0100
1000
0000
0100
0001
0000
0000
1000
0000
0100
0001
0000
0100
0001
0000
0100
1000
0000
0000
,
0001
0000
0100
1000
0000
0100
1000
0000
0100
0001
0000
0000
1000
0000
0000
0010
0000
0100
0010
0000
0100
0010
0000
0000
,
1000
0000
0010
0001
0000
0010
0001
0000
0010
1000
0000
0000
0001
0000
0010
1000
0000
0010
1000
0000
0010
0001
0000
0000
,
1000
0000
0010
0001
0000
0010
0001
0000
0010
1000
0000
0000
0001
0000
0000
0100
0000
0010
0100
0000
0010
0100
0000
0000
,
0001
0000
0010
1000
0000
0010
0100
0000
0010
0001
0000
0000
1000
0000
0010
0001
0000
0010
0100
0000
0010
1000
0000
0000
,
0001
0000
0010
1000
0000
0010
0100
0000
0010
0001
0000
0000
1000
0000
0000
0100
0000
0010
0001
0000
1000
0100
0000
0000
,
1000
0000
0010
0001
0000
0010
0100
0000
0010
1000
0000
0000
0001
0000
0010
1000
0000
0010
0100
0000
0010
0001
0000
0000
,
1000
0000
0010
0001
0000
0010
0100
0000
0010
1000
0000
0000
0001
0000
0000
0100
0000
0010
1000
0000
0001
0100
0000
0010
,
1000
0000
1100
0000
0110
0000
0000
1001
,
0000
0000
0000
0000
;
#NOTES:
     dance-single:
     :
     Challenge:
     17:
     :
0000
0000
0000
0000
,
0000
0000
0000
0000
,
0000
0000
0000
0000
,
0000
0000
0000
0000
,
0000
0000
0000
0000
,
0000
0000
0001
0100
0000
0100
0010
0000
0010
1000
0000
1000
0001
0000
0001
0010
0000
0010
1000
0000
1000
0010
0000
0001
,
0000
0000
0001
1000
0000
1000
0100
0000
0100
1000
0000
1000
0010
0000
0010
0001
0000
0001
0010
0000
0010
1000
0000
0001
,
0010
0000
0100
1000
0000
0010
0100
0000
0001
0010
0000
0100
1000
0000
0100
0001
0000
0100
1000
0000
0010
0001
0000
0010
,
1000
0000
0100
0010
0000
0001
0100
0000
0010
1000
0000
0100
1000
0000
0010
0001
0000
0010
1000
0000
0001
0010
0000
0000
,
0001
0010
0100
1000
0100
0010
0001
0010
0100
1000
0000
0000
0001
0100
0010
1000
0010
0100
0001
0100
0010
1000
0000
0000
,
0001
0010
0100
1000
0001
0010
0100
1000
0001
0010
0000
0000
0100
0010
0001
1000
0100
0010
0001
1000
0100
0010
0000
0000
,
0001
0000
0001
0100
0000
0100
0010
1000
0010
1000
0100
1000
0100
0000
0100
0010
0000
0010
0001
0010
0001
1000
0010
1000
,
0010
0000
0010
0100
0000
0100
0001
1000
0001
0010
0100
0010
0100
0000
0100
1000
0000
1000
0001
0010
0100
1000
0001
0010
,
0100
0000
0100
0000
0000
0100
0000
0000
1000
0000
0000
0000
0000
0000
1000
0010
0000
1000
0010
0000
1000
0000
0000
0000
,
0001
0000
0001
0000
0000
0001
0000
0000
0010
0000
0000
0000
0000
0000
0001
0100
0000
0001
0100
0000
0001
0000
0000
0000
,
1001
0000
0000
0001
0000
0010
0200
0000
0000
1300
0000
0010
0200
0000
0000
0301
0000
0010
0200
0000
0000
1300
0000
0010
,
0200
0000
0000
0310
0000
1000
0200
0000
0000
0310
0000
0001
0200
0000
0000
0310
0000
1000
0200
0000
0000
0310
0000
0000
,
1001
0000
0000
1000
0000
0100
0020
0000
0000
0031
0000
0100
0020
0000
0000
1030
0000
0100
0020
0000
0000
0031
0000
0100
,
0020
0000
0000
0130
0000
0001
0020
0000
0000
0130
0000
1000
0010
0000
0010
0100
0000
0100
0001
0000
0001
1000
0000
1000
,
0001
0000
0100
1000
0000
0001
0010
0000
1000
0001
0000
0010
1000
0000
0001
0100
0000
1000
0010
0000
1000
0100
0000
1000
,
0001
0000
0100
1000
0000
0001
0010
0000
1000
0001
0000
0010
1000
0000
0010
0001
0000
0011
0000
0000
0100
0110
0000
0000
,
1000
0000
0100
0001
0000
1000
0010
0000
0001
1000
0000
0010
0001
0000
1000
0100
0000
0001
0010
0000
0001
0100
0000
0001
,
1000
0000
0100
0001
0000
1000
0010
0000
0001
1000
0000
0010
0001
0000
0010
1000
0000
1010
0000
0000
0100
0110
0000
0000
,
0001
0000
0001
0010
0000
0010
1000
0000
1000
0100
0000
0100
0001
0000
1000
0001
0000
2000
0000
0000
0000
3000
0000
0000
,
1000
0000
1000
0010
0000
0010
0001
0000
0001
0100
0000
0100
1000
0000
0100
0010
0000
0001
1000
0000
0100
0010
0000
0001
,
0000
0000
1000
1000
0000
0000
0001
0000
0001
0000
0000
0010
0010
0000
0000
0100
0000
0100
0000
0000
1000
0000
0000
1000
,
0000
0000
0000
1010
0000
0000
0000
0000
0110
0000
0000
0110
0000
0000
0000
0000
0000
1001
0000
0000
0000
1001
0000
0000
,
1000
0000
1000
0100
0000
0100
0001
0000
0001
0010
0000
0010
1000
0000
0001
1000
0000
0002
0000
0000
0000
0003
0000
0000
,
0001
0000
0001
0100
0000
0100
1000
0000
1000
0010
0000
0010
0001
0000
0010
0100
0000
1000
0001
0000
0010
0100
0000
1000
,
0000
0000
0001
0001
0000
0000
1000
0000
1000
0000
0000
0100
0100
0000
0000
0010
0000
0010
0000
0000
0001
0000
0000
0001
,
0000
0000
0000
0101
0000
0000
0000
0000
0110
0000
0000
0110
0000
0000
0000
0000
0000
1001
0000
0000
0000
1001
0000
0000
,
0110
0000
0000
0000
0000
0000
0000
0000
0000
0001
0000
1000
0100
0000
0010
0001
0000
1000
1000
0000
0001
0100
0000
0010
,
1000
0000
0001
0001
0000
1000
0100
0000
0001
0100
0000
1000
1000
0000
0001
0100
0000
1000
0100
0000
0001
0001
0000
0000
,
0000
0000
0000
0000
,
0000
0000
0001
0010
0000
0100
1000
0000
0010
0100
0000
0001
0010
0000
0010
1000
0000
1000
0010
0000
0010
0001
0000
0001
,
2000
0000
0000
3010
0000
0100
2000
0000
0000
3100
0000
0010
2000
0000
0000
3100
0000
0010
2000
0000
0000
3010
0000
0100
,
0000
0000
1000
0010
0000
0100
0001
0000
0010
0100
0000
1000
0010
0000
0010
0001
0000
0001
0010
0000
0010
1000
0000
1000
,
0002
0000
0000
0013
0000
0100
0002
0000
0000
0103
0000
0010
0002
0000
0000
0103
0000
0010
0002
0000
0000
0013
0000
0100
,
0002
2000
0000
0000
0000
0000
0000
0000
,
3003
0000
2100
0000
0000
0000
3001
0000
0000
0000
0000
0012
0000
0000
0000
1003
0000
0000
0000
0000
0110
0000
0000
0000
,
0001
0000
0100
1000
0000
0100
0001
0000
0010
0100
0000
1000
0010
0000
0010
0001
0000
0001
1000
0000
1000
0100
0000
0100
,
0001
0000
0010
0100
0000
0010
1000
0000
0010
0100
0000
0010
0001
0000
0010
0100
0000
0100
1000
0000
1000
0001
0000
0000
,
1000
0000
0001
0100
0000
0101
0000
0000
1001
0000
0000
1000
0001
0000
1000
0100
0000
1100
0000
0000
1001
1001
0000
0000
,
0001
0000
0010
1000
0000
0010
0001
0000
1000
0010
0000
0001
0010
0000
1000
0100
0000
1000
0010
0000
1000
0001
0000
0000
,
1000
0000
0100
0001
0000
0100
1000
0000
0010
0100
0000
0001
0010
0000
0010
1000
0000
1000
0001
0000
0001
0100
0000
0100
,
1000
0000
0010
0100
0000
0010
0001
0000
0010
0100
0000
0010
1000
0000
0010
0100
0000
0100
0001
0000
0001
1000
0000
0000
,
0001
0000
1000
0100
0000
1100
0000
0000
1001
0000
0000
0001
1000
0000
0001
0100
0000
0101
0000
0000
1001
1001
0000
0000
,
1000
0000
0010
0001
0000
0010
1000
0000
0001
0010
0000
1000
0010
0000
0001
0100
0000
0001
0010
0000
0001
1000
0000
0000
,
1100
0000
1000
0100
0000
0100
0010
0000
0010
1000
0000
1000
0010
0000
0010
0100
0000
0100
2000
0000
0000
3000
0000
0000
,
0101
0000
0001
0010
0000
0100
1000
0000
0010
1000
0000
0100
0000
0000
1001
0000
0000
0000
0000
0000
0000
0000
0000
0000
,
0101
0000
0001
0100
0000
0100
0010
0000
0010
0001
0000
0001
0010
0000
0010
0100
0000
0100
0002
0000
0000
0003
0000
0000
,
1100
0000
1000
0010
0000
0100
0001
0000
0010
0001
0000
0100
0000
0000
1001
0000
0000
0000
0001
0000
1000
0001
0000
0000
,
1001
0000
0001
0010
0000
0100
0010
0000
0000
1001
0000
1000
0010
0000
0100
0010
0000
0000
1001
0000
0001
0100
0000
0010
,
0100
0000
0000
1001
0000
1000
0100
0000
0010
0100
0000
0000
1000
0000
0000
1010
0000
1010
0000
0000
0011
0011
0000
0000
,
1001
0000
0001
0100
0000
0010
0100
0000
0000
1001
0000
1000
0100
0000
0010
0100
0000
0000
1001
0000
0001
0010
0000
0100
,
0010
0000
0000
1001
0000
1000
0010
0000
0100
0010
0000
0000
1000
0000
0000
1100
0000
1100
0000
0000
0101
0101
0000
0000
,
1000
0000
0100
1000
0000
0010
1000
0000
1000
0001
0000
0010
0001
0000
0100
0001
0000
0001
0100
0000
0010
0100
0000
0010
,
0100
0000
0100
0010
0000
1000
0100
0000
1000
0100
0000
0100
1000
0000
0000
0001
0000
0010
0000
0000
1000
0010
0000
0000
,
0001
0000
0010
0001
0000
0100
0101
0000
0001
1000
0000
0100
1000
0000
0010
1010
0000
1000
0010
0000
0100
0010
0000
0100
,
0110
0000
0010
0100
0000
0001
0010
0000
0001
0011
0000
0010
0001
0000
1000
0100
0000
0001
0100
1000
0001
0010
0100
1000
,
0200
0000
2300
0000
0002
0000
3003
1001
,
0000
0000
0000
0000
;
#NOTES:
     dance-double:
     :
     Easy:
     7:
     :
00000000
00000000
00000000
00000000
,
00000000
00000000
00000000
00000000
,
00000000
00000000
00000000
00000000
,
00000000
00000000
00000000
00000000
,
00000000
00000000
00000000
00000000
,
00001000
00010000
00001000
00010000
,
00000010
00001000
00000010
00000100
,
00000001
00000010
00000100
00001000
,
00000100
00000000
00010000
00000000
00001000
00010000
00001000
00000000
,
00020000
00030000
00002000
00003000
,
02000000
03000000
00020000
00030000
,
00100000
00010000
10000000
10000000
,
00100000
01000000
00010000
00010000
,
10010000
00000000
00000000
00000000
,
01100000
00000000
00000000
00000000
,
10000000
00100000
01000000
00010000
,
00100000
00100000
00001000
00001000
,
00010000
00000100
00001000
00000100
,
00000010
00000010
00000001
00000000
,
00000110
00000000
00001001
00000000
,
00000001
00000010
00001000
00000000
,
00011000
00000000
00011000
00000000
,
00010000
00100000
10000000
00000000
,
00020000
00000000
00000000
00030000
,
20000000
00000000
00000000
30000000
,
10000000
01000000
10000000
01000000
,
00100000
00001000
00010000
00000000
,
00020000
00000000
00000000
00030000
,
00002000
00000000
00000000
00003000
,
00010000
00000100
00001000
00000010
,
00001000
00000100
00000010
00000000
,
00001001
00000000
00000000
00000001
00000000
00000000
00001000
00000000
,
00000000
00000010
00000000
00000000
00010000
00000000
00000000
00001000
,
00000000
00000000
00000000
00000000
,
00001000
00010000
00001000
00100000
,
00020000
00000000
00000000
00030000
,
00010000
01000000
00001000
00010000
,
00002000
00000000
00000000
00003000
,
00011000
00000000
00000000
00000000
,
00000000
00000000
00000000
00000000
,
00010000
00000100
00001000
00000100
,
00000010
00000010
00000001
00000000
,
00001001
00000000
00000110
00000000
,
00000001
00000100
00001000
00000000
,
00001000
00010000
00100000
10000000
,
00010000
01000000
00010000
00000000
,
10010000
00000000
01100000
00000000
,
10000000
01000000
00010000
00000000
,
00022000
00000000
00000000
00033000
,
00010000
00001000
00000010
00000000
,
00000220
00000000
00000000
00000330
,
00000001
00001000
00000001
00000000
,
00000001
00000010
00000100
00010000
,
00001000
00100000
00010000
00000000
,
10000000
01000000
00100000
00001000
,
00010000
00000100
00000010
00000000
,
00000001
00000100
00001000
00000000
,
00010000
00100000
10000000
00000000
,
10000000
01000000
00010000
00000000
,
00001000
00000010
00000001
00000000
,
00002000
00000000
00000000
00000000
00000000
00000000
00000000
00003000
,
00000000
00000000
00000000
00000000
;
#NOTES:
     dance-double:
     :
     Medium:
     12:
     :
00000000
00000000
00000000
00000000
,
00000000
00000000
00000000
00000000
,
00000000
00000000
00000000
00000000
,
00000000
00000000
00000000
00000000
,
00000000
00000000
00000000
00000000
,
00001000
00000000
00000000
00010000
00000000
00000000
00000100
00000000
00000000
00001000
00000000
00000000
00000010
00000000
00000000
00000100
00000000
00000000
00000001
00000000
00001000
00000001
00000000
00000000
,
00000010
00000000
00000000
00000100
00000000
00000000
00001000
00000000
00000000
00000010
00000000
00000000
00000100
00000000
00000000
00001000
00000000
00000000
00010000
00000000
00001000
00010000
00000000
00000000
,
00001000
01001000
01000000
01010000
,
00010000
00110000
00100000
01100000
,
20000000
00000000
30200000
00000000
,
00320000
00000000
00032000
00000000
,
00003100
00000001
00000010
00000001
00001000
00000100
00000010
00000001
,
00000100
00001000
00000100
00001000
00010000
00001000
00010000
00001000
,
00020000
00000000
00000000
00030000
,
00002000
00000000
00000000
00003000
,
00001000
00010000
00001000
00010000
00100000
00010000
00100000
01000000
,
00001000
00010000
00001000
00010000
01000000
00010000
01000000
00100000
,
00001000
00010000
00001000
00010000
00001000
00000010
00001000
00000010
,
00000100
00010000
00001000
00000100
00001000
00010000
00001000
00000000
,
00001000
00010000
01000000
00001000
00010000
01000000
00001000
00010000
,
01000000
00000000
00000000
00001000
00000000
00000000
00010000
00000000
00000000
01000000
00000000
00000000
00001000
00000000
00000000
00000000
00000000
00011000
00000000
00000000
00000000
00000000
00000000
00000000
,
00010000
00001000
00000100
00010000
00001000
00000100
00010000
00001000
,
00000100
00000000
00000000
00010000
00000000
00000000
00001000
00000000
00000000
00000100
00000000
00000000
00010000
00000000
00000000
00000000
00000000
00011000
00000000
00000000
00000000
00000000
00000000
00000000
,
00002000
00000000
00000000
00003000
,
00020000
00000000
00000000
00030000
,
00001000
00010000
00001000
01000000
00010000
00100000
01000000
10000000
,
00010000
00000000
00000000
01000000
00000000
00000000
00000000
00000000
00100000
00000000
00000000
00100000
00000000
00000000
00000000
00000000
00000000
10000000
00000000
00000000
00000000
00010000
00000000
00000000
,
20000000
00000000
00000000
30000000
,
00020000
00000000
00000000
00030000
,
10000000
01000000
00100000
00010000
01000000
00010000
00100000
00001000
,
00010000
00000000
00000000
00000100
00000000
00000000
00000000
00000000
00000010
00000000
00000000
00000010
00000000
00000000
00000000
00000000
00000000
00000001
00000000
00000000
00000000
00001000
00000000
00000000
,
00000001
00000000
00000000
00000000
00000000
00000000
00000000
00000000
00000000
00000001
00000000
00000000
00000000
00000000
00000011
00000000
00000000
00000000
00000010
00000000
00000000
00000000
00000000
00001010
,
00000000
00000000
00000000
00001000
00000000
00000000
00000000
00000000
00011000
00000000
00000000
00000000
00010000
00000000
00000000
00000000
00000000
01010000
00000000
00000000
00000000
01000000
00000000
00000000
,
00000000
00000000
00000000
00000000
,
00000000
10000000
01000000
00010000
01000000
00010000
00001000
00000010
,
00000002
00000000
00002003
00000000
,
00003000
00000001
00000100
00001000
00000100
00001000
00010000
00100000
,
20000000
00000000
30020000
00000000
,
00030000
20020000
00000000
00000000
00000000
00000000
00000000
00000000
,
30030000
00000000
10000000
00000000
00000000
00000000
01000000
00000000
00000000
00000000
00000000
00100000
00000000
00000000
00000000
00001000
00000000
00000000
00000000
00000000
00010000
00000000
00000000
00000000
,
00001000
00010000
00000100
00001000
00000010
00000100
00000010
00000000
,
00001000
00000001
00000010
00000100
00001000
00000100
00010000
00000000
,
00001000
00010000
01000000
00000000
01000000
00010000
00001000
00000000
,
00001000
00010000
00100000
10000000
00100000
01000000
00100000
00000000
,
10000000
00100000
10000000
01000000
00100000
00001000
00010000
00000000
,
00001000
00010000
00000010
00001000
00000010
00000100
00000001
00000000
,
00000010
00001000
00010000
00000000
00010000
00001000
00000010
00000000
,
00000001
00000100
00001000
00000100
00001000
00010000
00001000
00000000
,
00010000
00000000
00000000
00000000
00000000
00100000
00000000
00000000
00000000
01100000
00000000
00000000
00000000
00000000
00000000
00000000
00000000
00000000
00000000
00000000
00000000
00000000
00000000
00000000
,
10000000
00000000
00000000
00000000
00000000
01000000
00000000
00000000
00000000
00010000
00000000
00000000
00000000
00000000
00011000
00000000
00000000
00000000
00000000
00000000
00000000
00000000
00000000
00000000
,
00001000
00000000
00000000
00000000
00000000
00000010
00000000
00000000
00000000
00000110
00000000
00000000
00000000
00000000
00000000
00000000
00000000
00000000
00000000
00000000
00000000
00000000
00000000
00000000
,
00000001
00000000
00000000
00000000
00000000
00000100
00000000
00000000
00000000
00001000
00000000
00000000
00000000
00000000
00011000
00000000
00000000
00000000
00000000
00000000
00000000
00000000
00000000
00000000
,
00001000
00010000
00001000
00010000
00100000
10000000
00100000
10000000
,
01000000
00010000
01000000
00010000
00001000
00010000
00001000
00000000
,
00010000
00001000
00010000
00001000
00000010
00000001
00000010
00000001
,
00000100
00001000
00000100
00001000
00010000
00001000
00010000
00000000
,
00001000
00010000
00100000
00010000
00100000
10000000
00100000
10000000
,
01000000
10000000
01000000
00010000
01000000
00010000
00001000
00000000
,
00010000
00001000
00000100
00001000
00000100
00000001
00000100
00000001
,
00000010
00000001
00000010
00001000
00000010
00001000
00010000
00000000
,
00001000
00000000
00010000
00000000
00001000
00000000
00000000
00011000
,
00000000
00000000
00000000
00000000
;
#NOTES:
     dance-double:
     :
     Hard:
     15:
     :
00000000
00000000
00000000
00000000
,
00000000
00000000
00000000
00000000
,
00000000
00000000
00000000
00000000
,
00000000
00000000
00000000
00000000
,
00000000
00000000
00000000
00000000
,
00001000
00000000
00010000
00001000
00000000
00010000
00000100
00000000
00001000
00000100
00000000
00000000
00001000
00000000
00000010
00000100
00000000
00000010
00001000
00000000
00000010
00000100
00000000
00000000
,
00000001
00000000
00001000
00000001
00000000
00001000
00000100
00000000
00001000
00000100
00000000
00000000
00001000
00000000
00000100
00010000
00000000
00000100
00001000
00000000
00000100
00010000
00000000
00000000
,
00001000
00000000
00100000
00010000
00000000
00000000
00100000
00000000
00000000
01000000
00000000
00000000
10000000
00000000
00100000
01000000
00000000
00000000
00100000
00000000
00000000
10000000
00000000
00000000
,
00010000
00000000
00100000
00010000
00000000
00000000
00100000
00000000
00000000
00001000
00000000
00000000
00010000
00000000
00001000
00010000
00000000
00000000
00000100
00000000
00000000
00001000
00000000
00000000
,
00000020
00001000
00000230
00000301
,
00000002
00000010
00002003
00003010
,
00000010
00001000
00000100
00010000
00001000
00100000
00010000
01000000
,
00100000
10000000
01000000
00100000
00010000
00100000
00001000
00010000
,
00001000
00000000
00010000
00000000
00000000
00001000
00000000
00000000
00001000
00000000
00000000
00000000
00000000
00000000
00010000
00001000
00000000
00010000
00001000
00000000
00010000
00000000
00000000
00000000
,
00001000
00000000
00000010
00000000
00000000
00000100
00000000
00000000
00000010
00000000
00000000
00000000
00000000
00000000
00000001
00001000
00000000
00000001
00001000
00000000
00000001
00000000
00000000
00000000
,
00001001
00000000
00000000
00000001
00000000
00000010
00000100
00000000
00000000
00001000
00000000
00000010
00000100
00000000
00000000
00000001
00000000
00000010
00000100
00000000
00000000
00001000
00000000
00000010
,
00000100
00000000
00000000
00000001
00000000
00000010
00001000
00000000
00000000
00010000
00000000
01000000
10000000
00000000
00000000
00100000
00000000
01000000
00100000
00000000
00000000
01100000
00000000
00000000
,
10010000
00000000
00000000
10000000
00000000
00100000
01000000
00000000
00000000
00010000
00000000
00100000
01000000
00000000
00000000
10000000
00000000
00100000
01000000
00000000
00000000
00010000
00000000
00100000
,
01000000
00000000
00000000
10000000
00000000
00100000
00010000
00000000
00000000
00001000
00000000
00000100
00001000
00000000
00010000
00001000
00000000
00010000
00000100
00000000
00010000
00000010
00000000
00010000
,
00001000
00000000
00010000
00001000
00000000
00010000
00000100
00000000
00001000
00000100
00000000
00001000
00000001
00000000
00000010
00000001
00000000
00000010
00001000
00000000
00010000
00001000
00000000
00010000
,
00001000
00000000
01000000
00001000
00000000
01000000
00010000
00000000
00100000
00010000
00000000
10000000
00100000
00000000
01000000
00010000
00000000
00100000
00000000
00000000
00001000
00010000
00000000
00000000
,
00000010
00000000
00001000
00000010
00000000
00001000
00000001
00000000
00000100
00000001
00000000
00000100
00000010
00000000
00010000
00000010
00000000
00010000
00001000
00000000
00010000
01000000
00000000
10000000
,
00100000
00000000
01000000
00100000
00000000
01000000
00010000
00000000
00100000
00001000
00000000
00010000
00000100
00000000
00001000
00000100
00000000
00000010
00000000
00000000
00000001
00001000
00000000
00000000
,
00000002
00000000
00000023
00000000
,
00002030
00000000
00023000
00000000
,
00030000
00000000
00010000
01000000
00000000
00000000
01000000
00000000
00010000
00000000
00000000
00010000
00001000
00000000
00000000
00001000
00000000
00010000
00000000
00000000
00010000
00100000
00000000
00010000
,
00000000
00000000
00000000
00100000
00000000
00000000
00000000
00000000
01100000
00000000
00000000
01100000
00000000
00000000
00000000
00000000
00000000
10010000
00000000
00000000
00000000
00000000
00000000
00000000
,
20000000
00000000
30200000
00000000
,
00320000
00000000
00032000
00000000
,
00003000
00000000
00001000
00000100
00000000
00000000
00000100
00000000
00001000
00000000
00000000
00001000
00010000
00000000
00000000
00010000
00000000
00001000
00000000
00000000
00001000
00000010
00000000
00001000
,
00000000
00000000
00000000
00000010
00000000
00000000
00000000
00000000
00000110
00000000
00000000
00000110
00000000
00000000
00000000
00000000
00000000
00001001
00000000
00000000
00000000
00000000
00000000
00000000
,
00001001
00000000
00000000
00000000
00000000
00000000
00000000
00000000
00000000
00000001
00000000
00000100
00001000
00000000
00010000
00100000
00000000
10000000
00010000
00000000
10000000
01000000
00000000
00010000
,
00001000
00000000
00000010
00000100
00000000
00000010
00000001
00000000
00000100
00001000
00000000
00010000
00001000
00000000
00010000
00100000
00000000
10000000
01000000
00000000
00100000
01000000
00000000
00000000
,
00000000
00000000
00000000
00000000
,
10000000
00000000
00100000
01000000
00000000
00010000
00100000
00000000
00001000
00010000
00000000
00000100
00001000
00000000
00000010
00000100
00000000
00000001
00000010
00000000
00001000
00000010
00000000
00000001
,
00002000
00000100
00000001
00003010
,
00000001
00000000
00000010
00000100
00000000
00001000
00000010
00000000
00010000
00001000
00000000
01000000
00010000
00000000
00100000
01000000
00000000
10000000
00100000
00000000
00010000
00100000
00000000
10000000
,
00020000
01000000
10000000
00130000
,
00000000
00022000
00000000
00000000
00000000
00000000
00000000
00000000
,
00033000
00000000
00011000
00000000
00000000
00000000
00010010
00000000
00000000
00000000
00000000
00011000
00000000
00000000
00000000
00101000
00000000
00000000
00000000
00000000
00011000
00000000
00000000
00000000
,
00010000
00000000
00000100
00001000
00000000
00000100
00001000
00000000
00000010
00000100
00000000
00000010
00000100
00000000
00000100
00000001
00000000
00000001
00001000
00000000
00001000
00000010
00000000
00000010
,
00010000
00000000
00000000
00011000
00000000
00000000
00001000
00000000
00000000
00101000
00000000
00000000
00100000
00000000
00010000
01000000
00000000
00100000
10000000
00000000
01000000
00100000
00000000
00000000
,
00010000
00000000
00000000
00100000
00000000
00001000
00000000
00000000
00010000
00001000
00000000
00000000
00000100
00000000
00000000
00000010
00000000
00000100
00000000
00000000
00000001
00000100
00000000
00000000
,
00000001
00000000
00000010
00000100
00000000
00000000
00001000
00000000
00000010
00000100
00000000
00000000
00000001
00000000
00000001
00000100
00000000
00000100
00001000
00000000
00001000
00010000
00000000
00000000
,
00001000
00000000
01000000
00010000
00000000
01000000
00010000
00000000
00100000
01000000
00000000
00100000
01000000
00000000
01000000
10000000
00000000
10000000
00010000
00000000
00010000
00100000
00000000
00100000
,
00001000
00000000
00000000
00011000
00000000
00000000
00010000
00000000
00000000
00010010
00000000
00000000
00000010
00000000
00001000
00000100
00000000
00000010
00000001
00000000
00000100
00000010
00000000
00000000
,
00001000
00000000
00000000
00000010
00000000
00010000
00000000
00000000
00001000
00010000
00000000
00000000
01000000
00000000
00000000
00100000
00000000
01000000
00000000
00000000
10000000
01000000
00000000
00000000
,
10000000
00000000
00100000
01000000
00000000
00000000
00010000
00000000
00100000
01000000
00000000
00000000
10000000
00000000
10000000
01000000
00000000
01000000
00010000
00000000
00010000
00001000
00000000
00000000
,
00010000
00000000
00000000
00000000
00000000
00010100
00000000
00000000
00000000
00002200
00000000
00000000
00000000
00000000
00000000
00000000
00000000
00000000
00000000
00000000
00000000
00003300
00000000
00000000
,
00000001
00000000
00000000
00000000
00000000
00000110
00000000
00000000
00000000
00010000
00000000
00000000
00000000
00000000
00011000
00000000
00000000
00000000
00000000
00000000
00000000
00000000
00000000
00000000
,
00001000
00000000
00000000
00000000
00000000
01001000
00000000
00000000
00000000
02020000
00000000
00000000
00000000
00000000
00000000
00000000
00000000
00000000
00000000
00000000
00000000
03030000
00000000
00000000
,
10000000
00000000
00000000
00000000
00000000
01100000
00000000
00000000
00000000
00001000
00000000
00000000
00000000
00000000
00011000
00000000
00000000
00000000
00000000
00000000
00000000
00000000
00000000
00000000
,
00011000
00000000
00000000
00010000
00000000
00000100
00010000
00000000
00000000
00011000
00000000
00000000
00001000
00000000
01000000
00001000
00000000
00000000
00011000
00000000
00000000
00010000
00000000
00000010
,
00010000
00000000
00000000
00011000
00000000
00000000
00001000
00000000
00100000
00001000
00000000
00000000
00011000
00000000
00000000
00010000
00000000
00000100
00000010
00000000
00000100
00010000
00000000
00000000
,
00011000
00000000
00000000
00010000
00000000
01000000
00010000
00000000
00000000
00011000
00000000
00000000
00001000
00000000
00000100
00001000
00000000
00000000
00011000
00000000
00000000
00010000
00000000
00100000
,
00010000
00000000
00000000
00011000
00000000
00000000
00001000
00000000
00000010
00001000
00000000
00000000
00011000
00000000
00000000
00001000
00000000
01000000
00100000
00000000
01000000
00001000
00000000
00000000
,
00010000
00000000
00000100
00000010
00000000
00001000
00000010
00000000
00000100
00010000
00000000
00000000
00001000
00000000
01000000
00100000
00000000
00010000
00100000
00000000
01000000
00001000
00000000
00000000
,
00010000
00000000
00000100
00000010
00000000
00001000
00010000
00000000
01000000
00100000
00000000
00001000
00010000
00000000
00000000
00001000
00000000
00010000
00000000
00000000
00001000
00010000
00000000
00000000
,
00001000
00000000
00001000
00000100
00000000
00000100
00000001
00000000
00000010
00001000
00000000
00000000
00010000
00000000
00010000
01000000
00000000
01000000
10000000
00000000
00100000
00010000
00000000
00000000
,
00001000
00000000
00000100
00000010
00000000
00000000
00001000
00000000
00000100
00010000
00000000
00000000
00001000
00000000
00100000
00010000
00000000
00100000
01000000
00000000
10000000
00010000
00000000
00000000
,
10000000
00000000
10100000
00000000
00110000
00000000
00000000
00011000
,
00000000
00000000
00000000
00000000
;
#NOTES:
     dance-double:
     :
     Challenge:
     17:
     :
00000000
00000000
00000000
00000000
,
00000000
00000000
00000000
00000000
,
00000000
00000000
00000000
00000000
,
00000000
00000000
00000000
00000000
,
00000000
00000000
00000000
00000000
,
00000000
00000000
00010000
00001000
00000000
00001000
00000010
00000000
00000010
00000001
00000000
00000001
00001000
00000000
00001000
00000010
00000000
00000001
00000010
00000000
00001000
00000001
00000000
00001000
,
00000000
00000000
00000001
00000010
00000000
00000010
00001000
00000000
00001000
00010000
00000000
00010000
01000000
00000000
10000000
00100000
00000000
10000000
01000000
00000000
10000000
00010000
00000000
10000000
,
00100000
00000000
01000000
00100000
00000000
01000000
00010000
00000000
00100000
00010000
00000000
00100000
00001000
00000000
00010000
00001000
00000000
00010000
00000100
00000000
00001000
00000010
00000000
00001000
,
00000100
00000000
00000010
00001000
00000000
00000010
00000001
00000000
00001000
00000100
00000000
00000010
00000001
00000000
00000001
00000100
00000000
00000100
00001000
00000000
00001000
00010000
00000000
00000000
,
00001000
00000000
00001000
00100000
00000000
00100000
00010000
01000000
00010000
01000000
00100000
01000000
00100000
00000000
00100000
10000000
00000000
10000000
00010000
00100000
00010000
00100000
00001000
00100000
,
00001000
00000000
00001000
00010000
00000000
00010000
00000100
00001000
00000100
00000010
00000100
00000010
00000100
00000000
00000100
00001000
00000000
00001000
00000001
00000100
00000001
00000100
00000010
00000100
,
00000010
00000000
00000000
00001000
00000000
00000001
00000010
00000100
00001000
00000100
00010000
00001000
00010000
00000000
00000000
00001000
00000000
00100000
00010000
00100000
01000000
10000000
00010000
10000000
,
01000000
00000000
00000000
10000000
00000000
00100000
01000000
00010000
01000000
00001000
00010000
00001000
00100000
00000000
00000000
00010000
00000000
00100000
01000000
00000000
00010000
00001000
00000000
00000010
,
00000001
00000000
00000001
00000000
00000000
00000001
00000000
00000000
00001000
00000000
00000000
00000000
00000000
00000000
00000010
00000100
00000000
00000010
00000100
00000000
00000010
00000000
00000000
00000000
,
00001000
00000000
00001000
00000000
00000000
00001000
00000000
00000000
00000100
00000000
00000000
00000000
00000000
00000000
00010000
00001000
00000000
00010000
00001000
00000000
00010000
00000000
00000000
00000000
,
00011000
00000000
00000000
00001000
00000000
01000000
00020000
00000000
00000000
00130000
00000000
01000000
00020000
00000000
00000000
00031000
00000000
00100000
00020000
00000000
00000000
01030000
00000000
00100000
,
00020000
00000000
00000000
00130000
00000000
01000000
00020000
00000000
00000000
01030000
00000000
00001000
00020000
00000000
00000000
01030000
00000000
00100000
00010000
00000000
01000000
00001000
00000000
00000000
,
00011000
00000000
00000000
00010000
00000000
00000100
00002000
00000000
00000000
00003010
00000000
00000100
00002000
00000000
00000000
00013000
00000000
00000010
00002000
00000000
00000000
00003100
00000000
00000010
,
00002000
00000000
00000000
00003010
00000000
00000100
00002000
00000000
00000000
00003100
00000000
00010000
00000010
00000000
00010000
00001000
00000000
00010000
00001000
00000000
01000000
00010000
00000000
10000000
,
00100000
00000000
00010000
00001000
00000000
00010000
00001000
00000000
00000100
00001000
00000000
00000100
00000001
00000000
00000010
00001000
00000000
00000001
00000100
00000000
00001000
00000100
00000000
00001000
,
00000001
00000000
00000010
00001000
00000000
00010000
01000000
00000000
10000000
00010000
00000000
01000000
00001000
00000000
00010000
00000010
00000000
00001000
00000000
00000000
00000001
00000010
00000000
00000000
,
00000010
00000000
00001000
00010000
00000000
00001000
00010000
00000000
01000000
00010000
00000000
01000000
10000000
00000000
00100000
00010000
00000000
10000000
01000000
00000000
00010000
01000000
00000000
00010000
,
10000000
00000000
00100000
00010000
00000000
00001000
00000100
00000000
00000001
00001000
00000000
00000100
00010000
00000000
00001000
00100000
00000000
00010000
00000000
00000000
10000000
00100000
00000000
00000000
,
10000000
00000000
10000000
00010000
00000000
00010000
01000000
00000000
01000000
00001000
00000000
00001000
00010000
00000000
00010000
00000100
00000000
00000200
00000000
00000000
00000000
00001300
00000000
00000000
,
00000001
00000000
00000001
00001000
00000000
00001000
00000010
00000000
00000010
00010000
00000000
00010000
00001000
00000000
01000000
00010000
00000000
01000000
00100000
00000000
01000000
10000000
00000000
01000000
,
00000000
00000000
00100000
00010000
00000000
00000000
00010000
00000000
00001000
00000000
00000000
00001000
00000100
00000000
00000000
00000100
00000000
00000010
00000000
00000000
00000001
00000010
00000000
00001000
,
00000000
00000000
00000000
00001010
00000000
00000000
00000000
00000000
00000110
00000000
00000000
00000110
00000000
00000000
00000000
00000000
00000000
00001001
00000000
00000000
00000000
00001001
00000000
00000000
,
00000001
00000000
00000001
00000010
00000000
00000010
00001000
00000000
00001000
00010000
00000000
00010000
01000000
00000000
01000000
10000000
00000000
00020000
00000000
00000000
00000000
00030000
00000000
00000000
,
10000000
00000000
10000000
00100000
00000000
00100000
00010000
00000000
00010000
00001000
00000000
00001000
00000100
00000000
00000100
00000001
00000000
00000001
00001000
00000000
00000100
00000010
00000000
00000001
,
00000000
00000000
00000001
00000100
00000000
00000000
00000100
00000000
00001000
00000000
00000000
00001000
00010000
00000000
00000000
00010000
00000000
00100000
00000000
00000000
10000000
00100000
00000000
10000000
,
00000000
00000000
00000000
10100000
00000000
00000000
00000000
00000000
01100000
00000000
00000000
01100000
00000000
00000000
00000000
00000000
00000000
10010000
00000000
00000000
00000000
10010000
00000000
00000000
,
01100000
00000000
00000000
00000000
00000000
00000000
00000000
00000000
00000000
10000000
00000000
00100000
01000000
00000000
00010000
00100000
00000000
00001000
00001000
00000000
00010000
00000100
00000000
00001000
,
00000010
00000000
00000100
00000100
00000000
00000001
00000010
00000000
00000010
00001000
00000000
00001000
00010000
00000000
00010000
01000000
00000000
01000000
10000000
00000000
10000000
00010000
00000000
00000000
,
00000000
00000000
00000000
00000000
,
00000000
00000000
10000000
00100000
00000000
01000000
00010000
00000000
00100000
01000000
00000000
10000000
00100000
00000000
00010000
00001000
00000000
00000100
00000001
00000000
00000100
00000010
00000000
00001000
,
00000002
00000000
00000000
00000013
00000000
00001000
00000002
00000000
00000000
00000103
00000000
00001000
00000002
00000000
00000000
00000013
00000000
00001000
00000002
00000000
00000000
00000103
00000000
00001000
,
00000000
00000000
00000001
00000010
00000000
00000100
00001000
00000000
00000010
00000100
00000000
00000001
00000010
00000000
00001000
00010000
00000000
01000000
10000000
00000000
01000000
00100000
00000000
00010000
,
20000000
00000000
00000000
30100000
00000000
00010000
20000000
00000000
00000000
31000000
00000000
00010000
20000000
00000000
00000000
30100000
00000000
00010000
20000000
00000000
00000000
31000000
00000000
00010000
,
00000000
20000000
00000000
00000000
00000000
00000000
00000000
00000000
,
30000000
00000000
10100000
00000000
00000000
00000000
00110000
00000000
00000000
00000000
00000000
00011000
00000000
00000000
00000000
00001100
00000000
00000000
00000000
00000000
00000110
00000000
00000000
00000000
,
00000001
00000000
00000010
00000100
00000000
00001000
00000100
00000000
00000001
00000100
00000000
00001000
00000010
00000000
00000010
00010000
00000000
00010000
00001000
00000000
00001000
01000000
00000000
01000000
,
00010000
00000000
00100000
01000000
00000000
00100000
10000000
00000000
00100000
01000000
00000000
00100000
00010000
00000000
00010000
10000000
00000000
10000000
00100000
00000000
00100000
01000000
00000000
00000000
,
00100000
00000000
10000000
00010000
00000000
01010000
00000000
00000000
01010000
00000000
00000000
01000000
00001000
00000000
00010000
00001000
00000000
00011000
00000000
00000000
00010010
00000000
00000000
00000010
,
00001000
00000000
00001000
00000001
00000000
00000001
00000010
00000000
00000010
00001000
00000000
00001000
00010000
00000000
01000000
10000000
00000000
01000000
00010000
00000000
01000000
10000000
00000000
00010000
,
10000000
00000000
00100000
01000000
00000000
00010000
01000000
00000000
10000000
01000000
00000000
00010000
00100000
00000000
00100000
00001000
00000000
00001000
00010000
00000000
00010000
00000100
00000000
00000100
,
00001000
00000000
00000010
00000100
00000000
00000010
00000001
00000000
00000010
00000100
00000000
00000010
00001000
00000000
00001000
00000001
00000000
00000001
00000010
00000000
00000010
00000100
00000000
00000000
,
00000010
00000000
00000001
00001000
00000000
00001100
00000000
00000000
00001100
00000000
00000000
00000100
00010000
00000000
00001000
00010000
00000000
00011000
00000000
00000000
00101000
00000000
00000000
00100000
,
00010000
00000000
00010000
10000000
00000000
10000000
00100000
00000000
00100000
00010000
00000000
00010000
00001000
00000000
00000100
00000001
00000000
00000100
00001000
00000000
00000100
00000001
00000000
00000000
,
00000101
00000000
00000000
00000000
00000000
00000110
00000000
00000000
00000000
00001010
00000000
00000000
00000000
00000000
00001000
00000001
00000010
00000100
00001000
00000000
00000000
00000000
00000000
00000000
,
00010100
00000000
00000000
00000000
00000000
00011000
00000000
00000000
00000000
00101000
00000000
00000000
00000000
00000000
00110000
00000000
00000000
00000000
00000000
00000000
00000000
00000000
00000000
00000000
,
11000000
00000000
00000000
00000000
00000000
01100000
00000000
00000000
00000000
00110000
00000000
00000000
00000000
00000000
00010000
10000000
00100000
01000000
00010000
00000000
00000000
00000000
00000000
00000000
,
01001000
00000000
00000000
00000000
00000000
00011000
00000000
00000000
00000000
00010010
00000000
00000000
00000000
00000000
00001010
00000000
00000000
00000000
00001000
00000000
00000001
00001000
00000000
00000000
,
00001001
00000000
00000001
00000010
00000000
00000100
00001000
00000000
00000000
00001100
00000000
00000100
00010000
00000000
00001000
00010000
00000000
00000000
00011000
00000000
00001000
01000000
00000000
00010000
,
01000000
00000000
00000000
01100000
00000000
00100000
10000000
00000000
00010000
10000000
00000000
00000000
10010000
00000000
00000000
00010000
00000000
01000000
10000000
00000000
01000000
01100000
00000000
00000000
,
10010000
00000000
10000000
00100000
00000000
01000000
00010000
00000000
00000000
01010000
00000000
01000000
00001000
00000000
00010000
00001000
00000000
00000000
00011000
00000000
00010000
00000100
00000000
00001000
,
00000100
00000000
00000000
00000110
00000000
00000010
00000001
00000000
00001000
00000001
00000000
00000000
00001001
00000000
00000000
00001000
00000000
00000100
00000001
00000000
00000100
00000110
00000000
00000000
,
00000001
00000000
00000100
00000010
00000000
00001000
00000100
00000000
00000010
00001000
00000000
00000010
00000100
00000000
00010000
00001000
00000000
01000000
00100000
00000000
00010000
00100000
00000000
10000000
,
01000000
00000000
00100000
10000000
00000000
00100000
00010000
00000000
00010000
01000000
00000000
01000000
00100000
00000000
00010000
00100000
00000000
10000000
00100000
00000000
00010000
00100000
00000000
00000000
,
10000000
00000000
00100000
01000000
00000000
00010000
01010000
00000000
01000000
00100000
00000000
00010000
00001000
00000000
00000100
00000001
00000000
00000100
00000101
00000000
00000001
00000010
00000000
00000100
,
00001000
00000000
00000100
00010000
00000000
00001000
00101000
00000000
00100000
00010000
00000000
01000000
00100000
00000000
00100000
10000000
00000000
10000000
00010000
00100000
00010000
00100000
00001000
00100000
,
00002000
00000000
00023000
00000000
00030200
00000000
00000300
00001001
,
00000000
00000000
00000000
00000000
;
