
//----- song ID: roes -----//
#TITLE:ロマンシングエスケープ;
#ARTIST:ここなつ2.0;
#TITLETRANSLIT:Romancing escape;
#ARTISTTRANSLIT:Coconatsu 2.0;
#BANNER:Romancing escape.png;
#BACKGROUND:Romancing escape-bg.png;
#CDTITLE:./CDTitles/DDR WORLD.png;
#MUSIC:Romancing escape.ogg;
#SAMPLESTART:60;
#SAMPLELENGTH:15;
#BPMS:0=132;
#NOTES:
     dance-single:
     :
     Beginner:
     2:
     :
0000
0000
0000
0000
,
0000
0000
0000
0000
,
0000
0000
0000
0000
,
0000
0000
0000
0000
,
0000
0000
0000
0000
,
1000
0000
0000
0000
,
1000
0000
0000
0000
,
0001
0000
0000
0000
,
0001
0000
0000
0000
,
1000
0000
0001
0000
,
1000
0000
0000
0000
,
0001
0000
1000
0000
,
0001
0000
0000
0000
,
0010
0000
0100
0000
,
0010
0000
0000
0000
,
0002
0003
0000
0000
,
0200
0300
0000
0000
,
0001
0000
1000
0000
,
0001
0000
0001
0000
,
0010
0000
0100
0000
,
0010
0000
0010
0000
,
0001
0000
0000
0000
,
1000
0000
0000
0000
,
0001
0000
0001
0000
,
1000
0000
0000
0000
,
0002
0000
0003
0000
,
0020
0000
0030
0000
,
0200
0000
0300
0000
,
2000
0000
3000
0000
,
1000
0000
1000
0000
,
0001
0000
0000
0000
,
2000
0000
3000
0000
,
0001
0001
0001
0000
,
1001
0000
1000
0000
,
0001
0000
1000
0000
,
0002
0000
0000
0000
,
0000
0000
0003
0000
,
0010
0000
0100
0000
,
0010
0000
0100
0000
,
2000
0000
0000
0000
,
0000
0000
3000
0000
,
0001
0000
1000
0000
,
0001
0000
0000
0000
,
0010
0000
0100
0000
,
0010
0000
0100
0000
,
2000
0000
3000
0000
,
0001
0000
0001
0000
,
1000
0000
1000
0000
,
0010
0000
0000
0000
,
2000
0000
3000
0000
,
1000
0000
1000
0000
,
0002
0000
0003
0000
,
0001
0000
0001
0000
,
0000
1000
0000
0001
,
0000
1000
0000
0000
,
0000
0010
0000
0100
,
0000
0010
0000
0000
,
0000
0100
0000
0010
,
0000
0100
0000
0000
,
0000
0001
0000
1000
,
0000
0001
0000
0000
,
2000
0000
0000
0000
,
0000
0000
0000
3000
,
0000
0000
0000
0000
;
#NOTES:
     dance-single:
     :
     Easy:
     6:
     :
0000
0000
0000
0000
,
0000
0000
0000
0000
,
0000
0000
0000
0000
,
0000
0000
0000
0000
,
0000
0000
0000
0000
,
1000
0010
0100
0000
,
0010
0100
0001
0000
,
0100
0001
0010
0000
,
0001
0010
0100
0000
,
1000
0000
1000
0000
,
1000
0100
0010
0001
,
0001
0000
0001
0000
,
0001
0010
0100
1000
,
1000
0000
1000
0000
,
1000
0010
0100
0001
,
2000
3000
0000
1000
,
0002
0003
0000
0001
,
1000
0001
0010
0100
,
0010
0001
1000
0100
,
0020
0000
0001
0130
,
1000
0001
0100
0010
,
0200
0000
0301
1000
,
0020
0000
1030
0001
,
0010
0100
0010
0100
,
0010
0002
0000
0003
,
2000
0001
0010
3001
,
0002
1000
0100
1003
,
2000
0010
3020
0100
,
0130
0001
1000
0100
,
0110
0000
0000
0110
0000
0000
1001
0000
,
0000
1001
0000
0000
0000
0000
0001
0000
,
1000
0100
0010
0001
,
0010
0100
1000
0000
,
0011
0010
0001
0100
,
0010
1000
0100
1000
,
0002
0000
1000
0000
,
0100
0100
0103
0001
,
1000
0010
1000
0100
,
0010
0001
0100
0001
,
2000
0000
0001
0000
,
0001
0001
3001
0000
,
0000
1000
0010
0100
,
0001
0100
1000
0100
,
0000
0001
0010
0100
,
1000
0100
0001
0100
,
2000
0000
0000
3000
,
0001
0010
0100
1000
,
0001
0000
0010
0000
1000
0000
0000
0010
,
0000
0200
0000
0000
0000
0000
0300
1000
,
0000
0002
0000
0000
0100
0000
0003
0000
,
0001
0000
0010
0000
0100
0000
0000
1000
,
0000
0020
0000
0000
0100
0000
0030
0000
,
0010
0100
0001
0000
,
0000
1000
0001
0010
,
0000
0001
1000
0100
,
0000
1000
0010
1000
,
0000
0001
0010
0001
,
0000
1000
0100
0001
,
0000
0001
0100
1000
,
0000
0001
0010
1000
,
0000
1000
0010
0001
,
2000
0000
0000
0000
,
0000
0000
0000
3000
,
0000
0000
0000
0000
;
#NOTES:
     dance-single:
     :
     Medium:
     9:
     :
0000
0000
0000
0000
,
0000
0000
0000
0000
,
0000
0000
0000
0000
,
0000
0000
0000
0000
,
0000
0000
0000
0000
,
1000
0000
0100
0000
0010
0000
0001
0010
,
0100
0000
1000
0000
0100
0000
0010
0001
,
0010
0000
0100
0000
1000
0000
0100
0010
,
0001
0000
0010
0000
0100
0000
1000
0001
,
2000
3000
0100
0000
2000
3000
0001
0000
,
2000
3000
0010
0000
0100
0000
0010
1000
,
0002
0003
0100
0000
0002
0003
1000
0000
,
0002
0003
0010
0000
0100
0000
0010
0001
,
2000
3000
0100
0000
2000
3000
0001
0000
,
2000
3000
0010
0000
0100
0000
0001
1000
,
0100
0000
0000
0000
1000
0000
0000
0000
0100
0000
0000
0000
0001
0000
0000
0100
,
0010
0000
0100
0000
1000
1000
0100
0100
,
0000
1000
0100
1000
0001
0010
0100
0000
,
1000
0100
1000
0100
0020
0000
0032
0000
,
0003
1000
0100
1000
0001
0010
0100
0000
,
1000
0100
1000
0100
0020
0000
0032
0000
,
2003
0010
0001
3010
,
0002
0010
1000
0013
,
1000
0110
0001
0110
,
1000
0000
1002
0000
0013
0001
0010
0001
,
0000
1000
0001
0010
,
0011
0001
1000
0010
,
1010
0001
0110
1000
,
1001
0001
0010
1000
,
0020
0030
0100
2000
3000
0001
2000
3001
,
0100
0002
0000
0003
0000
1000
0100
1000
,
0000
0100
0000
0010
0000
0001
0000
0010
,
0100
0010
0000
0001
0000
1000
0010
0100
,
0110
0000
1000
0100
0010
0001
1000
0000
,
0010
0100
0001
0000
0010
0100
1000
0000
,
0002
0010
0023
0100
,
0230
0000
1000
0000
2300
0000
3001
0100
,
0010
0000
1000
0100
0010
0001
1000
0000
,
0010
0100
0001
0000
0010
0100
1000
0000
,
0002
0000
0003
2000
3000
0200
0300
0002
,
0003
0200
0300
2000
0000
3001
0000
0000
,
0101
0000
0001
0100
0001
0000
0010
0000
,
0001
0100
0001
0000
0010
0000
0100
0000
,
1100
0000
1000
0100
1000
0000
0010
0000
,
1000
0100
1000
0000
0010
0000
0100
0000
,
0002
0000
0100
0000
0010
0000
0103
0001
,
0100
0000
0000
0001
0000
0000
0010
0000
0100
0000
0000
0000
1000
0000
0000
0000
,
0100
0010
0100
1000
0000
0001
0000
0010
,
0000
0200
0000
0000
0010
0000
1300
0001
,
0000
2000
0000
0000
0100
0000
3001
0000
,
0001
0000
0100
0000
1000
0000
0100
0001
,
0000
2000
0000
0000
0010
0000
3100
0000
,
1000
0010
0100
0001
,
1000
0000
0010
0000
1000
0100
1000
0000
,
0001
0000
0010
0000
0001
0100
0010
0100
,
0001
0000
1000
0000
0010
0100
0010
0000
,
1000
0000
0001
0000
0010
0100
1000
0100
,
0010
0000
0001
0000
0100
0010
1000
0000
,
0100
0000
0010
0000
0001
0010
0100
0010
,
0001
0000
1000
0000
0010
0100
0001
0000
,
0010
0000
0100
0000
1000
0100
1000
0001
,
2000
0000
0000
0000
,
0000
0000
0000
3000
,
0000
0000
0000
0000
;
#NOTES:
     dance-single:
     :
     Hard:
     12:
     :
0000
0000
0000
0000
,
0000
0000
0000
0000
,
0000
0000
0000
0000
,
0000
0000
0000
0000
,
0000
0000
0000
0000
,
1000
0000
0010
0000
0001
0000
0010
1000
,
0100
0000
0001
0000
0100
1000
0010
0001
,
0010
0000
1000
0000
0010
0000
0100
0010
,
0001
0000
0010
0000
1000
0010
1000
0100
,
0010
0000
0001
0000
0100
1000
0100
0000
,
0010
0000
0100
0000
0010
0000
0000
0000
0100
0000
0001
0000
0100
0000
0010
0100
,
0010
0000
1000
0000
0100
0001
0100
0000
,
0010
0000
0100
0000
0010
0000
0000
0000
0100
0000
1000
0000
0100
0000
0010
0100
,
0010
0000
0001
0000
1000
0100
0001
0000
,
0001
0000
0000
0100
0000
0000
1000
0000
0000
0000
0000
0000
0010
0000
0000
0000
0100
0000
0001
0000
0010
0000
0100
0000
,
1000
0000
0000
0000
0000
0000
0000
0000
0100
0000
0000
0000
1000
0000
0000
0000
0100
0000
0000
0000
1000
0000
0000
0000
0100
0000
0000
0000
0000
0000
0000
0000
0000
0000
0000
0000
1000
0000
0000
0000
0000
0000
0000
0000
0000
0100
0000
0000
,
0010
0000
0000
0000
0001
0000
0000
0100
0010
0000
1000
0000
0100
1000
0100
0000
,
1000
0100
0010
0001
0100
1000
0100
0001
,
1000
0100
0001
0100
0020
0000
0230
0000
,
1300
0100
0010
0100
1000
0100
0010
0001
,
0010
1000
0010
0001
2000
0000
3020
0000
,
0230
0000
0000
0000
0301
0000
1000
0010
2000
0000
3000
0000
0001
0000
0010
0100
,
0020
0000
0030
0000
0001
0000
1000
0010
2000
0000
3000
0000
0001
0000
0100
0000
,
0010
0000
0000
0010
1000
0000
0000
1000
0100
0000
0000
0100
0001
0000
0000
0001
,
0100
0000
0000
0000
1000
0000
0000
0000
0001
0100
0001
0000
1000
0010
1000
0000
,
0100
0010
0001
0100
0001
0000
1000
0000
,
1010
0110
0101
1001
,
0201
0310
1020
0130
,
0100
0001
0010
0000
1000
0000
0010
0000
,
0110
0000
0001
1001
0000
1000
1100
0001
,
0100
0202
0000
0303
0000
0100
1000
0100
,
0001
2000
0000
3200
0000
0320
0000
0031
,
0100
0000
0010
0000
0100
0000
0001
0000
0010
0000
0100
0000
1000
0000
0100
1000
,
0100
0000
0000
0100
0001
0000
0000
0001
0100
0000
0000
0100
1000
0000
0000
1000
,
0002
0103
2000
3100
0002
0013
2000
3010
,
0002
0000
0103
0010
2000
0000
3010
0001
,
0020
0000
0130
1000
0200
0000
0310
0010
,
0100
0000
0000
0100
1000
0000
0000
1000
0100
0000
0000
0100
0001
0000
0000
0001
,
2000
3100
0002
0103
2000
3010
0002
0013
,
2000
0000
3100
0200
0000
1000
0000
0010
,
0000
0000
0001
0000
0000
0000
0010
0000
0000
0000
1300
0000
0001
0000
1000
0100
,
1000
0000
0000
0000
0001
0100
0000
0100
0010
0000
1000
0000
0010
0000
0100
0000
,
0002
0013
0200
1300
0020
0130
2000
3100
,
0001
0000
0010
0000
0001
1000
0000
1000
0010
0000
1000
0000
0100
0000
0010
0000
,
0002
0103
0020
1030
0200
0310
2000
3010
,
0001
0000
0100
0000
0010
0100
0000
0100
0010
0000
1000
0000
0100
0000
0010
0000
,
0001
0000
0000
0010
0000
0000
0100
0000
2000
0000
3000
0000
0002
0000
0003
0000
,
0010
1000
0010
0100
1000
0010
0001
0010
,
1000
0100
0000
0100
1000
0000
0010
0000
0100
0000
0001
0100
0001
0000
0010
0000
,
0001
0100
1000
0100
0001
0010
1000
0010
,
0001
0000
0100
0000
1000
0000
0100
0000
0001
0000
0010
0001
0010
0000
0100
0000
,
1000
0010
0001
0010
1000
0100
0001
0100
,
1000
0000
0000
0001
0000
0000
0010
0000
0001
0000
0000
0010
0000
0000
0100
0000
,
1000
0000
0000
0000
0110
0000
0000
0000
1000
0000
0000
0010
0000
0000
0000
0100
,
1000
0000
0100
0000
0010
0000
0100
0000
0001
0000
0010
0000
0001
0000
0100
0010
,
0100
0000
0000
0000
0110
0000
0000
0000
0001
0000
0000
0010
0000
0000
0000
0100
,
0001
0000
0100
0000
0010
0000
0100
0000
1000
0000
0010
0000
1000
0000
0100
0010
,
0100
0000
0000
0000
0110
0000
0000
0000
1000
0000
0000
0010
0000
0000
0000
0100
,
1000
0000
0100
0000
0001
0000
0100
0000
0010
0000
1000
0000
0001
0000
0100
0001
,
0100
0000
0000
0000
0110
0000
0000
0000
0001
0000
0000
0010
0000
0000
0000
0100
,
0001
0100
1000
0010
0001
0010
1000
0100
,
0020
0000
0000
0000
,
0000
0000
0000
0030
,
0000
0000
0000
0000
;
#NOTES:
     dance-double:
     :
     Easy:
     5:
     :
00000000
00000000
00000000
00000000
,
00000000
00000000
00000000
00000000
,
00000000
00000000
00000000
00000000
,
00000000
00000000
00000000
00000000
,
00000000
00000000
00000000
00000000
,
10000000
00100000
01000000
00000000
,
00010000
00100000
00001000
00000000
,
00010000
00000010
00001000
00000000
,
00000001
00000010
00000100
00000000
,
00001000
00000000
00001000
00000000
,
00000010
00010000
00001000
01000000
,
00100000
00000000
00100000
00000000
,
01000000
00010000
00100000
00001000
,
00010000
00000000
00010000
00000000
,
00001000
00010000
00001000
00000010
,
00000002
00000003
00000000
00000100
,
00000020
00000030
00000000
00000100
,
00001000
00010000
00001000
00000000
,
00100000
00010000
01000000
00100000
,
00200000
00000000
10000000
01300000
,
00100000
00010000
00001000
00010000
,
00002000
00000000
00013000
00000100
,
00000020
00000000
00000031
00000010
,
00000001
00000100
00000010
00010000
,
00001000
00020000
00000000
00030000
,
00002000
00000000
00000000
00000000
00010000
00000000
00000000
00000000
00100000
00000000
00000000
00000000
00010000
00003000
00000000
00000000
,
00020000
00001000
00000100
00031000
,
00002000
00000010
00003020
00000001
,
00000031
00000010
00000100
00010000
,
00011000
00000000
00000000
00110000
00000000
00000000
01100000
00000000
,
00000000
10010000
00000000
00000000
00000000
00000000
00010000
00000000
,
10000000
01000000
00100000
00010000
,
00001000
00000100
00000010
00000000
,
00001001
00000001
00000001
00000010
,
00000010
00000100
00010000
00001000
,
00020000
00000000
00001000
00000000
,
00000010
00000000
00031000
00010000
,
00100000
10000000
10000000
00100000
,
00100000
01000000
00001000
00010000
,
00002000
00000000
00010000
00000000
,
00100000
00000000
00013000
00000000
,
00000000
00010000
00001000
00010000
,
00000100
00000010
00000001
00000100
,
00000000
00001000
00010000
00001000
,
01000000
00100000
10000000
01000000
,
20000000
00000000
00000000
30000000
,
00010000
00100000
01000000
00100000
,
00001000
00000000
00010000
00000000
00000100
00000000
00000000
00000010
,
00000000
00000200
00000000
00000000
00000000
00000000
00000300
00000010
,
00000000
00000002
00000000
00000000
00000100
00000000
00000003
00000000
,
00000100
00000000
00001000
00000000
00010000
00000000
00000000
00100000
,
00000000
20000000
00000000
00000000
01000000
00000000
30000000
00000000
,
01000000
00010000
00001000
00000000
,
00000000
00010000
00001000
00100000
,
00000000
00001000
00010000
00000100
,
00000000
00010000
00001000
01000000
,
00000000
00001000
00010000
00000010
,
00000000
00000100
00000001
00000010
,
00000000
00000100
00010000
00001000
,
00000000
01000000
00100000
10000000
,
00000000
01000000
00010000
00001000
,
00020000
00000000
00000000
00000000
,
00000000
00000000
00000000
00030000
,
00000000
00000000
00000000
00000000
;
#NOTES:
     dance-double:
     :
     Medium:
     9:
     :
00000000
00000000
00000000
00000000
,
00000000
00000000
00000000
00000000
,
00000000
00000000
00000000
00000000
,
00000000
00000000
00000000
00000000
,
00000000
00000000
00000000
00000000
,
10000000
00000000
01000000
00000000
00100000
00000000
00001000
00010000
,
00000100
00000000
00000010
00000000
00000001
00000000
00000100
00001000
,
00010000
00000000
00001000
00000000
00100000
00000000
01000000
10000000
,
01000000
00000000
00100000
00000000
00001000
00000000
00010000
00001000
,
00020000
00030000
00000100
00000000
00002000
00003000
00000010
00000000
,
00000200
00000300
00000001
00000000
00000100
00000000
00000010
00001000
,
00000020
00000030
00010000
00000000
00002000
00003000
01000000
00000000
,
00020000
00030000
00100000
00000000
01000000
00000000
10000000
01000000
,
20000000
30000000
01000000
00000000
00200000
00300000
00010000
00000000
,
00002000
00003000
00000100
00000000
00000010
00000000
00000001
00000010
,
00000001
00000100
00000010
00010000
,
00001000
00000000
01000000
00000000
00100000
01000000
00100000
00000000
,
00000000
10000000
01000000
10000000
00010000
00100000
00010000
00000000
,
00100000
00001000
00010000
00001000
00020000
00000000
00032000
00000000
,
00003000
00010000
00001000
00010000
00000100
00001000
00000100
00000000
,
00000010
00000001
00000010
00000001
00000020
00000000
00000230
00000000
,
00020300
00000100
00000010
00000100
,
00032000
00100000
01000000
00103000
,
00001000
00010000
00100000
10000000
,
01000000
00000000
00200000
00000000
00300000
00010000
00100000
00010000
,
00000000
10000000
01000000
00100000
,
00110000
00010000
00100000
00001000
,
00011000
00010000
00010100
00000100
,
00000110
00000010
00000001
00001000
,
00000020
00000030
00001000
00000200
00000300
00010000
00002000
00103000
,
00010000
02000000
00000000
03000000
00000000
00100000
01000000
00100000
,
00000000
10000000
00000000
01000000
00000000
00100000
00000000
00010000
,
00000000
00001000
00000000
00000100
00000000
00001000
00000001
00000100
,
00000001
00000000
00000010
00000100
00000010
00000000
00000100
00000000
,
00010000
00001000
00010000
00000000
00001000
00010000
00001000
00000000
,
00200000
01000000
02300000
10000000
,
23000000
00010000
30020000
00130000
,
00001000
00000000
00010000
00001000
00010000
00000000
00000100
00000000
,
00000010
00000001
00000010
00000000
00000100
00001000
00000100
00000000
,
00020000
00000000
00030000
00002000
00003000
02000000
03000000
00020000
,
00030000
00200000
00300000
02000000
00000000
13000000
00000000
00000000
,
11000000
00000000
01000000
10000000
01000000
00000000
00100000
00000000
,
00010000
00100000
00010000
00000000
00100000
00000000
00001000
00000000
,
00101000
00000000
00001000
00010000
00001000
00000000
00010000
00000000
,
00000100
00000010
00000100
00000000
00000010
00000000
00000001
00000000
,
00002000
00000000
00000010
00000000
00000001
00000000
00003100
00001000
,
00000100
00000000
00000000
00010000
00000000
00000000
00001000
00000000
00010000
00000000
00000000
00000000
00100000
00000000
00000000
00000000
,
01000000
00100000
01000000
00010000
00000000
10000000
00000000
01000000
,
00000000
00200000
00000000
00000000
00001000
00000000
00310000
00100000
,
00000000
00002000
00000000
00000000
01000000
00000000
00013000
00000000
,
00010000
00000000
00001000
00000000
00000010
00000000
00000001
00000010
,
00000000
00000200
00000000
00000000
00010000
00000000
00001300
00000000
,
00000100
00010000
00001000
00100000
,
00010000
00000000
10000000
00000000
01000000
00010000
00001000
00000000
,
00010000
00000000
00000010
00000000
00000100
00000010
00000100
00000001
,
00000100
00000000
00000001
00000000
00000100
00001000
00010000
00000000
,
00001000
00000000
00100000
00000000
01000000
00100000
01000000
10000000
,
00100000
00000000
10000000
00000000
01000000
00100000
01000000
00000000
,
00010000
00000000
00001000
00000000
00000010
00000100
00000010
00000001
,
00000100
00000000
00000001
00000000
00000100
00000010
00000100
00000000
,
00001000
00000000
00010000
00000000
00100000
01000000
00100000
00000000
,
20000000
00000000
00000000
00000000
,
00000000
00000000
00000000
30000000
,
00000000
00000000
00000000
00000000
;
#NOTES:
     dance-double:
     :
     Hard:
     12:
     :
00000000
00000000
00000000
00000000
,
00000000
00000000
00000000
00000000
,
00000000
00000000
00000000
00000000
,
00000000
00000000
00000000
00000000
,
00000000
00000000
00000000
00000000
,
00010000
00000000
00000100
00000000
00010000
00000000
00000010
00001000
,
00000100
00000000
00000001
00000000
00000100
00001000
00000100
00010000
,
00001000
00000000
01000000
00000000
00100000
00000000
10000000
01000000
,
00100000
00000000
00001000
00000000
00010000
00001000
00010000
00000100
,
00000010
00000000
00000001
00000000
00000100
00000010
00001000
00000000
,
00000100
00010000
00001000
00000000
01000000
00010000
10000000
01000000
,
00100000
00000000
00001000
00000000
00010000
00001000
00010000
00000000
,
00000100
00000010
00000100
00000000
00000010
00000001
00000010
00000100
,
00010000
00000000
00001000
00000000
00100000
00010000
01000000
00000000
,
00010000
00000000
00000000
10000000
00000000
00000000
01000000
00000000
00000000
00000000
00000000
00000000
10000000
00000000
00000000
00000000
01000000
00000000
00100000
00000000
01000000
00000000
00100000
00000000
,
01000000
00000000
00000000
00000000
00100000
00000000
00000000
00000000
00001000
00000000
00000000
00000000
00010000
00000000
00000000
00000100
,
00000010
00000000
00000001
00000000
00000100
00000010
00000100
00000001
,
00000010
00000001
00001000
00000001
00001000
00000100
00010000
00000100
,
00010000
00001000
01000000
00001000
02000000
00000000
03020000
00000000
,
10030000
01000000
00100000
01000000
00100000
00001000
00010000
00001000
,
00010000
00000100
00000010
00000100
00000020
00000000
00000032
00000000
,
00000203
00000000
00000000
00000000
00000310
00000000
00001000
00000100
00002000
00000000
00003000
00000000
00000100
00000000
00010000
00001000
,
00020000
00000000
00030000
00000000
00001000
00000000
00100000
00010000
00200000
00000000
00300000
00000000
01000000
00000000
10000000
00000000
,
00100000
00000000
00000000
00100000
01000000
00000000
00000000
01000000
00001000
00000000
00000000
00001000
00010000
00000000
00000000
00010000
,
00001000
00000000
00000000
00000000
00000010
00000000
00000000
00000000
00000001
00000010
00000001
00000000
00000100
00000001
00000100
00000000
,
00000010
00000100
00001000
00010000
00100000
00000000
01000000
00000000
,
01100000
01010000
00011000
00001010
,
00000020
00000230
00002300
00023000
,
00031000
00010000
00001000
01000000
00100000
00000000
10000000
00000000
,
11000000
00000000
01000000
01100000
00000000
00100000
00101000
00001000
,
00010000
00022000
00000000
00033000
00000000
00001000
00000010
00000001
,
00000010
00000200
00000000
00000320
00000000
00000032
00000000
00000103
,
00001000
00010000
00000000
00100000
01000000
00010000
10000000
01000000
,
00100000
00000000
00010000
00100000
00001000
00010000
00000100
00000000
,
00001000
00000010
00000100
00000001
00000100
00001000
00010000
00001000
,
00020000
00031000
02000000
03100000
,
20000000
00000000
31000000
00000000
00200000
00000000
00301000
00010000
,
00000100
00000000
00001000
00000100
00001000
00000010
00000100
00000000
,
00000001
00000010
00000001
00000010
00000100
00001000
00000100
00000000
,
00020000
00000000
00031000
00002000
00000000
00010000
00000000
00100000
,
00000000
01000000
00000000
00100000
00000000
00013000
00001000
00100000
,
00010000
00000000
10000000
01000000
00010000
00001000
00000010
00000001
,
00000020
00000130
00002000
00003001
00000200
00000310
00002000
00003100
,
00001000
00000000
00000001
00000100
00001000
00010000
00100000
10000000
,
00200000
01300000
00020000
10030000
02000000
03100000
00020000
01030000
,
00200000
00000000
01000000
00000000
10000000
00000000
01300000
00100000
,
10000000
00000000
00000000
01000000
00000000
00000000
00010000
00000000
00002000
00000000
00003000
00000000
00020000
00000000
00030000
00000000
,
00001000
00000010
00000001
00000010
00000100
00001000
00000000
00000100
,
00010000
00001000
00000000
00001000
00010000
00000000
00100000
00000000
01000000
00000000
00100000
01000000
00100000
00000000
00000000
00000000
,
10000000
01000000
00010000
01000000
10000000
00100000
00010000
00000000
,
00001000
00000000
00010000
00000000
00100000
00000000
00010000
00000000
00001000
00000000
00010000
00001000
00010000
00000000
00000000
00000000
,
00001000
00000010
00000001
00000100
00001000
00000100
00000001
00000100
,
00001000
00000000
00000000
00010000
00000000
00000000
00001000
00000000
00100000
00000000
00000000
00010000
00000000
00000000
10000000
00000000
,
00100000
00000000
00000000
00000000
10100000
00000000
00000000
00000000
10000000
00000000
00000000
01000000
00000000
00000000
00000000
00100000
,
01000000
00000000
00100000
00000000
00001000
00000000
00010000
00000000
00000100
00000000
00001000
00000000
00000010
00000000
00000100
00000001
,
00000100
00000000
00000000
00000000
00000101
00000000
00000000
00000000
00000001
00000000
00000000
00000100
00000000
00000000
00000000
00000010
,
00000100
00000000
00000010
00000000
00010000
00000000
00001000
00000000
01000000
00000000
00010000
00000000
00100000
00000000
01000000
10000000
,
01000000
00000000
00000000
00000000
01100000
00000000
00000000
00000000
00100000
00000000
00000000
00010000
00000000
00000000
00000000
00001000
,
00000100
00000000
00000010
00000000
00000001
00000000
00000100
00000000
00000010
00000000
00010000
00000000
00001000
00000000
00010000
00001000
,
00010000
00000000
00000000
00000000
00011000
00000000
00000000
00000000
00010000
00000000
00000000
00000100
00000000
00000000
00000000
00010000
,
00001000
00100000
00010000
01000000
00100000
10000000
01000000
00010000
,
02000000
00000000
00000000
00000000
,
00000000
00000000
00000000
03000000
,
00000000
00000000
00000000
00000000
;
