
//----- song ID: miti -----//
#TITLE:路男;
#ARTIST:Des-ROW・組ユナイテッド;
#TITLETRANSLIT:Roman;
#ARTISTTRANSLIT:Des-ROW・Gumi UNITED;
#BANNER:Roman.png;
#BACKGROUND:Roman-bg.png;
#CDTITLE:./CDTitles/pnm 15 ADVENTURE.png;
#MUSIC:Roman.ogg;
#SAMPLESTART:51.875;
#SAMPLELENGTH:15;
#BPMS:0=171;
#BGSTAGE:4;
#NOTES:
     dance-single:
     :
     Beginner:
     3:
     :
0000
0000
0000
0000
,
0000
0000
0000
0000
,
0000
0000
0000
0000
,
0000
0000
0000
0000
,
0000
0000
0000
0000
,
0001
0000
0000
0000
,
0000
0000
0000
0000
,
1000
0000
0000
0000
,
0000
0000
0000
0000
,
1001
0000
0000
0000
,
0001
0000
0000
0000
,
0100
0000
0000
0000
,
0001
0000
0000
0000
,
1000
0000
0000
0000
,
0010
0000
0000
0000
,
1000
0000
0000
0000
,
0001
0000
0000
0000
,
0001
0000
0001
0000
,
0001
0000
0000
0000
,
1000
0000
1000
0000
,
1000
0000
0000
0000
,
0010
0000
0010
0000
,
0010
0000
0000
0000
,
0100
0000
0100
0000
,
0100
0000
0000
0000
,
0001
0000
1000
0000
,
0001
0000
0000
0000
,
0100
0000
0010
0000
,
0100
0000
0000
0000
,
0001
0000
0010
0000
,
0001
0000
0000
0000
,
1000
0000
0100
0000
,
1000
0000
0000
0000
,
0002
0000
0003
0000
,
2000
0000
3000
0000
,
0002
0000
0003
0000
,
2000
0000
3000
0000
,
0001
0000
1000
0000
,
0010
0010
0010
0000
,
1000
0000
0001
0000
,
0100
0100
0100
0000
,
0001
0000
1000
0000
,
0010
0010
0010
0000
,
1000
0000
0001
0000
,
0100
0100
0100
0000
,
0001
0000
1000
0000
,
0100
0000
0000
0000
,
1000
0000
0001
0000
,
0010
0000
0000
0000
,
0100
0000
1000
0000
,
0010
0000
0000
0000
,
0100
0000
0001
0000
,
0010
0000
0000
0000
,
0001
0000
0000
0001
,
0000
0000
0000
0000
,
1000
0000
0000
1000
,
0000
0000
0000
0000
,
0010
0000
0000
0010
,
0000
0000
0000
0000
,
0100
0000
0000
0100
,
0000
0000
0000
0000
,
0001
0000
0001
0000
,
1000
0000
1000
0000
,
0001
0000
0001
0000
,
0100
0000
0100
0000
,
0001
0000
0001
0000
,
1000
0000
1000
0000
,
0010
0000
0010
0000
,
1000
0000
1000
0000
,
0001
0000
0000
0000
,
0100
0000
0000
0000
,
0010
0000
0000
0000
,
0100
0000
0000
0000
,
0001
0000
0000
0000
,
0010
0000
0000
0000
,
0100
0000
0000
0000
,
1000
0000
0000
0000
,
0001
0000
0000
0000
,
0000
0000
0000
0000
,
0100
0000
0000
0000
,
0000
0000
0000
0000
,
0010
0000
0000
0000
,
0000
0000
0000
0000
,
2000
0000
0000
0000
,
0000
0000
0000
0000
,
3000
0000
0000
0000
,
0000
0000
0000
0000
;
#NOTES:
     dance-single:
     :
     Easy:
     9:
     :
0000
0000
0000
0000
,
0000
0000
0000
0000
,
0000
0000
0000
0000
,
0000
0000
0000
0000
,
0000
0000
0000
0000
,
0001
0000
0000
0001
0000
0000
1000
0000
,
0000
1000
0000
0000
0010
0000
0100
0000
,
0001
0000
0000
0001
0000
0000
1000
0000
,
0010
0010
0100
0010
,
1001
0001
0100
0010
,
1000
0001
0100
0100
,
0001
1000
0001
0010
,
0001
0000
1000
0000
0010
0100
0010
0000
,
1000
0001
0010
0001
,
0010
0100
1000
1000
,
0001
0100
0010
1000
,
0001
0000
0010
0001
0010
0000
0000
0000
,
0001
1000
0010
0100
,
0001
0010
0001
1000
,
0010
1000
1100
0101
,
1100
0101
0010
0000
,
1001
0001
0010
0100
,
1000
0001
0100
0110
,
0002
2003
3010
0100
,
0001
1000
0110
0000
,
1001
0001
1000
0010
,
0100
0001
1000
1100
,
0100
0010
0001
1000
,
0010
0100
0001
0011
,
0010
0100
1000
0001
,
0100
0000
0100
0000
0010
1000
0001
0000
,
0010
0001
1000
0010
,
1000
0001
0110
0110
,
2000
0001
0001
3001
,
0002
0100
0100
0103
,
0200
0010
0010
0310
,
0020
1000
1000
1030
,
1001
0001
0100
0010
,
1000
1000
0010
0010
,
0100
0000
0001
0000
1000
0000
0001
0001
,
0000
1000
0000
2002
0000
0000
3003
0000
,
0001
1000
0010
0100
,
0001
0001
0100
0100
,
0010
0000
1000
0000
0001
0000
1000
1000
,
0000
0001
0000
2002
0000
0000
3003
0000
,
0000
0001
0001
0000
0000
0000
0100
0000
,
0010
0000
1000
0000
0001
1000
0001
0000
,
0000
1000
1000
0000
0000
0000
0010
0000
,
0100
0000
0001
0000
1000
0001
1000
0000
,
0001
0001
0100
0100
,
0020
0000
0130
0000
0100
0001
1000
0000
,
0011
0011
1000
0010
,
0100
0001
0011
1100
,
1000
0000
0000
0010
0000
0000
0100
0000
,
0000
0001
0000
0000
0010
0000
0010
0000
,
0001
0000
0000
0100
0000
0000
0010
0000
,
0000
1000
0000
0000
0100
0000
0100
0000
,
1000
0000
0000
0100
0000
0000
0010
0000
,
0000
0001
0000
0000
0100
0000
0010
0000
,
0100
0000
0000
0001
0000
0000
0010
0000
,
0002
0023
0230
2300
,
3001
0100
0101
0000
,
1000
0010
1010
0000
,
0001
0100
1000
0100
,
0001
0000
0010
0000
0001
1000
0001
0000
,
1000
0100
1100
0000
,
0001
0010
0011
0000
,
0001
1000
0010
0100
,
0001
0000
1000
0000
0001
0010
0100
0000
,
2000
0000
3010
0000
,
0020
0000
0130
0000
,
0200
0000
0301
0000
,
0001
0010
0100
1000
,
0020
0000
0130
0000
,
0200
0000
0301
0000
,
0002
0000
1003
0000
,
1000
0100
0010
0001
,
0200
0000
0000
0000
,
0000
0000
0000
0300
,
0020
0000
0000
0000
0000
0000
0000
0030
,
0000
2000
0000
0000
0000
0000
3000
0000
,
0002
0000
0000
0000
0000
0000
0000
0003
,
0000
0020
0000
0000
0000
0000
0030
0000
,
0200
0000
0000
0000
,
0000
0000
0000
0000
,
0300
0000
0000
0000
,
0000
0000
0000
0000
;
#NOTES:
     dance-single:
     :
     Medium:
     13:
     :
0000
0000
0000
0000
,
0000
0000
0000
0000
,
0000
0000
0000
0000
,
0000
0000
0000
0000
,
0000
0000
0000
0000
,
0001
0100
0010
0010
0000
0000
1000
0100
,
0010
0010
0000
0000
0011
0000
1100
0000
,
0001
0001
0010
0100
1000
1000
0010
0100
,
0001
1000
0100
0000
0110
0000
0001
0010
,
0001
0001
1000
1000
0010
0100
0001
0010
,
0001
1000
0100
0010
0001
0010
1000
0000
,
0010
0100
1000
0001
0100
0100
0010
1000
,
0001
0010
0100
1000
0001
0100
1000
0000
,
0100
0010
1000
0001
0010
0001
1000
0010
,
0100
0001
1000
0010
1000
0100
0001
0000
,
0110
0010
0011
0000
0001
1000
0001
0010
,
0001
0100
0010
1000
1001
0000
0000
0000
,
0001
0000
1000
0000
0010
0000
0100
0000
0000
0001
0000
0010
0001
0000
1000
0000
,
0010
0010
0100
0001
1000
0100
0010
0001
,
0010
0100
1000
1000
0100
0001
0001
0100
,
1000
1000
0100
0001
0100
0110
0000
0000
,
0001
0001
0010
0000
1000
1000
0010
0000
,
0001
1000
0010
0100
0101
0000
1001
0000
,
0002
2003
3020
0230
0301
0010
0100
0001
,
1000
0010
0100
1000
0010
0000
0100
0000
,
0001
0001
0010
0001
0100
0010
0100
0001
,
0010
0100
1000
0001
0100
0010
1010
0000
,
1000
0010
0001
0001
0010
1000
1000
0010
,
0001
0001
0010
1000
1000
0100
0110
0000
,
0011
0000
1100
0000
0001
0010
0100
1000
,
0001
0100
0010
0010
0100
0001
0011
0000
,
1200
0000
0001
0000
1300
0010
0100
0000
,
0001
0100
1000
0100
0001
0100
0110
0000
,
0001
1000
0001
1000
0001
1000
0001
0000
,
0100
0010
0100
0010
0100
0010
0100
0000
,
0001
0010
0001
0010
0001
0010
0100
0000
,
1000
0010
0100
0001
1000
0100
0010
0000
,
0012
0000
1003
0000
2100
0000
3010
0100
,
0000
0102
0000
0010
0000
0103
0010
0000
,
2010
0000
3001
0000
0102
0000
0013
0100
,
0000
1100
0000
2002
0000
0000
3003
0000
,
2100
0000
3001
0000
0012
0000
0103
0010
,
0000
2010
0000
0100
0000
3010
0100
0000
,
0102
0000
1003
0000
2010
0000
3100
0010
,
0000
0011
0000
2002
0000
0000
3003
0000
,
0000
1000
1010
0000
0000
0010
0100
0001
,
0100
0010
0100
1000
0100
0010
1010
0000
,
0000
0001
0011
0000
0000
0010
0100
1000
,
0100
0010
0100
0001
0100
0010
0011
0000
,
1100
0000
1000
0010
0110
0000
0100
0001
,
2000
0000
3100
0010
0001
1000
1010
0000
,
0010
0010
0100
0100
0001
1000
0100
0010
,
0001
1000
1000
0010
0110
0000
1001
0000
,
0002
0000
0103
0010
0000
0000
2000
0000
,
3010
0100
0000
0000
0001
0100
1000
0000
,
0200
0000
0310
1000
0000
0000
0020
0000
,
0130
0001
0000
0000
1000
0010
0001
0000
,
0020
0000
0130
0001
0000
0000
0020
0000
,
0130
1000
0000
0000
0001
0010
1000
0000
,
0020
0000
0130
1000
0000
0000
0010
0000
,
0200
2300
3200
0302
,
0013
0100
1000
0001
0100
0010
0110
0000
,
0100
0001
0010
0001
1000
0010
0110
0000
,
0100
0001
0100
0001
0010
1000
0010
0001
,
1000
0010
0100
0001
0010
0100
1100
0000
,
1000
0001
0100
0010
1000
0001
0010
0100
,
0001
0100
0010
0001
1000
0010
0110
0000
,
0100
0000
0000
0001
0000
1000
0000
0010
0100
0000
0001
0000
0010
0000
0100
0000
,
1000
0001
0100
0010
0100
0010
1001
0000
,
1000
0000
0000
0010
0100
0000
0001
0000
,
1000
0100
0010
0000
0001
0000
0000
0000
,
0001
0000
0000
0100
0010
0000
1000
0000
,
0001
0010
0100
0000
1000
0000
0000
0000
,
1000
0000
0000
0100
1000
0000
0001
0000
,
1000
0010
0100
0000
0001
0000
0000
0000
,
0001
0000
0000
0010
0001
0000
1000
0000
,
0001
0100
0010
0000
1000
0000
0100
0000
,
0020
0000
0000
0000
,
0000
0000
0000
0000
0000
0000
0000
0030
,
0002
0000
0000
0000
,
0003
0200
0000
0000
0000
0000
0000
0300
,
0020
0000
0000
0000
,
0030
2000
0000
0000
0000
0000
0000
3000
,
0002
0000
0000
0000
,
0000
0000
0000
0000
,
0003
0000
0000
0000
,
0000
0000
0000
0000
;
#NOTES:
     dance-single:
     :
     Hard:
     15:
     :
0000
0000
0000
0000
,
0000
0000
0000
0000
,
0000
0000
0000
0000
,
0000
0000
0000
0000
,
0000
0000
0000
0000
,
0001
0001
0010
0100
0000
0000
1000
1000
,
0010
0100
0000
0001
0011
0000
1100
0000
,
0001
0100
0001
0100
0001
0000
1000
0100
1000
0100
1000
0000
0010
0000
0100
0000
,
0002
0000
0000
0000
0023
0000
0000
0000
0130
0000
1000
0100
1000
0000
0001
0000
,
1000
0010
0000
0010
0100
0000
0001
0000
1000
0100
0000
0010
0001
0000
1000
0010
,
0100
0000
0001
0000
0010
0001
0010
0000
0001
0000
0100
0010
1000
0000
0000
0000
,
0001
0100
0000
0100
0010
0000
1000
0000
0001
0010
0000
0100
1000
0000
0001
0100
,
0010
0000
1000
0000
0100
1000
0100
0000
1000
0000
0010
0100
0001
0000
0000
0000
,
0001
0000
1000
0000
0001
0010
0100
0000
1000
0100
1000
0100
1000
0000
0100
0000
,
0010
0100
0010
0100
0010
0000
0001
0000
0010
0000
0100
1000
0001
0000
0000
0000
,
0001
0000
1000
0000
0010
1000
0100
0000
1000
0010
0100
0000
0001
0010
0001
0000
,
1000
0001
1000
0001
1000
0000
0010
0000
0110
0000
0000
0000
0000
0000
0000
0000
,
1000
0000
0001
0000
1000
0100
1000
0000
0000
0100
0000
0010
0001
0000
1000
0010
,
0100
0001
0001
1000
1000
0010
0010
0100
,
0001
0010
0100
1000
0101
1000
0101
0010
,
0101
0000
1000
0000
0010
0000
1000
0001
0010
0000
1001
0000
0000
0000
0000
0000
,
1000
0100
1000
0000
0100
0000
0010
0000
0001
0000
1000
0000
0001
0100
0001
0100
,
0001
0010
0100
1000
0010
0000
0110
0000
,
0002
0000
2003
0000
3001
0010
0001
0010
0100
0000
2000
0000
3002
0000
0203
0000
,
0320
0000
0032
0000
0023
0000
2030
0000
3200
0000
0320
0000
0031
1000
0001
1000
,
0010
0000
0100
0000
0010
1000
0001
0000
0010
0100
0010
0000
0001
1000
0010
0000
,
1000
0001
1000
0001
0100
0000
0001
0000
0010
0100
1000
0000
1001
0000
0000
0000
,
0001
0010
0001
0000
1000
0010
0100
0000
0001
1000
0001
1000
0100
0000
0010
0000
,
0001
1000
0001
0000
0100
0010
1000
0000
0001
0010
0001
0010
0100
0000
0000
0000
,
1000
0100
1000
0000
0001
0010
0001
0000
1000
0000
0010
0000
0100
0000
0001
0000
,
1000
0000
0100
1000
0100
0000
0010
0001
0010
0001
1000
0010
0100
0000
0000
0000
,
0001
0100
0010
0000
1000
0010
1000
0001
1000
0000
0100
0010
0100
0010
0001
0000
,
1000
0000
0010
0100
0010
0000
0100
0000
0001
0000
1000
0000
2002
0000
3003
0000
,
0001
0100
0001
0100
0001
0100
0001
0100
,
0001
0010
0001
0010
0001
0010
0001
0010
,
0100
1000
0100
1000
0010
1000
0010
1000
,
0001
0000
0100
0000
0001
0000
0010
0000
0100
1000
0100
1000
0001
0100
0001
0100
,
0010
0000
1010
0000
1000
0001
0010
0011
,
0000
1001
0000
1100
0000
1010
0010
0000
,
0110
0000
0101
0000
0011
0010
0100
1000
,
0000
1010
0010
1001
0000
1000
1000
0100
,
0011
0000
1001
0000
1010
0000
0010
0100
,
0001
0000
0011
0000
0000
0000
1100
0000
0000
0000
1001
0000
0001
0000
1000
0100
,
1000
0000
0110
0000
0011
0000
1100
1000
,
0000
1010
0000
0202
0000
0000
0303
0000
,
0000
0100
1010
0000
0000
0010
0100
0010
,
1000
1000
0001
0010
0100
1000
1100
0000
,
0000
0100
0011
0000
0000
0001
1000
0010
,
0100
0010
0010
0100
0101
0001
1001
0000
,
0021
0000
0100
0130
0012
0000
1000
1003
,
1020
0000
0000
0000
0130
0010
0100
0000
0001
0010
0100
0000
1001
0000
0000
0000
,
1000
0001
1000
0001
0100
0000
0100
0000
0001
1000
0001
1000
0010
0000
0010
0000
,
1000
0001
0100
0000
0010
1000
0001
0000
0010
0100
1000
0000
1001
0000
0000
0000
,
0002
0100
0103
0020
1000
1030
0002
0010
,
0013
0200
1000
1300
0020
0100
0130
0001
,
2000
0100
3100
0020
0001
0031
2000
0010
,
3010
0200
0001
0301
0020
0100
0130
1000
,
0002
0010
0010
0023
0100
0100
0230
1000
,
1000
2300
0010
0010
3020
0130
0101
0001
,
2000
0100
0100
3200
0010
0010
0320
0001
,
0032
0000
0203
0000
0320
1000
1030
0001
,
0010
0000
0001
0000
1000
0000
0010
0000
0100
0000
0010
1000
0001
0000
0000
0000
,
1000
0010
1000
0000
0001
0100
0001
0000
0010
0100
1000
0000
0010
0000
0000
0000
,
1000
0100
1000
0000
0010
0000
0100
0001
0100
0000
0010
0000
1000
0100
1000
0000
,
0100
0000
0010
0001
0010
0001
0010
0000
0100
0000
1000
0000
1010
0000
0000
0000
,
0010
0000
0100
0000
0001
0000
1000
0100
0010
0000
0001
0000
0100
0001
0100
0001
,
1000
0000
0100
0000
0010
0001
0100
0000
0010
0000
0010
0000
0110
0000
0000
0000
,
1000
0001
0100
0010
0000
0100
0000
0001
0010
0000
0100
1000
0001
0000
0100
0000
,
0001
0010
0001
0000
0010
0100
0010
0000
0100
1000
0001
0100
0010
0000
0000
0000
,
1000
0000
0001
0010
0100
0000
1000
0000
,
0001
0100
0001
0100
0010
0000
1000
0000
,
0001
0000
0010
0100
1000
0000
0001
0000
,
1000
0010
1000
0010
0100
0000
0001
0000
,
1000
0000
0010
0100
0001
0000
0010
0000
,
0001
1000
0001
1000
0100
0000
0010
0000
,
0001
0000
0100
0010
1000
0000
0001
0000
,
0010
0001
0010
0001
1000
0010
0100
0000
,
0002
0000
0000
1000
0000
0000
0100
0000
,
0000
1000
0000
0000
0010
0000
0000
0000
,
2003
0000
0000
0001
0000
0000
0010
0000
,
0000
3002
0000
0000
0100
0000
0000
0000
,
2003
0000
0000
0100
0000
0000
0001
0000
,
0000
3020
0000
0000
1000
0000
0000
0000
,
0230
0000
0000
0001
0000
0000
0010
0000
,
0000
0001
0000
0000
0010
0000
0002
0000
,
0303
0000
0000
0000
,
0000
0000
0000
0000
;
#NOTES:
     dance-double:
     :
     Easy:
     9:
     :
00000000
00000000
00000000
00000000
,
00000000
00000000
00000000
00000000
,
00000000
00000000
00000000
00000000
,
00000000
00000000
00000000
00000000
,
00000000
00000000
00000000
00000000
,
00001000
00000000
00000000
00001000
00000000
00000000
00010000
00000000
,
00000000
00010000
00000000
00000000
00001000
00000000
00010000
00000000
,
00000010
00000000
00000000
00000010
00000000
00000000
00000100
00000000
,
00000001
00000001
00000010
00000100
,
00001100
00001000
00000001
00000100
,
00000010
00001000
00000001
00000001
,
00000010
00000100
00001000
00000001
,
00000100
00000000
00001000
00000000
00010000
00001000
00010000
00000000
,
00001000
01000000
00100000
10000000
,
00010000
00100000
01000000
01000000
,
00100000
00010000
00100000
00001000
,
00010000
00000000
00001000
00010000
00001000
00000000
00000000
00000000
,
00010000
00001000
00000010
00001000
,
00010000
00001000
00000100
00000001
,
00000010
00000100
00001100
00011000
,
00110000
01100000
11000000
00000000
,
10010000
10000000
01000000
00100000
,
00010000
01000000
00001000
00011000
,
00020000
00030200
00000310
00000001
,
00001000
00000010
00000110
00000000
,
00000001
00000010
00000001
00000100
,
00000010
00010000
00001000
00101000
,
00100000
00010000
00100000
01000000
,
10000000
00100000
01000000
01010000
,
00010000
00100000
00001000
00010000
,
00000100
00000010
00000001
00001001
,
00001000
00000010
00000100
00001000
,
00010000
00100000
01000000
00010000
,
00200000
00010000
00010000
00310000
,
00020000
01000000
01000000
01030000
,
02000000
00001000
00001000
03001000
,
00002000
00010000
00010000
00013000
,
00011000
00010000
00000010
00001000
,
00000001
00001000
00000001
00001000
,
00000100
00000000
00001000
00000000
00000010
00000000
00010000
00010000
,
00000000
00001000
00000000
00022000
00000000
00000000
00033000
00000000
,
00011000
00001000
00100000
00010000
,
10000000
10000000
00010000
00010000
,
01000000
00000000
00010000
00000000
00100000
00000000
00001000
00001000
,
00000000
00010000
00000000
00022000
00000000
00000000
00033000
00000000
,
00000000
00001000
00001000
00000000
00000000
00000000
00010000
00000000
,
00000100
00000000
00000010
00000000
00000100
00001000
00000100
00000000
,
00000000
00010000
00010000
00000000
00000000
00000000
00001000
00000000
,
01000000
00000000
00100000
00000000
01000000
00010000
01000000
00000000
,
00010000
00010000
10000000
10000000
,
02000000
00000000
03100000
00000000
00010000
00100000
00010000
00000000
,
00100000
00011000
00100000
00011000
,
00010000
00000100
00001100
00001001
,
00000001
00000000
00000000
00000100
00000000
00000000
00000010
00000000
,
00000000
00001000
00000000
00000000
00000100
00000000
00000100
00000000
,
00010000
00000000
00000000
00001000
00000000
00000000
00100000
00000000
,
00000000
00010000
00000000
00000000
01000000
00000000
01000000
00000000
,
00100000
00000000
00000000
10000000
00000000
00000000
01000000
00000000
,
00000000
00010000
00000000
00000000
00001000
00000000
00010000
00000000
,
00001000
00000000
00000000
00000010
00000000
00000000
00000001
00000000
,
00002000
00003020
00000230
00000302
,
00000013
00000100
00001100
00000000
,
00001000
00000100
00010100
00000000
,
00010000
00001000
00000100
00001000
,
00010000
00000000
00001000
00000000
00100000
00010000
00100000
00000000
,
01000000
10000000
10010000
00000000
,
00010000
00100000
00101000
00000000
,
00001000
00010000
01000000
00010000
,
00001000
00000000
00010000
00000000
00001000
00010000
00001000
00000000
,
00020000
00000000
00031000
00000000
,
00002000
00000000
00003100
00000000
,
00000200
00000000
00000301
00000000
,
00000001
00000010
00000100
00001000
,
00000002
00000000
00000103
00000000
,
00000200
00000000
00001300
00000000
,
00002000
00000000
00013000
00000000
,
00001000
00010000
00100000
01000000
,
00200000
00000000
00000000
00000000
,
00000000
00000000
00000000
00300000
,
20000000
00000000
00000000
00000000
00000000
00000000
00000000
30000000
,
00000000
02000000
00000000
00000000
00000000
00000000
03000000
00000000
,
00020000
00000000
00000000
00000000
00000000
00000000
00000000
00030000
,
00000000
00002000
00000000
00000000
00000000
00000000
00003000
00000000
,
00000200
00000000
00000000
00000000
,
00000000
00000000
00000000
00000000
,
00000300
00000000
00000000
00000000
,
00000000
00000000
00000000
00000000
;
#NOTES:
     dance-double:
     :
     Medium:
     12:
     :
00000000
00000000
00000000
00000000
,
00000000
00000000
00000000
00000000
,
00000000
00000000
00000000
00000000
,
00000000
00000000
00000000
00000000
,
00000000
00000000
00000000
00000000
,
00001000
00001000
00010000
00000100
00000000
00000000
00010000
00010000
,
00001000
01000000
00000000
00000000
00011000
00000000
00101000
00000000
,
00100000
00010000
10000000
00100000
01000000
00010000
00200000
00000000
,
00302000
00000000
00023000
00000000
00030100
00001000
00000010
00000000
,
00001000
00001000
00000001
00000010
00000100
00001000
00000001
00000100
,
00000010
00001000
00000100
00010000
00001000
00010000
00100000
00000000
,
00010000
00001000
00100000
00010000
10000000
00100000
10000000
01000000
,
00100000
00010000
01000000
00001000
00010000
00001000
00000010
00000000
,
00001000
00010000
00000010
00001000
00000100
00000010
00000001
00000010
,
00000100
00001000
00000010
00010000
00001000
00010000
01000000
00000000
,
00010000
00001000
01000000
00010000
00100000
01000000
10000000
00010000
,
01000000
00100000
00010000
00001000
00100000
00000000
00000000
00000000
,
01000000
00000000
00010000
00000000
00001000
00000000
00100000
00000000
00000000
00001000
00000000
00010000
00001000
00000000
00100000
00000000
,
00010000
01000000
00100000
10000000
00010000
00100000
00001000
00010000
,
00000100
00010000
00001000
00010000
00100000
00010000
00001000
00000010
,
00001000
00010000
00100000
00010000
00001000
00011000
00000000
00000000
,
00010000
00000100
00000010
00000000
00000010
00000100
00001000
00000000
,
00000100
00000010
00000001
00000010
00001000
00000000
00011000
00000000
,
00002000
00023000
00230000
02300000
03010000
00100000
00001000
01000000
,
00100000
00010000
00001000
00100000
00010000
01001000
00000000
00000000
,
01000000
00010000
00100000
00000000
01000000
10000000
00100000
00000000
,
10000000
01000000
00010000
00001000
00010000
00001000
00000100
00000000
,
00000001
00000100
00001000
00010000
00100000
00010000
00001000
00010000
,
00001000
00000010
00001000
00010000
01000000
10000000
00100000
00000000
,
01100000
00000000
01001000
00000000
00001000
00010000
01000000
00000000
,
00100000
00001000
00010000
00000010
00010000
00001000
00000010
00000000
,
00000210
00001000
00010300
00011000
,
00001000
00010000
01000000
00010000
00001000
01000000
01001000
00000000
,
00001000
00010000
00100000
10000000
,
10000000
01000000
00010000
00001000
,
00010000
00001000
00000100
00000001
,
00000001
00000010
00000001
00000010
00000100
00001000
00000010
00000000
,
00000102
00000000
00001003
00000000
00002100
00000000
00003010
00010000
,
00000000
00012000
00000000
00003200
00000000
00000310
00010000
00000000
,
00012000
00000000
00103000
00000000
00210000
00000000
00301000
00010000
,
00000000
00100000
00000000
02200000
00000000
00000000
03300000
00000000
,
20010000
00000000
31000000
00000000
00120000
00000000
01030000
00001000
,
00000000
00021000
00000000
00230000
00000000
01300000
00001000
00000000
,
00021000
00000000
00030100
00000000
00001200
00000000
00010300
00001000
,
00000000
00000100
00000000
00000220
00000000
00000000
00000330
00000000
,
00000000
00000010
00001010
00000000
00000000
00000010
00000100
00000010
,
00000001
00000010
00000100
00000010
00001000
00000010
00010000
00000000
,
00000000
00001000
00101000
00000000
00000000
00100000
01000000
00100000
,
10000000
00100000
01000000
00100000
00010000
00100000
00001000
00000000
,
00011000
00000000
00010000
00000100
00000001
00000000
00000100
00001000
,
00000020
00000000
00010030
00001000
00010000
00100000
01000000
00000000
,
00010000
00010000
10000000
10000000
01000000
00100000
00001000
00010000
,
00000100
00000010
00000001
00000000
00001100
00000000
00001001
00000000
,
00000002
00000000
00000013
00000100
00000000
00000000
00002000
00000000
,
00003100
00000010
00000000
00000000
00000010
00001000
00010000
00000000
,
00002000
00000000
00103000
00010000
00000000
00000000
00200000
00000000
,
01300000
10000000
00000000
00000000
10000000
01000000
00010000
00000000
,
00002000
00000000
00013000
00000100
00000000
00000000
00002000
00000000
,
00003010
00000100
00000000
00000000
00000001
00000010
00001000
00000000
,
00020000
00000000
00031000
00100000
00000000
00000000
00010000
00000000
,
02000000
03200000
00320000
00032000
,
00013000
00010000
00000100
00000010
00000001
00001000
00001010
00000000
,
00000010
00010000
00001000
01000000
00010000
00100000
00110000
00000000
,
00010000
10000000
01000000
00100000
00010000
01000000
00001000
00010000
,
00000010
00000100
00000001
00001000
00000100
00000010
00000011
00000000
,
00000001
00001000
00000010
00010000
00001000
01000000
00010000
10000000
,
01000000
00100000
00010000
01000000
00010000
10000000
10010000
00000000
,
00010000
00000000
00000000
01000000
00000000
00100000
00000000
01000000
00010000
00000000
00100000
00000000
01000000
00000000
10000000
00000000
,
01000000
00010000
00001000
00000010
00000001
00000100
00000110
00000000
,
00000010
00000000
00000000
00001000
00000001
00000000
00000100
00000000
,
00001000
00000000
00010000
00001000
00100000
00000000
00000000
00000000
,
01000000
00000000
00000000
10000000
00010000
00000000
10000000
00000000
,
01000000
00000000
00100000
00001000
00010000
00000000
00000000
00000000
,
00000010
00000000
00000000
00001000
00000001
00000000
00000010
00000000
,
00000100
00000000
00001000
00000100
00010000
00000000
00000000
00000000
,
00001000
00000000
00000000
00100000
00010000
00000000
00100000
00000000
,
01000000
00000000
10000000
00010000
01000000
00000000
00100000
00000000
,
20000000
00000000
00000000
00000000
,
00000000
00000000
00000000
00000000
00000000
00000000
00000000
30000000
,
02000000
00000000
00000000
00000000
,
03000000
00020000
00000000
00000000
00000000
00000000
00000000
00030000
,
00002000
00000000
00000000
00000000
,
00003000
00000200
00000000
00000000
00000000
00000000
00000000
00000300
,
00000020
00000000
00000000
00000000
,
00000000
00000000
00000000
00000000
,
00000030
00000000
00000000
00000000
,
00000000
00000000
00000000
00000000
;
#NOTES:
     dance-double:
     :
     Hard:
     16:
     :
00000000
00000000
00000000
00000000
,
00000000
00000000
00000000
00000000
,
00000000
00000000
00000000
00000000
,
00000000
00000000
00000000
00000000
,
00000000
00000000
00000000
00000000
,
00001000
00010000
00100000
00010000
00000000
00000000
00010000
00001000
,
00000010
00001000
00000000
00000000
00010000
00000000
00011000
00000000
,
00001000
00010000
00001000
00010000
00001000
00000000
00100000
00010000
00100000
00010000
00100000
00000000
00010000
00000000
10000000
00000000
,
02000000
00000000
00000000
00000000
03200000
00000000
00000000
00000000
00310000
00000000
00100000
00001000
00010000
00000000
00001000
00000000
,
00010000
00000100
00000000
00000100
00001000
00000000
00000010
00000000
00010000
00001000
00000000
00000100
00000010
00000000
00001000
00000000
,
00000001
00000010
00000100
00000000
00001000
00000100
00010000
00000000
00001000
00000000
00010000
00000000
00100000
00000000
00000000
00000000
,
01000000
00001000
00000000
00001000
00010000
00000000
01000000
00000000
10000000
01000000
00000000
00100000
00010000
00000000
00100000
00000000
,
00001000
00010000
00000100
00000000
00001000
00000010
00000100
00000000
00000001
00000000
00000100
00000000
00001000
00000000
00000000
00000000
,
00010000
00000000
00100000
00000000
00100000
01000000
00010000
00000000
10000000
00000000
00010000
00100000
01000000
00000000
10000000
00000000
,
01000000
00100000
00010000
00000000
00100000
00001000
00010000
00000000
00001000
00010000
00000100
00001000
00000010
00000000
00000000
00000000
,
00010000
00000000
00001000
00000000
00000010
00000000
00000100
00010000
00001000
00010000
00001000
00000000
00010000
00001000
01000000
00000000
,
00010000
00100000
00010000
00100000
01000000
00000000
10000000
00000000
10010000
00000000
00000000
00000000
00000000
00000000
00000000
00000000
,
00010000
00000000
00100000
00000000
00001000
00010000
00001000
00000000
00000000
00010000
00000000
00000010
00001000
00000000
00000100
00000000
,
00010000
00001000
00010000
00000000
01000000
00000000
10000000
00000000
00100000
00000000
01000000
00000000
00010000
00000000
10000000
00000000
,
01000000
00100000
00010000
00001000
00010000
00000010
00000001
00000100
,
00000010
00001000
00010000
00001000
00100000
10000000
00000000
00000000
,
00010000
10000000
00010000
00000000
00100000
00000000
01000000
00000000
00010000
00000000
00001000
00000000
00010000
00001000
00010000
00001000
,
00010000
00000000
00001000
00000000
00000100
00000000
00000001
00000100
00000010
00000000
00000000
00000000
00010010
00000000
00000000
00000000
,
00020000
00000000
00032000
00000000
00013000
00000000
00100000
01000000
00010000
00000000
02000000
00000000
23000000
00000000
32000000
00000000
,
03200000
00000000
00320000
00000000
00032000
00000000
00003020
00000000
00000032
00000000
00000003
00000000
00001000
00000100
00001000
00000000
,
00000001
00000000
00000100
00000010
00001000
00000000
00000100
00000000
00010000
00001000
01000000
00000000
00010000
00100000
01000000
00000000
,
10000000
00010000
10000000
00010000
01000000
00000000
00010000
00000000
00100000
00000000
00001000
00000000
00011000
00000000
00000000
00000000
,
00010000
00000000
00001000
00000000
00000010
00000000
00001000
00000000
00010000
00000100
00001000
00000000
00000001
00000010
00000100
00000000
,
00010000
00001000
00010000
00001000
00010000
00000000
00001000
00000000
01000000
00010000
01000000
00010000
00100000
00000000
00000000
00000000
,
01000000
10000000
00100000
00000000
01000000
00010000
00100000
00000000
01000000
00000000
10000000
00000000
01000000
00000000
00010000
00000000
,
00001000
00000000
00000010
00000000
00000001
00000000
00001000
00000010
00001000
00000010
00000100
00000000
00000001
00000000
00000000
00000000
,
00000001
00000010
00000100
00000000
00001000
00000100
00000010
00000000
00001000
00000000
00010000
00000000
01000000
00000000
10000000
00000000
,
00010000
00000000
00010000
00000000
01000000
00100000
01000000
00000000
00010000
00000000
10000000
00000000
20020000
00000000
30030000
00000000
,
10000000
01000000
10000000
01000000
10000000
01000000
10000000
01000000
,
00010000
00001000
00010000
00001000
00010000
00001000
00010000
00001000
,
00000100
00000001
00000100
00000001
00000010
00001000
00000010
00001000
,
00010000
00000000
00001000
00000000
00100000
00000000
00010000
00000000
00100000
00010000
00100000
00010000
10000000
00100000
10000000
00100000
,
01000000
00000000
01010000
00000000
00110000
00000000
00001000
00010000
,
00000000
00010100
00000000
00000110
00000000
00000011
00000001
00000000
,
00001001
00000000
00001010
00000000
00010010
00000000
00010000
00011000
,
00000000
01001000
01000000
10010000
00000000
00100000
01100000
00000000
,
10100000
00000000
01010000
00000000
01001000
00000000
00001000
00011000
,
00000000
00010100
00000000
00001100
00000000
00001010
00000010
00000000
,
00010010
00000000
00011000
00000000
01001000
00000000
00110000
00100000
,
00000000
10010000
00000000
02020000
00000000
00000000
03030000
00000000
,
00000000
01000000
10100000
00000000
00000000
00100000
00010000
00001000
,
00010000
00000100
00010000
00001000
00000010
00000100
00001100
00000000
,
00000000
00000100
00000011
00000000
00000000
00000010
00001000
00010000
,
00001000
01000000
00001000
00010000
00100000
01000000
11000000
00000000
,
01100000
00000000
01000000
00001000
00010000
00000000
01000000
00010000
,
00002000
00000000
00003010
00000100
00010000
00001000
01001000
00000000
,
00001000
00010000
00100000
00010000
00001000
00000100
00001000
00010000
,
00100000
00000000
01000000
00000000
01000000
00000000
00010000
00000000
00100000
00000000
01000000
10000000
01000000
10000000
01000000
00000000
,
00200000
00010000
00010000
00302000
00010000
00010000
02003000
00010000
,
00010000
03200000
10000000
10000000
02300000
00010000
03001000
00000000
,
00020000
00001000
00001000
00030020
00001000
00001000
00020030
00001000
,
00001000
00030200
00001000
00001000
00000320
00000001
00000031
00000010
,
00000200
00001000
00001300
00000002
00000010
00000013
00000200
00001000
,
00001300
00000020
00010000
00010030
00001000
00100000
00110000
00000000
,
00200000
00010000
00310000
20000000
01000000
31000000
00100000
00010000
,
20000000
00000000
32000000
00000000
03020000
00001000
00031000
00010000
,
00001000
00000000
00001000
00000000
00000100
00000000
00000100
00000000
00000010
00000000
00000010
00001000
00000001
00000000
00000000
00000000
,
00000010
00000001
00000010
00000000
00000100
00001000
00000100
00000000
00010000
00000000
00001000
00010000
00100000
00000000
00000000
00000000
,
00010000
00001000
00010000
00000000
00000010
00000000
00010000
00001000
00010000
00000000
00000100
00000000
00010000
00001000
00000010
00000000
,
00000100
00000000
00010000
00000000
00001000
00000000
00010000
00000000
01000000
00000000
10000000
01000000
00100000
00000000
00000000
00000000
,
00010000
00000000
00100000
00000000
00001000
00010000
00001000
00010000
00001000
00000000
00010000
00000000
00000010
00001000
00000010
00001000
,
00000010
00000000
00000100
00000000
00000001
00001000
00000001
00001000
00000001
00000000
00000010
00000000
00000100
00000000
00000000
00000000
,
00001000
00000000
00000100
00010000
00000000
00001000
00000000
00100000
00010000
00000000
10000000
00100000
01000000
00000000
00010000
00000000
,
00100000
00010000
00100000
00000000
01000000
10000000
01000000
00000000
10000000
00010000
01000000
00100000
10000000
00000000
00000000
00000000
,
00100000
00000000
10000000
00100000
00010000
00000000
00001000
00000000
,
00010000
00000100
00000010
00000000
00001000
00000000
00000010
00000000
,
00000001
00000000
00000001
00000100
00001000
00000000
00010000
00000000
,
00001000
00000000
00100000
01000000
00010000
00000000
01000000
00000000
,
10000000
00000000
00100000
01000000
00010000
00000000
00100000
00000000
,
00001000
00010000
00000100
00000000
00000010
00000000
00000001
00000000
,
00000001
00000000
00000100
00000010
00001000
00000000
00000100
00000000
,
00010000
00000000
00001000
00100000
01000000
00000000
10000000
00000000
,
00020000
00000000
00000000
00100000
00000000
00000000
10000000
00000000
,
00000000
01000000
00000000
00000000
10000000
00000000
00000000
00000000
,
00230000
00000000
00000000
01000000
00000000
00000000
00010000
00000000
,
00000000
00302000
00000000
00000000
00000010
00000000
00000000
00000000
,
00023000
00000000
00000000
00000100
00000000
00000000
00001000
00000000
,
00000000
00030020
00000000
00000000
00001000
00000000
00000000
00000000
,
00000230
00000000
00000000
00000001
00000000
00000000
00000010
00000000
,
00000000
00001000
00000000
00000000
00000010
00000000
00000002
00000000
,
00000303
00000000
00000000
00000000
,
00000000
00000000
00000000
00000000
;
