
//----- song ID: rodi -----//
#TITLE:Roll the Dice;
#ARTIST:lapix;
#BANNER:Roll the Dice.png;
#BACKGROUND:Roll the Dice-bg.png;
#CDTITLE:./CDTitles/DDR WORLD.png;
#MUSIC:Roll the Dice.ogg;
#SAMPLESTART:95.988;
#SAMPLELENGTH:15;
#BPMS:0=165;
#NOTES:
     dance-single:
     :
     Beginner:
     4:
     :
0000
0000
0000
0000
,
0000
0000
0000
0000
,
0000
0000
0000
0000
,
0000
0000
0000
0000
,
0000
0000
0000
0000
,
0000
0000
0000
0000
,
1000
0000
0000
0000
,
0001
0000
0000
0000
,
1000
0000
0001
0000
,
1000
0000
0000
0000
,
0001
0000
0100
0000
,
0001
0000
0000
0000
,
0100
0000
0010
0000
,
0100
0000
0000
0000
,
0010
0000
1000
0000
,
0010
0000
1000
0000
,
0001
0000
1000
0000
,
2002
0000
3003
0000
,
0001
0000
0000
0000
,
0001
0000
0000
0000
,
1000
0000
0100
0000
,
1000
0000
0000
0000
,
0100
0000
0000
0000
,
0100
0000
0000
0000
,
0010
0000
0001
0000
,
0010
0000
0000
0000
,
0001
0000
0000
0000
,
0001
0000
0000
0000
,
1000
0000
0010
0000
,
1000
0000
0000
0000
,
0010
0000
0100
0000
,
0010
0000
0100
0000
,
0001
0000
1000
0000
,
0001
0000
0000
0000
,
1000
0000
0010
0000
,
1000
0000
0001
0000
,
0010
0000
0100
0000
,
0010
0000
0100
0000
,
1000
0000
0001
0000
,
1000
0000
0010
0000
,
0100
0000
0010
0000
,
0110
0000
0000
0000
,
0100
0000
0000
0100
,
0000
0000
0000
0000
,
0001
0000
0000
0001
,
0000
0000
0000
0000
,
1000
0000
0000
1000
,
0000
0000
0000
0000
,
0010
0000
0000
0010
,
0000
0000
0000
0000
,
0100
0000
0000
0000
,
0000
0000
0000
0000
,
0000
0000
0000
0000
,
0000
0000
0000
0000
,
0001
0000
0000
0000
,
1000
0000
0000
0000
,
0001
0000
0010
0000
,
0100
0000
1000
0000
,
0001
0000
0100
0000
,
0001
0000
0100
0000
,
0010
0000
1000
0000
,
0010
0000
1000
0000
,
0001
0000
0010
0000
,
0001
0000
0010
0000
,
0100
0000
1000
0000
,
0100
0000
0000
0000
,
1000
0000
0100
0000
,
0010
0000
0001
0000
,
1000
0000
0100
0000
,
0010
0000
0001
0000
,
1000
0000
0010
0000
,
0100
0000
0001
0000
,
1000
0000
0010
0000
,
0200
0000
0300
0000
,
0001
0000
0100
0000
,
0010
0000
1000
0000
,
0001
0000
0100
0000
,
0010
0000
1000
0000
,
0001
0000
0010
0000
,
0100
0000
1000
0000
,
0001
0000
0010
0000
,
0100
0000
0000
0000
,
0110
0000
0000
0000
,
0000
0000
0000
0000
;
#NOTES:
     dance-single:
     :
     Easy:
     8:
     :
0000
0000
0000
0000
,
0000
0000
0000
0000
,
0000
0000
0000
0000
,
0000
0000
0000
0000
,
0000
0000
0000
0000
,
0000
0000
0000
0000
,
1100
0000
0001
0000
,
0011
0000
1000
0000
,
0001
0100
0001
0100
,
0010
1000
0001
0100
,
0001
1000
0001
0000
,
1000
0010
0100
0000
,
0001
0100
0001
0000
,
1000
0100
0010
0000
,
0001
0011
1000
1010
,
1100
0101
0011
1010
,
1000
0100
0010
0001
,
2002
0000
3003
0000
,
2000
0000
3020
0000
,
2030
0000
3002
0000
,
0023
0032
0203
0320
,
1030
0000
0001
1000
,
0002
0000
0203
0000
,
0302
0000
0023
0230
,
2300
3002
0203
0000
,
0310
1000
0100
1000
,
0002
0000
2003
0001
,
3002
0000
1003
1010
,
0020
0230
0302
2003
,
3200
0000
1300
0001
,
1000
0010
1000
0010
,
1000
0100
1000
0010
,
0100
0001
0100
0001
,
1000
0001
0100
0010
,
1000
0100
1000
0001
,
0100
0010
0100
0010
,
1000
0001
0010
0100
,
1000
0010
0100
0001
,
0010
0001
0010
0001
,
0100
0010
1000
0100
,
1000
0100
0010
0001
,
1001
0000
0000
1010
0000
0000
0101
0000
,
0001
0100
0001
1000
,
0010
1000
0010
0100
,
0001
1000
0001
0010
,
0000
0100
0000
0000
0010
0000
0200
0000
,
1300
0100
1000
0100
,
0010
0001
0010
0001
,
1000
0010
0100
0001
,
0000
0100
0000
0000
0010
0000
1000
0000
,
0001
0000
0000
0000
,
0000
0000
0000
0000
,
0000
0000
0000
0000
,
0000
0000
0000
0000
,
1001
0000
1100
0000
,
1001
0000
0101
0000
,
0001
0100
0010
1000
,
0001
0010
0100
1000
,
0001
0100
0001
0100
,
0010
1000
0100
0010
,
0100
1000
0100
1000
,
0001
0010
0100
1000
,
0001
0100
0001
0100
,
0010
1000
0010
1000
,
0001
0001
1000
1000
,
0010
0100
0010
1001
,
0001
0010
0001
0010
,
0100
1000
0100
1000
,
0001
0100
0001
0100
,
0010
1000
0100
1000
,
0001
1000
0001
1000
,
0010
0100
0010
0100
,
0001
0010
0001
1000
,
0020
0000
0000
0000
,
1030
0100
1000
0001
,
0010
0001
0100
0010
,
1000
0001
0100
0001
,
1000
0010
1000
0001
,
0010
0100
1000
0100
,
0010
0001
0100
0010
,
1000
0001
0010
0100
,
1000
0000
0001
0000
,
1001
0000
0000
0000
,
0000
0000
0000
0000
;
#NOTES:
     dance-single:
     :
     Medium:
     12:
     :
0000
0000
0000
0000
,
0000
0000
0000
0000
,
0000
0000
0000
0000
,
0000
0000
0000
0000
,
0000
0000
0000
0000
,
0000
0000
0000
0000
,
0001
0100
0001
0000
0100
0000
0010
0000
,
1000
0001
1000
0000
0100
0000
0010
0000
,
0001
0100
0001
0100
0010
1000
0010
1000
,
0100
0010
0100
0010
0001
0100
0010
0000
,
0100
0010
0100
0000
0010
1000
0001
0000
,
1000
0100
0010
0001
1000
0100
0010
0001
,
1000
0001
1000
0000
0001
0010
0100
0000
,
1000
0010
0100
0001
1000
0010
0100
0001
,
0101
0110
1010
1001
,
1000
0100
1000
0100
0010
0001
0010
0001
,
1000
0010
0100
0001
1000
0100
0010
0001
,
1000
1000
1000
1000
1000
0000
1001
0000
,
0001
0200
0000
0000
0310
0200
0000
0000
,
0301
0200
0000
0000
0310
1000
0200
0000
,
1300
0001
0020
0000
0230
0000
0320
0000
,
0031
0001
0001
0000
1000
0010
0100
0001
,
1000
0200
0000
0000
0310
0200
0000
0000
,
1300
0200
0000
0000
0320
0000
0031
0100
,
0010
1000
0200
0000
1300
1000
1000
1000
,
0001
0100
0001
1000
0010
1000
0100
0010
,
0001
0020
0000
0000
0130
0020
0000
0000
,
0031
0020
0000
0130
1000
0100
1000
0100
,
1000
0010
0200
0000
0301
0010
0200
0000
,
0310
0010
0010
0000
0100
1000
0001
0100
,
0010
0100
0010
0100
0010
0100
0010
0100
,
0010
1000
0200
0000
0310
0001
0200
0000
,
0301
0010
0100
1000
0001
0100
0010
1000
,
0001
0100
0001
0100
0010
1000
0010
1000
,
1010
0011
0101
1100
,
0001
0100
0010
0100
0001
1000
0100
0000
,
1000
0100
0010
0000
0100
0010
0001
0000
,
1000
0010
0100
0010
1000
0001
0010
0000
,
0011
1010
1100
0101
,
1000
0100
0010
0001
1000
0010
1000
0000
,
0001
0100
0010
0000
0100
0010
1000
0000
,
1100
0000
0000
0001
0000
0000
0101
0000
0000
1000
0000
0000
0100
0000
0100
0000
,
1000
0000
0000
0001
0000
0000
0100
0000
0000
0000
0000
0000
0001
0000
0000
1000
,
0000
0000
0001
0000
0000
0010
0000
0000
0100
0000
0010
0000
0100
0000
0000
0000
,
0010
0000
0000
0001
0000
0000
1000
0000
0000
0000
0000
0000
0010
0000
0000
0100
,
0000
0000
0010
0000
0000
0100
0000
0000
0001
0000
1000
0000
0020
0000
0000
0000
,
1030
0010
1000
0010
0100
0001
0010
0100
,
0010
0100
0010
0001
1000
0010
1000
0000
,
0001
0000
0000
0010
0000
0000
0100
0000
0000
0000
0000
0000
1000
0000
0000
0010
,
0000
0000
0100
0000
0000
0001
0000
0000
1000
0000
0100
0000
0010
0000
0000
0000
,
0100
0000
0000
0000
,
0000
0000
0000
0000
,
0000
0000
0000
0000
,
0000
0000
0000
0000
,
1100
1000
0101
0001
,
0011
1000
1010
0001
,
1000
0100
1000
0100
0010
0001
0010
0001
,
1000
0100
0010
0001
0100
0010
0100
0000
,
0001
0100
0001
0000
0100
0010
1000
0000
,
0001
0010
0100
1000
0001
0100
0010
1000
,
0100
0010
0100
0000
1000
0010
0100
0000
,
0001
0010
0100
1000
0001
0100
0010
1000
,
0001
0100
0001
0100
0010
1000
0010
1000
,
0001
0010
0001
0010
0100
1000
0100
1000
,
0010
0100
0010
0100
0010
0100
0010
0100
,
0001
1000
0001
1000
0001
0000
0110
0000
,
1000
0100
1000
0000
0100
0010
0100
0000
,
0010
0001
1000
0000
0001
0100
0010
0000
,
1000
0010
1000
0000
0010
0100
0010
0000
,
0100
0001
1000
0000
0100
0010
0001
0000
,
1000
0100
0010
0000
0100
0010
0001
0000
,
0100
0010
1000
0000
0100
0010
0001
0000
,
1000
0010
0100
0000
0010
0100
0001
0000
,
1000
0000
0000
1000
0000
0000
1000
0000
0000
1000
0000
0000
0001
0000
1000
0000
,
0001
0010
0001
0000
0010
0001
0100
0000
,
0010
1000
0100
0000
1000
0001
0100
0000
,
0001
0100
0010
0000
1000
0100
0010
0000
,
0001
0100
1000
0000
0001
0010
1000
0000
,
0010
0100
0001
0000
0010
0100
1000
0000
,
0001
1000
0010
0000
0100
0001
1000
0000
,
0100
0010
0001
1000
0010
0100
0001
0100
,
0010
0000
0000
1000
0000
0000
1010
0000
0001
0000
0000
0010
0000
0000
0011
0000
,
1001
0000
0000
0000
,
0000
0000
0000
0000
;
#NOTES:
     dance-single:
     :
     Hard:
     15:
     :
0000
0000
0000
0000
,
0000
0000
0000
0000
,
0000
0000
0000
0000
,
0000
0000
0000
0000
,
0000
0000
0000
0000
,
0000
0000
0000
0000
,
1000
0100
1000
0100
1000
0000
0001
0000
0100
0000
0010
0000
1000
0000
0001
0000
,
0010
0100
0010
0100
0010
0000
0001
0000
1000
0000
0010
0000
0100
0000
0001
0000
,
1000
0010
1000
0000
0010
0100
0010
0000
0100
0001
0100
0000
0001
1000
0001
0000
,
1000
0000
0100
0000
0010
0000
0001
0000
1000
0010
1000
0000
0010
0000
0100
0001
,
0100
0000
0010
0000
1000
0000
0001
0000
1000
0000
0100
0010
0100
0000
1000
0000
,
0001
0000
0100
0000
0010
0000
1000
0000
0001
0000
1000
0010
1000
0000
0001
0000
,
0010
0000
0100
0000
1000
0000
0001
0000
1000
0000
0010
0100
0010
0000
1000
0000
,
0001
0000
0010
0000
0100
0000
1000
0000
0001
1000
0001
0000
1000
0000
0100
1000
,
0100
0000
0010
0000
0100
0010
0000
0010
0100
1000
0000
1000
0010
0100
0000
0100
,
0001
0100
0001
0000
1000
0100
1000
0000
0001
0100
0001
0000
1000
0010
1000
0000
,
0001
0000
0010
0000
0100
0000
1000
0000
0001
0100
0001
0100
0010
1000
0010
0000
,
1000
1000
1000
1000
1000
0000
1001
0000
,
0001
0020
0000
0000
0130
0020
0000
0000
,
1030
0020
0000
0000
0130
1000
0020
0000
,
0130
0001
0020
0000
0230
0000
0320
0000
,
0031
0000
0001
0000
0001
0000
0000
0000
1000
0000
0100
0000
0010
0001
0010
0001
,
1000
0020
0000
0000
0130
0020
0000
0000
,
0031
0020
0000
0000
2030
0000
3100
0010
,
0001
0100
0020
0000
1030
1000
1000
1000
,
0001
0000
0010
0000
0100
0000
1000
0000
0001
1000
0001
0000
1000
0000
0100
0000
,
0010
0002
0000
0000
0103
0002
0010
0013
,
0001
0000
2000
0000
0000
0000
3010
0000
1000
0000
0100
0000
1000
0001
1000
0000
,
0010
1000
0200
0000
0310
0001
0200
0000
,
0310
0000
0010
0000
0010
0000
0000
0000
0100
0000
0001
0000
1000
0100
1000
0000
,
0100
0010
0100
0010
0100
0010
0100
0010
,
0100
1000
0020
0000
0130
0001
0020
0000
,
0130
0000
1000
0000
0001
0000
0010
0000
0100
1000
0001
0000
0100
0010
1000
0000
,
0001
0010
0001
0010
0100
0000
0010
0000
0001
0100
0001
0000
1000
0010
1000
0000
,
0001
0100
0001
0010
0001
1000
0010
1000
,
0100
0010
0100
0000
0010
0000
0001
0000
1000
0010
1000
0000
0010
0000
0100
0000
,
0001
0100
0010
0000
0100
0010
1000
0000
0010
1000
0001
0000
1000
0001
0010
0000
,
0100
1000
0100
0000
0010
0000
0001
0000
0100
0001
0100
0000
0010
0000
1000
0000
,
0001
0010
0001
0100
0010
1000
0100
1000
,
0010
0100
0010
0000
0100
0000
0001
0000
1000
0100
1000
0000
0100
0000
0010
0000
,
0001
0010
0100
0000
0010
0001
1000
0100
0000
0000
1000
0000
1001
0000
0000
0000
,
1000
0100
0000
0100
0000
0100
0001
0100
0000
0100
0000
0100
1000
0100
1000
0000
,
0001
0000
0000
0011
0000
0000
1001
0000
1000
0000
0100
0000
1000
0000
0000
1100
,
0000
0000
1001
0000
0000
0101
0000
0000
0001
0000
1000
0000
0010
0000
0000
0000
,
0100
0000
0000
0110
0000
0000
1010
0000
1000
0000
0100
0000
0010
0000
0000
0011
,
0000
0000
1001
0000
0000
1100
0000
0000
1000
0000
0010
0000
0200
0000
0000
0000
,
0310
0100
0010
0100
0001
1000
0100
0010
,
0100
0010
0001
1000
0010
0100
0001
0000
,
1000
0000
0000
1010
0000
0000
0110
0000
0100
0000
0001
0000
0010
0000
0000
0110
,
0000
0000
1100
0000
0000
1010
0000
0000
0010
0000
0100
0000
0001
0000
0010
0100
,
0010
0000
0000
0000
,
0000
0000
0000
0000
,
0000
0000
0000
0000
,
0000
0000
0000
0000
,
0001
0010
0001
1000
0100
0010
0001
1000
0001
1000
0010
0100
,
0010
1000
0010
0100
0001
1000
0100
0010
0100
1000
0001
0100
,
0010
1000
0001
1000
0001
0100
0001
0100
0010
1000
0100
0010
,
0001
1000
0010
0100
0001
0010
0100
1000
0001
1000
0001
1000
,
0001
0000
0100
0001
0100
0000
0010
0000
1000
0000
0001
0010
0001
0000
0100
0000
,
0010
0000
1000
0100
1000
0000
0100
0000
0010
0000
0001
1000
0001
0000
0010
0000
,
0100
0000
1000
0100
1000
0000
0001
0000
0100
0000
0010
1000
0010
0000
0100
0000
,
0001
0000
0100
0001
0100
0000
0010
0000
1000
0001
0100
0000
0001
0000
1000
0001
,
0100
0001
0100
0000
0001
1000
0001
0000
1000
0100
1000
0000
0100
0010
0100
0000
,
0010
0001
0010
0001
1000
0100
0010
0001
,
1000
0100
0010
0000
0001
0010
0100
0000
1000
0100
0010
0000
0001
0010
0100
0000
,
1000
0010
1000
0010
0110
0000
1001
0000
,
1000
0000
0100
0010
0000
0100
1000
0000
0001
0000
0100
0010
0000
0100
0001
0000
,
0010
0000
0100
1000
0000
0100
0010
0000
0001
0000
0100
0010
1000
0000
0010
0000
,
0100
0000
0001
0010
0000
0001
1000
0000
0100
0000
1000
0010
0000
1000
0001
0000
,
0100
0000
0010
1000
0000
0100
0010
0000
0001
0000
1000
0010
0100
0000
0010
0000
,
1000
0000
0010
0100
0000
0010
1000
0000
0001
0000
0010
0100
0000
0010
0001
0000
,
0100
0000
0010
1000
0000
0010
0100
0000
0001
0000
0010
0100
1000
0000
0100
0000
,
1000
0000
0001
0010
0100
0000
0010
0000
0001
0000
1000
0010
0100
0000
0010
0000
,
1000
0000
0001
0100
0000
0010
0100
0000
0000
0001
1000
0100
0010
0100
0010
0000
,
0001
0000
1000
0100
0000
0010
0100
0000
0001
0000
0100
0010
0000
0100
1000
0000
,
0001
0000
0100
1000
0000
0100
0010
0000
1000
0000
0001
0010
0100
0000
0010
0001
,
1000
0000
0001
0010
0000
0001
0100
0000
0010
0000
1000
0100
0000
1000
0010
0000
,
0100
0000
0001
1000
0000
0100
0010
0000
0001
0000
0100
0010
1000
0000
0001
0010
,
0100
0000
1000
0001
1000
0000
0010
0000
0100
0000
0001
1000
0000
0001
0010
0000
,
0100
0000
1000
0010
0100
0000
0010
0000
1000
0000
0001
0000
0010
0100
1000
0000
,
0001
0000
1000
0010
0000
0000
1000
0001
0010
0001
0010
0001
1000
0100
1000
0000
,
0100
0000
0010
0001
0000
0100
0010
0100
0010
0000
1000
0010
0000
1000
0001
1000
,
0001
0000
0000
0000
,
0000
0000
0000
0000
;
#NOTES:
     dance-single:
     :
     Challenge:
     17:
     :
0000
0000
0000
0000
,
0000
0000
0000
0000
,
0000
0000
0000
0000
,
0000
0000
0000
0000
,
0000
0000
0000
0000
,
0000
0000
0000
0000
,
1000
0100
1000
0100
0010
0000
0100
0000
1000
0000
0001
0100
0010
0000
1000
0000
,
0001
0010
0001
0010
0100
0000
0010
0000
0001
0000
1000
0010
0100
0000
0001
0000
,
1000
0010
1000
0000
0010
0100
0010
0000
0100
0001
0100
0001
1000
0100
0010
0001
,
1000
0000
0010
0000
1000
0000
0001
0000
0010
0100
1000
0001
0100
0000
0010
0100
,
0001
0000
1000
0010
0100
0000
0010
0000
1000
0000
0100
0010
0001
0010
0001
0000
,
0100
0000
0010
0100
0001
0000
1000
0000
0010
0000
1000
0001
0010
0000
0001
0000
,
1000
0000
0001
0100
0010
0000
0100
0000
0001
0000
0010
0100
1000
0100
1000
0000
,
0010
0000
0100
0010
1000
0000
0001
0000
0010
0100
0010
0000
0100
0000
1000
0001
,
1000
0000
0010
0000
0100
0010
0000
0010
1000
0100
0000
0100
0010
0001
0000
0001
,
0100
0010
0100
0010
1000
0001
1000
0001
0100
0010
0100
0010
1000
0001
1000
0001
,
1000
0100
0010
0000
0100
0010
0001
0000
1000
0100
1000
0100
0010
0001
0010
0001
,
1000
1000
1000
1000
1000
0000
0110
0000
,
1000
0200
0000
0000
0301
0200
0000
0000
,
1300
0200
0000
0000
0301
0100
0220
0330
,
0010
0001
0200
0000
2300
0000
3200
0300
,
0110
0000
0110
0000
0110
0000
0000
0000
0001
1000
0100
0010
0001
0100
0010
1000
,
0001
0020
0000
0000
1030
0020
0000
0000
,
0031
0020
0000
0000
0230
0000
1300
0001
,
0100
0000
0010
0000
2000
0000
0000
0000
3001
0100
0001
0100
0001
0100
0001
0100
,
0010
1000
0000
0001
0010
0000
0100
0010
0001
1000
0010
0000
0100
0000
0001
0100
,
0010
2000
0000
3000
0001
0020
0100
0130
,
0010
0000
0002
0000
0000
0000
0103
0001
0100
0000
0010
0000
1000
0100
1000
0000
,
0001
0010
2000
0000
3010
0001
0100
0000
,
1010
0000
1010
0000
1010
0000
0000
0000
0001
0010
0100
1000
0100
1000
0001
0100
,
0010
0100
0010
0100
0010
0100
0010
0100
,
0010
0000
1000
0000
0002
0000
0003
0000
0010
0100
0010
0000
0002
0000
1003
0001
,
1000
0000
0010
0000
0100
0000
0001
0000
1000
0010
1000
0010
0100
0001
0100
0001
,
1000
0010
0100
0010
1000
0001
0010
0100
1000
0001
0010
0001
1000
0100
0010
0001
,
1000
0000
0001
0010
0100
0000
0100
0010
0001
0000
0001
1000
0010
0000
0010
1000
,
0001
1000
0100
0010
0100
0010
0001
1000
0001
0100
0010
1000
0010
1000
0001
0010
,
0001
1000
0010
0100
0001
1000
0001
0010
0100
0010
0001
1000
0010
0100
0001
1000
,
0001
0010
0100
1000
0001
1000
0010
1000
0001
0010
0100
1000
0001
0100
0010
1000
,
0001
0000
1000
0100
0010
0000
0010
0100
1000
0000
1000
0001
0100
0000
0100
0001
,
1000
0001
0100
0010
1000
0100
0010
0001
1000
0010
0100
0000
0100
0010
1000
0001
,
1000
0100
0010
0001
0010
0100
0010
0001
1000
0010
0100
0001
0100
0010
1000
0001
,
1000
0010
0000
0010
0000
0010
0100
0001
0000
0001
0000
0001
1000
0100
1000
0100
,
0010
0000
0001
0100
0000
0010
1000
0000
0001
0000
0100
0000
0010
0000
1000
0100
,
0010
0000
0100
0000
1000
0001
0010
0000
0001
0000
1000
0000
1001
0000
0000
0000
,
1000
0000
0100
0010
0001
0000
0010
0000
0001
0000
0100
0000
0110
0000
0000
1010
,
0000
0000
1100
0000
0000
0101
0000
0000
1001
0000
1001
0000
1000
0010
1000
0010
,
0100
0000
0001
0000
0100
0001
0100
0000
0001
0000
0010
0000
0001
0000
0100
0000
,
0010
0000
1000
0000
0100
1000
0100
0000
1000
0000
0010
0000
0100
0001
0100
0001
,
1000
0000
0010
1000
0010
0000
1000
0000
0100
0000
0010
0000
0110
0000
0000
0011
,
0000
0000
1100
0000
0000
0101
0000
0000
1000
0010
0100
0000
0001
0000
1000
0001
,
1000
0000
0000
0000
,
0000
0000
0000
0000
,
0000
0000
0000
0000
,
0000
0000
0000
0000
,
0100
0100
0100
1000
0001
0100
0010
0010
0010
1000
0001
0010
,
0100
0100
0100
1000
0010
0100
0001
0001
0001
0100
0010
1000
,
0001
0010
0001
0010
0100
1000
0100
1000
0001
0100
0001
0100
0010
1000
0001
1000
,
0100
0010
0100
0010
0001
1000
0001
1000
0010
0100
0010
0100
0010
0100
0010
0100
,
0001
0000
1000
0001
0100
0000
0010
0000
1000
0000
0100
0010
0001
1000
0100
0010
,
0001
0000
0100
0010
1000
0000
0001
0000
1000
0000
0010
0100
0001
0000
0010
0000
,
0001
0000
1000
0001
0010
0000
0100
0000
1000
0000
0010
0100
0001
1000
0010
0100
,
0001
0000
0010
0100
1000
0000
0001
0000
1000
0100
0010
0000
0001
0000
1000
0001
,
1000
0000
0001
0100
0010
0100
0010
0100
0001
0000
1000
0100
0010
0100
0010
0100
,
1000
0000
0001
0100
0010
1000
0010
0100
0001
0000
1000
0100
0010
0001
0010
0100
,
1000
0001
0100
0001
1000
0010
0100
0010
1000
0001
0010
0001
1000
0100
0010
0100
,
1000
0001
1000
0001
0010
0001
0010
0001
0010
0000
0000
0000
1001
0000
0000
0000
,
1000
0000
0100
0010
0000
0100
0010
0001
1000
0000
0010
0100
0000
0010
0100
0001
,
1000
0000
0001
0010
0000
0100
1000
0001
1000
0000
0001
0100
0001
0000
0100
0010
,
1000
0000
0001
0010
0000
0001
1000
0100
0010
0000
0001
0100
0000
0001
1000
0010
,
0100
0000
0010
0100
0000
0001
1000
0100
0010
0000
0001
0100
0010
0000
0010
1000
,
0001
0000
0100
0001
0000
0010
0100
1000
0001
0000
0100
0010
0000
1000
0100
0010
,
0001
0000
0010
0100
0000
0010
0001
1000
0010
0000
1000
0001
0010
0000
0001
1000
,
0010
0000
0010
1000
0001
0000
0001
0100
0010
0000
0010
1000
0100
0000
0100
0010
,
0001
0000
1000
0001
0000
1000
0100
0010
0001
1000
0010
0100
0001
0100
0001
0100
,
0001
0000
1000
0010
0000
0100
0001
0010
0001
0000
0100
0010
0000
1000
0100
0010
,
0001
0000
1000
0010
0000
0100
0010
1000
0001
0000
0010
0100
1000
0000
0001
0100
,
0010
0000
0100
0001
0000
1000
0001
0010
0100
0000
0010
0001
0000
1000
0010
0100
,
0001
0000
0010
0100
0000
0010
0001
0100
0010
0000
1000
0010
1000
0000
0001
0010
,
0100
0000
1000
0010
0100
0000
0001
1000
0010
0000
0100
0010
0000
1000
0001
0100
,
0010
0000
0100
0001
1000
0000
0100
1000
0001
0000
0010
0100
1000
0100
1000
0000
,
0001
0010
0100
0010
0100
1000
0001
1000
0010
0100
0010
0100
0001
1000
0100
0010
,
0001
0000
0100
0010
0000
0100
0001
1000
0100
0000
1000
0100
0000
0010
0001
1000
,
0100
0000
0000
0000
,
0000
0000
0000
0000
;
#NOTES:
     dance-double:
     :
     Easy:
     8:
     :
00000000
00000000
00000000
00000000
,
00000000
00000000
00000000
00000000
,
00000000
00000000
00000000
00000000
,
00000000
00000000
00000000
00000000
,
00000000
00000000
00000000
00000000
,
00000000
00000000
00000000
00000000
,
00011000
00000000
00000100
00000000
,
00000110
00000000
00000001
00000000
,
00001000
00000100
00001000
00000100
,
00010000
00001000
01000000
00010000
,
10000000
01000000
10000000
00000000
,
01000000
00010000
00001000
00000000
,
00010000
00001000
00010000
00000000
,
00001000
00000010
00000001
00000000
,
00001000
00001100
00000100
00010100
,
00011000
01001000
01100000
10010000
,
00010000
00100000
00001000
00010000
,
00022000
00000000
00033000
00000000
,
00002000
00000000
00003200
00000000
,
00000302
00000000
00000023
00000000
,
00000032
00002003
00003200
00020300
,
00031000
00000000
00010000
00100000
,
20000000
00000000
32000000
00000000
,
03020000
00000000
00032000
00023000
,
00032000
00003200
00000302
00000000
,
00000013
00000001
00001000
00000100
,
00020000
00000000
00032000
01000000
,
02003000
00000000
03010000
10010000
,
20000000
30200000
00320000
00032000
,
00023000
00000000
00030010
00001000
,
00000001
00000100
00000001
00000100
,
00000010
00001000
00000100
00010000
,
00001000
00010000
01000000
10000000
,
00010000
00100000
00010000
00100000
,
00001000
00010000
00000100
00010000
,
00001000
00000100
00000010
00000100
,
00000001
00001000
00000100
00010000
,
00001000
00100000
00010000
01000000
,
00001000
00100000
00001000
00010000
,
00001000
00010000
01000000
00100000
,
00010000
01000000
00001000
00010000
,
00011000
00000000
00000000
00000110
00000000
00000000
00001001
00000000
,
00001000
00000100
00001000
00000010
,
00010000
00001000
01000000
00010000
,
01000000
00100000
10000000
00010000
,
00000000
01000000
00000000
00000000
00001000
00000000
00020000
00000000
,
00031000
00010000
00001000
00010000
,
00000010
00001000
00000010
00001000
,
00000001
00000100
00001000
00010000
,
00000000
00100000
00000000
00000000
10000000
00000000
00010000
00000000
,
10000000
00000000
00000000
00000000
,
00000000
00000000
00000000
00000000
,
00000000
00000000
00000000
00000000
,
00000000
00000000
00000000
00000000
,
01010000
00000000
00011000
00000000
,
00001100
00000000
00001001
00000000
,
00000001
00000100
00000010
00001000
,
00000100
00010000
00001000
00100000
,
00010000
10000000
01000000
10000000
,
00010000
10000000
01000000
00010000
,
00001000
00010000
00000010
00001000
,
00000001
00000100
00001000
00010000
,
00001000
00100000
00001000
00100000
,
00010000
00100000
01000000
10000000
,
00010000
00010000
00100000
00100000
,
00001000
00010000
00001000
00011000
,
00010000
00000100
00001000
00000010
,
00010000
00001000
00100000
00010000
,
01000000
00100000
10000000
01000000
,
10000000
00100000
00010000
00001000
,
00010000
00000010
00001000
00000100
,
00010000
00001000
01000000
00010000
,
10000000
01000000
00010000
00001000
,
00000020
00000000
00000000
00000000
,
00000031
00001000
00000010
00010000
,
00001000
00100000
00010000
10000000
,
00010000
01000000
00001000
00010000
,
00000100
00001000
00000001
00001000
,
00000001
00000100
00001000
00010000
,
00100000
10000000
00010000
01000000
,
00001000
00010000
00000100
00001000
,
00000001
00000000
00000010
00000000
,
00000110
00000000
00000000
00000000
,
00000000
00000000
00000000
00000000
;
#NOTES:
     dance-double:
     :
     Medium:
     12:
     :
00000000
00000000
00000000
00000000
,
00000000
00000000
00000000
00000000
,
00000000
00000000
00000000
00000000
,
00000000
00000000
00000000
00000000
,
00000000
00000000
00000000
00000000
,
00000000
00000000
00000000
00000000
,
00000001
00000100
00000001
00000000
00000100
00000000
00000010
00000000
,
00001000
00000010
00001000
00000000
00000010
00000000
00010000
00000000
,
00001000
00010000
00001000
00000000
00100000
00010000
00100000
00000000
,
00010000
10000000
01000000
00000000
00100000
00010000
10000000
00000000
,
00010000
00100000
00001000
00000000
00010000
00000010
00001000
00000000
,
00000010
00000100
00000010
00001000
00000001
00000010
00000100
00000000
,
00001000
00000100
00010000
00000000
00001000
00100000
00010000
00000000
,
10000000
00100000
01000000
00010000
01000000
00001000
00010000
00000000
,
00001000
00011000
00010000
00010100
,
00000100
00001000
00000100
00001000
00000001
00000010
00000001
00000010
,
00000100
00001000
00000010
00010000
00001000
00100000
00010000
01000000
,
00010000
00010000
00010000
00010000
00010000
00000000
10010000
00000000
,
10000000
02000000
00000000
00000000
03100000
02000000
00000000
00000000
,
03010000
02000000
00000000
00000000
03100000
00010000
00200000
00000000
,
00301000
00010000
00000200
00000000
00002300
00000000
00003020
00000000
,
00000130
00000100
00000100
00000000
00000001
00000010
00000100
00001000
,
00000001
00000200
00000000
00000000
00000310
00000200
00000000
00000000
,
00001300
00000200
00000000
00000000
00000302
00000000
00001003
00000100
,
00010000
00001000
02000000
00000000
03010000
00010000
00010000
00010000
,
10000000
01000000
00100000
00010000
01000000
00001000
00010000
00001000
,
00010000
00002000
00000000
00000000
00003010
00002000
00000000
00000000
,
00013000
00002000
00000000
00003100
00000010
00000100
00000010
00000100
,
00000001
00001000
00000200
00000000
00010300
00001000
02000000
00000000
,
03010000
00010000
00010000
00000000
10000000
00100000
01000000
00010000
,
00100000
00001000
00100000
00001000
00010000
00001000
00010000
00001000
,
00010000
00000010
00002000
00000000
00003100
00010000
00002000
00000000
,
00103000
00010000
10000000
00100000
01000000
00010000
00100000
00001000
,
00010000
00001000
00010000
00000010
00001000
00000010
00000100
00000001
,
00000101
00000011
00001010
00001100
,
00000001
00000010
00001000
00010000
00100000
10000000
00010000
00000000
,
10000000
01000000
00010000
00000000
00001000
00000010
00000001
00000000
,
00001000
00000100
00001000
00000010
00010000
00001000
00010000
00000000
,
00011000
00110000
10100000
11000000
,
00010000
00100000
01000000
10000000
00100000
00010000
00001000
00000000
,
00010000
00001000
00000010
00000000
00000001
00000100
00001000
00000000
,
00011000
00000000
00000000
01000000
00000000
00000000
00011000
00000000
00000000
00000100
00000000
00000000
00011000
00000000
00000000
00000000
,
00001000
00000000
00000000
00010000
00000000
00000000
01000000
00000000
00000000
00000000
00000000
00000000
10000000
00000000
00000000
00010000
,
00000000
00000000
01000000
00000000
00000000
00001000
00000000
00000000
00010000
00000000
00001000
00000000
00010000
00000000
00000000
00000000
,
00001000
00000000
00000000
00000100
00000000
00000000
00000001
00000000
00000000
00000000
00000000
00000000
00000010
00000000
00000000
00000100
,
00000000
00000000
00001000
00000000
00000000
00000100
00000000
00000000
00010000
00000000
00001000
00000000
00020000
00000000
00000000
00000000
,
00031000
00010000
00001000
01000000
00010000
01000000
00100000
10000000
,
00100000
10000000
01000000
00100000
00010000
00100000
00001000
00000000
,
00010000
00000000
00000000
00001000
00000000
00000000
00000100
00000000
00000000
00000000
00000000
00000000
00000001
00000000
00000000
00001000
,
00000000
00000000
00000001
00000000
00000000
00000100
00000000
00000000
00001000
00000000
00010000
00000000
00100000
00000000
00000000
00000000
,
10000000
00000000
00000000
00000000
,
00000000
00000000
00000000
00000000
,
00000000
00000000
00000000
00000000
,
00000000
00000000
00000000
00000000
,
11000000
00010000
00110000
00100000
,
00011000
00000010
00001010
00001000
,
00000001
00000100
00000001
00000100
00000010
00001000
00000100
00010000
,
00001000
00010000
00001000
00100000
00010000
10000000
00010000
00000000
,
10000000
01000000
00100000
00000000
01000000
00010000
00001000
00000000
,
00010000
00000100
00001000
00000100
00000010
00000001
00000100
00000000
,
00000001
00000010
00000100
00000000
00000010
00001000
00010000
00000000
,
00001000
00100000
00010000
00100000
01000000
10000000
00100000
00000000
,
01000000
00010000
01000000
00010000
00100000
00001000
00010000
00001000
,
00010000
00000010
00010000
00000010
00001000
00000001
00000100
00000010
,
00001000
00000100
00001000
00000100
00010000
00001000
00010000
00001000
,
00100000
00010000
10000000
00010000
10000000
00000000
10100000
00000000
,
10000000
00010000
01000000
00000000
00001000
00010000
00000100
00000000
,
00001000
00000001
00000010
00000000
00000100
00001000
00000010
00000000
,
00010000
00001000
00100000
00000000
00010000
10000000
00100000
00000000
,
01000000
00010000
00100000
00000000
00001000
00010000
00000100
00000000
,
00001000
00000010
00000100
00000000
00000001
00000010
00000100
00000000
,
00001000
00000010
00010000
00000000
00001000
01000000
00010000
00000000
,
10000000
00100000
00010000
00000000
00001000
00000100
00000001
00000000
,
00001000
00000000
00000000
00001000
00000000
00000000
00001000
00000000
00000000
00001000
00000000
00000000
00000100
00000000
00010000
00000000
,
00001000
00010000
00001000
00000000
00010000
01000000
00100000
00000000
,
00010000
01000000
00001000
00000000
00010000
00001000
00000010
00000000
,
00000001
00000100
00000010
00000000
00001000
00000100
00010000
00000000
,
00001000
00010000
01000000
00000000
10000000
00010000
00100000
00000000
,
01000000
10000000
00100000
00000000
00010000
00001000
00000100
00000000
,
00000001
00000010
00000100
00000000
00001000
00000100
00000010
00000000
,
00000001
00001000
00000100
00010000
00001000
01000000
00010000
10000000
,
01000000
00000000
00000000
00100000
00000000
00000000
00010000
00000000
00001000
00000000
00000000
00000100
00000000
00000000
00000010
00000000
,
00000001
00000000
00000000
00000000
,
00000000
00000000
00000000
00000000
;
#NOTES:
     dance-double:
     :
     Hard:
     15:
     :
00000000
00000000
00000000
00000000
,
00000000
00000000
00000000
00000000
,
00000000
00000000
00000000
00000000
,
00000000
00000000
00000000
00000000
,
00000000
00000000
00000000
00000000
,
00000000
00000000
00000000
00000000
,
10000000
01000000
10000000
01000000
10000000
00000000
00010000
00000000
00100000
00000000
00001000
00000000
00010000
00000000
00000010
00000000
,
00001000
00000010
00001000
00000010
00001000
00000000
00000001
00000000
00000100
00000000
00000010
00000000
00001000
00000000
00000100
00000000
,
00010000
00001000
00010000
00000000
00001000
00100000
00001000
00000000
00100000
00010000
00100000
00000000
00010000
10000000
00010000
00000000
,
10000000
01000000
00100000
00010000
01000000
00100000
00010000
00001000
,
00010000
00000000
00001000
00000000
00010000
00000000
00000100
00000000
00001000
00000000
00000001
00000100
00000001
00000000
00000100
00000000
,
00000001
00000010
00001000
00010000
01000000
10000000
00010000
10000000
,
00010000
00000000
01000000
00000000
00100000
00000000
10000000
00000000
00010000
00000000
00100000
01000000
00100000
00000000
00010000
00000000
,
10000000
01000000
00010000
00001000
00000010
00000001
00001000
00000001
,
00000010
00000000
00000100
00000000
00001000
00000100
00000000
00000100
00010000
00001000
00000000
00001000
01000000
00010000
00000000
00010000
,
10000000
00010000
10000000
00000000
01000000
00100000
01000000
00000000
00100000
00010000
00100000
00000000
00001000
00010000
00001000
00000000
,
00010000
00001000
00000100
00000010
00001000
00000100
00000010
00000001
,
00001000
00001000
00001000
00001000
00001000
00000000
00001001
00000000
,
00000001
00000020
00000000
00000000
00001030
00020000
00000000
00000000
,
01030000
20000000
00000000
00000000
30010000
01000000
00002000
00000000
,
00013000
00000010
00002000
00000000
00003200
00000000
00002300
00000000
,
00003001
00000000
00000001
00000000
00000001
00000000
00000000
00000000
00000100
00000000
00001000
00000000
00010000
00001000
00010000
00000000
,
00001000
00020000
00000000
00000000
00130000
02000000
00000000
00000000
,
13000000
02000000
00000000
00000000
03020000
00000000
00130000
00001000
,
00010000
00000100
00002000
00000000
00003010
00000010
00000010
00000010
,
00000100
00000001
00001000
00000100
00010000
00001000
00100000
00010000
,
10000000
02000000
00000000
00000000
03010000
00002000
00010000
00013000
,
00001000
00000000
00000020
00000000
00000000
00000000
00000031
00000000
00000100
00000000
00000010
00000000
00001000
00000100
00001000
00000000
,
00000100
00010000
00002000
00000000
00013000
00001000
02000000
00000000
,
03010000
00010000
00010000
00000000
10000000
01000000
00100000
00010000
,
01000000
00010000
01000000
00010000
00100000
00001000
00010000
00000100
,
00001000
00000010
00000200
00000000
00000301
00001000
00000020
00000000
,
00010030
00000000
00001000
00000000
01000000
00000000
00010000
00000000
10000000
01000000
00100000
00000000
01000000
00100000
00010000
00000000
,
00100000
00001000
00100000
00001000
00010000
00000000
00000010
00000000
00001000
00000001
00001000
00000000
00000100
00000010
00000100
00000000
,
00001000
00000100
00001000
00000010
00010000
00001000
00010000
00000100
,
00010000
00001000
00010000
00000000
00001000
00000000
00100000
00000000
00010000
01000000
00010000
00000000
10000000
00000000
01000000
00000000
,
10000000
00010000
01000000
00000000
00001000
00000000
00010000
00000000
00000100
00001000
00000001
00000000
00000100
00000000
00000010
00000000
,
00001000
00000010
00001000
00000000
00000100
00000000
00010000
00000000
00001000
01000000
00001000
00000000
00100000
00000000
00010000
00000000
,
10000000
00100000
10000000
01000000
00100000
00010000
01000000
00001000
,
00010000
00000100
00010000
00000000
00000010
00000000
00001000
00000000
00000001
00000100
00000001
00000000
00000010
00000000
00000100
00000000
,
00001000
00000100
00010000
00000000
00001000
00000000
00010000
00001000
00000000
00000000
00100000
00000000
00010000
00000000
00000000
00000000
,
10000000
01000000
00000000
01000000
00000000
01000000
00100000
00010000
00000000
00010000
00000000
00010000
00100000
00001000
00010000
00000000
,
00000010
00000000
00000000
00001010
00000000
00000000
00001001
00000000
00000001
00000000
00000100
00000000
00001000
00000000
00000000
00011000
,
00000000
00000000
00110000
00000000
00000000
10010000
00000000
00000000
10000000
00000000
01000000
00000000
00100000
00000000
00000000
00000000
,
00010000
00000000
00000000
01001000
00000000
00000000
00011000
00000000
00010000
00000000
00000010
00000000
00001000
00000000
00000000
00001100
,
00000000
00000000
00010100
00000000
00000000
00011000
00000000
00000000
00001000
00000000
00100000
00000000
00020000
00000000
00000000
00000000
,
10030000
01000000
10000000
01000000
00010000
00001000
00000100
00000001
,
00000100
00000001
00000010
00000100
00001000
00000001
00001000
00000000
,
00001000
00000000
00000000
00001010
00000000
00000000
00010010
00000000
00010000
00000000
00001000
00000000
00100000
00000000
00000000
00110000
,
00000000
00000000
01010000
00000000
00000000
10010000
00000000
00000000
00010000
00000000
01000000
00000000
00100000
00000000
10000000
00010000
,
10000000
00000000
00000000
00000000
,
00000000
00000000
00000000
00000000
,
00000000
00000000
00000000
00000000
,
00000000
00000000
00000000
00000000
,
00010000
00100000
00010000
00100000
00001000
00010000
00000100
00001000
00000100
00001000
00000001
00000100
,
00000010
00001000
00000010
00001000
00000100
00010000
00001000
00100000
00001000
00100000
00010000
01000000
,
00100000
10000000
00010000
01000000
00001000
00010000
00000100
00001000
00000001
00000010
00000100
00001000
,
00000010
00010000
00001000
00100000
00010000
01000000
00100000
10000000
00010000
10000000
00010000
10000000
,
00010000
00000000
01000000
00010000
01000000
00000000
00001000
00000000
00010000
00000000
00000100
00001000
00000100
00000000
00000010
00000000
,
00000001
00000000
00001000
00000010
00001000
00000000
00000001
00000000
00000100
00000000
00001000
00000000
00010000
00000000
00100000
00000000
,
10000000
00000000
01000000
00100000
01000000
00000000
10000000
00000000
00010000
00000000
00100000
00001000
00100000
00000000
00001000
00000000
,
00010000
00000000
00000010
00001000
00000010
00000000
00001000
00000000
00000001
00000000
00000100
00000000
00000010
00000000
00001000
00000000
,
00000100
00010000
00000100
00000000
00010000
00001000
00010000
00000000
00001000
01000000
00001000
00000000
01000000
00010000
01000000
00000000
,
00100000
10000000
00100000
10000000
01000000
00100000
00010000
01000000
,
00001000
00010000
00001000
00000000
00010000
00000100
00010000
00000000
00000100
00001000
00000100
00000000
00001000
00000001
00001000
00000000
,
00000001
00000100
00001000
00010000
00001000
00000000
00011000
00000000
,
00001000
00000000
01000000
00010000
00000000
01000000
00100000
00000000
10000000
00000000
01000000
00100000
00000000
01000000
10000000
00000000
,
00010000
00000000
00100000
00001000
00000000
00010000
00001000
00000000
00010000
00000000
00000010
00001000
00000001
00000000
00001000
00000000
,
00000001
00000000
00000010
00000100
00000000
00000010
00000001
00000000
00001000
00000000
00000100
00010000
00000000
00001000
00010000
00000000
,
00001000
00000000
00100000
00010000
00000000
00100000
01000000
00000000
10000000
00000000
00100000
01000000
00010000
00000000
00100000
00000000
,
00001000
00000000
00010000
00000010
00000000
00001000
00000010
00000000
00000100
00000000
00000001
00001000
00000000
00000100
00001000
00000000
,
00000010
00000000
00010000
00001000
00000000
00100000
00001000
00000000
00010000
00000000
00001000
01000000
00010000
00000000
00100000
00000000
,
00010000
00000000
10000000
00100000
01000000
00000000
00010000
00000000
01000000
00000000
00001000
00010000
00000100
00000000
00001000
00000000
,
00000001
00000000
00001000
00000100
00000000
00010000
00001000
00000000
00000000
00100000
00010000
00000000
10000000
00010000
10000000
00000000
,
01000000
00000000
00100000
00010000
00000000
00100000
01000000
00000000
00010000
00000000
00001000
00010000
00000000
00001000
00000100
00000000
,
00000010
00000000
00001000
00000001
00000000
00000010
00000100
00000000
00001000
00000000
00000010
00000100
00000010
00000000
00001000
00000001
,
00000100
00000000
00000010
00001000
00000000
00000010
00000100
00000000
00001000
00000000
00010000
00001000
00000000
00010000
01000000
00000000
,
00100000
00000000
00010000
10000000
00000000
00100000
01000000
00000000
00010000
00000000
00100000
01000000
00100000
00000000
00010000
10000000
,
00010000
00000000
00100000
00001000
00010000
00000000
00001000
00000000
00010000
00000000
00000100
00001000
00000000
00000100
00000010
00000000
,
00000001
00000000
00000100
00000010
00001000
00000000
00000001
00000000
00000100
00000000
00000010
00000000
00001000
00000100
00010000
00000000
,
00001000
00000000
00010000
00100000
00000000
01000000
00010000
10000000
01000000
00000000
00100000
00010000
00000000
00100000
00010000
00100000
,
00010000
00000000
01000000
00001000
00000000
00010000
00001000
00010000
00000100
00000000
00001000
00000010
00000000
00000100
00000001
00000100
,
00000001
00000000
00000000
00000000
,
00000000
00000000
00000000
00000000
;
#NOTES:
     dance-double:
     :
     Challenge:
     17:
     :
00000000
00000000
00000000
00000000
,
00000000
00000000
00000000
00000000
,
00000000
00000000
00000000
00000000
,
00000000
00000000
00000000
00000000
,
00000000
00000000
00000000
00000000
,
00000000
00000000
00000000
00000000
,
00000001
00000100
00000001
00000100
00000010
00000000
00001000
00000000
00000100
00000000
00010000
00001000
00010000
00000000
00001000
00000000
,
00100000
00010000
00100000
00010000
10000000
00000000
01000000
00000000
00100000
00000000
00010000
01000000
00010000
00000000
00100000
00000000
,
00001000
00010000
00001000
00000000
00010000
00000100
00010000
00000000
00000100
00001000
00000100
00001000
00000001
00000010
00000001
00000000
,
00001000
00000000
00000001
00000000
00000010
00000000
00000100
00000000
00001000
00000100
00010000
00001000
00100000
00000000
00010000
10000000
,
00100000
00000000
01000000
00010000
10000000
00000000
01000000
00000000
00100000
00000000
00010000
00100000
00001000
00010000
00001000
00000000
,
00010000
00000000
00000100
00001000
00000001
00000000
00001000
00000000
00000010
00000000
00001000
00000001
00000010
00000000
00000100
00000000
,
00001000
00000000
00000010
00001000
00000001
00000000
00000010
00000000
00000100
00000000
00001000
00000100
00010000
00001000
00010000
00000000
,
00001000
00000000
00100000
00010000
10000000
00000000
00100000
00000000
01000000
00100000
01000000
00000000
00010000
00000000
10000000
00010000
,
10000000
00000000
01000000
00000000
10000000
01000000
00000000
01000000
00010000
00001000
00000000
00001000
00000010
00000001
00000000
00000001
,
00000100
00000010
00000100
00000010
00001000
00000010
00001000
00000010
00010000
00001000
00010000
00001000
00100000
00001000
00100000
00001000
,
00010000
00001000
00100000
00000000
00001000
00100000
00010000
00000000
10000000
00100000
10000000
00100000
01000000
00010000
01000000
00000000
,
00010000
00100000
00001000
00010000
00001000
00000000
00011000
00000000
,
00010000
02000000
00000000
00000000
03010000
00002000
00000000
00000000
,
00013000
00200000
00000000
00000000
10300000
01000000
02200000
03300000
,
01000000
00010000
00002000
00000000
00003020
00000000
00000032
00000003
,
00001001
00000000
00001001
00000000
00001001
00000000
00000000
00000000
00000001
00000010
00000100
00001000
00000100
00010000
00001000
00010000
,
00001000
00000200
00000000
00000000
00001300
00020000
00000000
00000000
,
00031000
00000020
00000000
00000000
00000230
00000000
00010300
00001000
,
00010000
00000000
01000000
00000000
20000000
00000000
00000000
00000000
30010000
01000000
00010000
01000000
00010000
01000000
00010000
01000000
,
00001000
00010000
00000000
00001000
00000100
00000000
00000010
00000100
00000001
00001000
00000100
00000000
00010000
00000000
00001000
00100000
,
00010000
20000000
00000000
30000000
01000000
00020000
00001000
00031000
,
00010000
00000000
00000020
00000000
00000000
00000000
00001030
00000010
00001000
00000000
00000001
00000000
00000010
00000100
00000010
00000000
,
00001000
00010000
00200000
00000000
10300000
00010000
01000000
00000000
,
10010000
00000000
10010000
00000000
10010000
00000000
00000000
00000000
10000000
01000000
00100000
00010000
00100000
00001000
00010000
00001000
,
00010000
00000100
00010000
00000100
00001000
00000100
00000010
00000001
,
00000100
00000000
00001000
00000000
00020000
00000000
00030000
00000000
00100000
01000000
00100000
00000000
02000000
00000000
03010000
10000000
,
00010000
00000000
00100000
00000000
00001000
00000000
00010000
00000000
00000010
00001000
00000010
00001000
00000001
00000100
00000001
00000100
,
00000001
00001000
00000100
00010000
00001000
00010000
00001000
00010000
00001000
01000000
00010000
10000000
01000000
00100000
00010000
10000000
,
01000000
00000000
10000000
01000000
00010000
00000000
01000000
00010000
00001000
00000000
00010000
00001000
00000100
00000000
00001000
00000100
,
00000001
00000100
00000001
00000100
00000010
00001000
00000010
00010000
00001000
00010000
00001000
01000000
00010000
01000000
00100000
00000000
,
10000000
00100000
01000000
00010000
10000000
01000000
00100000
00010000
00100000
01000000
00100000
01000000
00100000
00010000
00100000
00000000
,
00001000
00010000
00000100
00001000
00000100
00000010
00000001
00001000
00000010
00000100
00000001
00000010
00000100
00001000
00000001
00000000
,
00000100
00000000
00000001
00000100
00001000
00000000
00000100
00001000
00010000
00000000
00001000
00010000
01000000
00000000
00010000
01000000
,
10000000
00010000
00100000
01000000
00100000
00010000
00100000
00001000
00010000
00001000
00010000
00000000
00010000
00001000
00000100
00000000
,
00000001
00001000
00000100
00000010
00000100
00001000
00000100
00010000
00001000
01000000
00010000
10000000
01000000
00100000
00010000
00000000
,
10000000
00100000
00000000
00100000
00000000
00100000
00010000
00001000
00000000
00001000
00000000
00001000
00000100
00000010
00000100
00000000
,
00000001
00000000
00001000
00000100
00000000
00000010
00000001
00000000
00001000
00000000
00000010
00000000
00000100
00000000
00001000
00010000
,
00001000
00000000
00010000
00000000
00100000
10000000
00010000
00000000
00100000
00000000
01000000
00000000
01100000
00000000
00000000
00000000
,
00100000
00000000
00010000
01000000
00100000
00000000
00010000
00000000
00001000
00000000
00010000
00000000
00011000
00000000
00000000
00001100
,
00000000
00000000
00000101
00000000
00000000
00000011
00000000
00000000
00001001
00000000
00001001
00000000
00001000
00000001
00001000
00000000
,
00000001
00000000
00000100
00000000
00000001
00000100
00000001
00000000
00000100
00000000
00001000
00000000
00010000
00000000
00100000
00000000
,
01000000
00000000
00100000
00000000
10000000
00100000
10000000
00000000
01000000
00000000
00100000
00000000
00010000
00100000
00010000
00000000
,
00100000
00000000
00001000
00010000
00001000
00000000
00010000
00000000
00001000
00000000
00000100
00000000
00000110
00000000
00000000
00000101
,
00000000
00000000
00000011
00000000
00000000
00001100
00000000
00000000
00000100
00010000
00001000
00000000
01000000
00000000
00010000
10000000
,
00010000
00000000
00000000
00000000
,
00000000
00000000
00000000
00000000
,
00000000
00000000
00000000
00000000
,
00000000
00000000
00000000
00000000
,
10000000
10000000
10000000
00010000
01000000
00001000
00010000
00010000
00010000
00000100
00001000
00000001
,
00000010
00000010
00000010
00000100
00001000
00000010
00010000
00010000
00010000
00001000
00100000
00010000
,
01000000
00100000
01000000
00100000
10000000
00010000
10000000
00010000
01000000
00001000
00010000
00001000
00010000
00000010
00001000
00000010
,
00000100
00000001
00000100
00000001
00001000
00000100
00010000
00001000
01000000
00010000
01000000
00010000
01000000
00010000
01000000
00000000
,
00010000
00000000
10000000
01000000
00100000
00000000
01000000
00000000
10000000
00000000
00010000
00100000
00001000
00010000
00000100
00000000
,
00001000
00000000
00000001
00000010
00000100
00000000
00000010
00000000
00000001
00000000
00000100
00000010
00001000
00000000
00000010
00000000
,
00010000
00000000
00001000
01000000
00010000
00000000
10000000
00000000
01000000
00000000
00100000
00010000
01000000
00001000
00010000
00000000
,
00000010
00000000
00001000
00000100
00000010
00000000
00000100
00000000
00001000
00000001
00001000
00000000
00000100
00000000
00010000
00000000
,
00001000
00000000
01000000
00010000
10000000
00010000
10000000
00010000
01000000
00000000
00001000
00010000
00000100
00010000
00000100
00010000
,
00001000
00000000
00010000
00000010
00001000
00000001
00001000
00000010
00010000
00000000
00001000
00100000
00010000
10000000
00010000
00100000
,
00001000
00010000
00000100
00000000
00001000
00000001
00000100
00000000
00000010
00001000
00000001
00000000
00000010
00000100
00001000
00000000
,
00000010
00010000
00000010
00010000
00001000
00100000
00010000
10000000
01000000
00000000
00000000
00000000
10010000
00000000
00000000
00000000
,
10000000
00000000
01000000
00100000
00000000
01000000
00100000
00010000
00100000
00000000
00001000
00010000
00000000
00001000
00010000
00000010
,
00001000
00000000
00000001
00000100
00000000
00000001
00000100
00000010
00001000
00000000
00000100
00001000
00000100
00000000
00010000
00000000
,
00001000
00000000
00100000
00010000
00000000
00100000
00010000
10000000
00100000
00000000
01000000
00100000
00000000
01000000
00010000
00100000
,
00001000
00000000
00010000
00000100
00000000
00010000
00000100
00001000
00000010
00000000
00000100
00000001
00001000
00000000
00000100
00000010
,
00000001
00000000
00000100
00000010
00000000
00001000
00000010
00010000
00001000
00000000
00010000
00001000
00000000
00100000
00010000
10000000
,
01000000
00000000
10000000
01000000
00000000
00100000
00010000
01000000
00001000
00000000
00010000
00001000
00010000
00000000
00001000
00000000
,
00010000
00000000
00001000
00000100
00000010
00000000
00000100
00001000
00010000
00000000
00100000
10000000
01000000
00000000
00010000
00001000
,
00010000
00000000
00001000
00010000
00000000
00001000
00010000
00000000
00000100
00001000
00000001
00000100
00000010
00001000
00000010
00000000
,
00010000
00000000
00001000
00100000
00000000
00010000
01000000
00100000
10000000
00000000
01000000
00010000
00000000
00001000
00010000
00001000
,
00000100
00000000
00000010
00001000
00000000
00000001
00000010
00000100
00001000
00000000
00000100
00010000
00000100
00000000
00010000
00000000
,
00001000
00000000
01000000
00010000
00000000
10000000
00100000
01000000
00010000
00000000
00100000
00001000
00000000
00010000
00000010
00001000
,
00000100
00000000
00001000
00000001
00000000
00000100
00001000
00010000
00001000
00000000
01000000
00010000
01000000
00000000
00100000
00000000
,
10000000
00000000
00010000
01000000
00001000
00000000
00010000
00000100
00001000
00000000
00000100
00000010
00000000
00000001
00001000
00000100
,
00010000
00000000
00001000
00100000
00010000
00000000
10000000
00100000
01000000
00000000
00010000
00100000
00001000
00000000
00010000
00000000
,
00000100
00001000
00000001
00001000
00000001
00001000
00000100
00010000
00001000
00010000
00001000
01000000
00010000
10000000
00010000
10000000
,
00100000
00000000
10000000
00010000
00000000
10000000
01000000
00010000
00001000
00000000
00010000
00001000
00000000
00010000
00001000
00000010
,
00000001
00000000
00000000
00000000
,
00000000
00000000
00000000
00000000
;
