
//----- song ID: roli -----//
#TITLE:Roche Limit;
#ARTIST:Felysrator;
#BANNER:Roche Limit.png;
#BACKGROUND:Roche Limit-bg.png;
#CDTITLE:./CDTitles/DDR WORLD.png;
#MUSIC:Roche Limit.ogg;
#SAMPLESTART:86.992;
#SAMPLELENGTH:15;
#BPMS:0=160;
#BGSTAGE:27;
#NOTES:
     dance-single:
     :
     Beginner:
     3:
     :
0000
0000
0000
0000
,
0000
0000
0000
0000
,
0000
0000
0000
0000
,
0000
0000
0000
0000
,
0000
0000
0000
0000
,
0000
0000
0000
0000
,
0000
0000
0000
0000
,
1001
0000
0000
0000
,
0000
0000
0000
0000
,
1001
0000
0000
0000
,
0000
0000
0000
0000
,
0001
0000
0000
0000
,
0001
0000
0000
0000
,
1000
0000
0000
0000
,
1000
0000
0000
0000
,
0010
0000
0010
0000
,
0100
0000
0100
0000
,
0001
0000
0000
0000
,
1001
0000
0000
0000
,
0001
0000
0001
0000
,
0100
0000
0100
0000
,
0001
0000
0001
0000
,
0100
0000
0100
0000
,
0010
0000
0010
0000
,
1000
0000
1000
0000
,
0010
0000
0010
0000
,
1000
0000
1000
0000
,
0020
0000
0000
0030
,
2000
0000
0000
3000
,
0002
0000
0000
0003
,
0200
0000
0000
0300
,
0001
0000
1000
0000
,
0100
0000
0010
0000
,
0001
0000
1000
0000
,
0100
0000
0010
0000
,
1001
0000
0000
0000
,
1000
0000
0001
0000
,
1001
0000
0000
0000
,
0100
0000
1001
0000
,
0000
0000
0001
0000
,
1000
0000
0010
0000
,
0100
0000
0010
0000
,
0100
0000
1001
0000
,
0000
0000
0001
0000
,
0010
0000
0100
0000
,
1000
0000
0100
0000
,
1001
0000
0000
0000
,
0010
0000
0100
0000
,
0010
0000
0000
0000
,
0100
0000
0010
0000
,
2002
0000
3003
0000
,
2002
0000
3003
0000
,
2002
0000
3003
0000
,
2002
0000
3003
0000
,
1001
0000
0010
0000
,
1001
0000
0100
0000
,
2000
0000
0000
3000
,
0002
0000
0000
0003
,
1000
0000
0100
0000
,
0010
0000
0001
0000
,
0001
0000
0010
0000
,
0100
0000
1000
0000
,
1000
0000
0010
0000
,
0100
0000
0001
0000
,
0001
0000
0100
0000
,
0010
0000
1000
0000
,
1001
0000
0000
0000
,
0001
0000
0100
0000
,
0001
0000
0100
0000
,
0010
0000
1000
0000
,
0010
0000
1000
0000
,
0010
0000
0100
0000
,
2002
0000
0000
0000
,
0000
0000
0000
0000
,
3003
0000
0000
0000
,
1000
0000
0000
0000
,
0001
0000
0000
0000
,
0001
0000
0000
0000
,
1000
0000
0001
0000
,
1000
0000
0001
0000
,
0010
0000
0100
0000
,
2002
0000
0000
3003
,
0000
0000
0000
0000
;
#NOTES:
     dance-single:
     :
     Easy:
     7:
     :
0000
0000
0000
0000
,
0000
0000
0000
0000
,
0000
0000
0000
0000
,
0000
0000
0000
0000
,
0000
0000
0000
0000
,
0000
0000
0000
0000
,
0000
0000
0000
0000
,
1001
0000
0000
0000
,
0110
0000
0100
0010
,
1001
0000
0010
0100
,
2002
0000
0000
3003
,
2000
0000
0000
3100
,
0012
0000
0000
0103
,
1020
0000
0000
0130
,
2001
0000
0010
3001
,
1200
0310
0021
0130
,
1200
0310
0021
0130
,
0220
0000
0000
0330
,
1001
1001
1001
0000
,
1001
0001
1000
0010
,
1000
0100
1000
0001
,
0010
1000
0010
0100
,
0010
0001
1000
0000
,
1001
1000
0100
0010
,
0100
1000
0100
0001
,
0100
1000
0010
0001
,
0020
0000
0100
0130
,
2010
0000
0010
3010
,
1020
0000
1000
1030
,
0201
0000
0001
0301
,
0102
0103
0201
0301
,
1002
0000
1000
1003
,
0120
0000
0100
0130
,
1002
0000
1000
1003
,
0210
0000
0010
0300
,
1002
0000
0000
0000
,
0000
0000
0000
0000
,
2003
0000
0000
0000
,
3200
0000
0302
0000
,
0000
0000
0000
0000
,
0203
0000
0000
0000
,
2300
0000
0000
3020
,
0000
0030
1000
1000
,
0001
0001
0010
0010
,
0100
0100
0010
0010
,
0001
0001
0010
0100
,
1000
1000
0001
0001
,
0100
0100
0010
0010
,
0100
0100
0001
0001
,
1000
1000
0001
0000
,
2002
0000
0000
3003
,
0220
0000
0000
0330
,
2200
0000
0000
3300
,
0022
0000
0000
0033
,
2002
0000
0000
3003
,
0220
0000
0000
0330
,
2002
0000
0000
3000
,
0200
0000
0000
0303
,
0101
0011
0001
0100
,
0010
1000
0100
0010
,
0011
0101
0001
0010
,
0100
1000
0010
0100
,
0101
1010
1000
0010
,
0100
0001
0010
0100
,
1100
0011
0110
1001
,
0110
0101
1010
0110
,
2002
0000
0000
3003
,
0010
0100
0010
0100
,
0220
0000
0000
0330
,
2002
0000
0000
3003
,
1000
0001
1000
0001
,
1000
0100
1000
0100
,
2002
0003
0001
0001
,
0001
0000
0001
0000
0001
0000
3001
0001
,
0001
1100
0100
0011
,
0001
0100
0010
0001
,
0010
1000
0100
0010
,
0001
0100
0001
1000
,
2002
0000
0000
3003
,
1000
0001
0010
0100
,
1001
0100
0010
0100
,
2002
0000
0000
3003
,
0000
0000
0000
0000
;
#NOTES:
     dance-single:
     :
     Medium:
     11:
     :
0000
0000
0000
0000
,
0000
0000
0000
0000
,
0000
0000
0000
0000
,
0000
0000
0000
0000
,
0000
0000
0000
0000
,
0000
0000
0000
0000
,
0000
0000
0000
0000
,
1001
0000
0000
0000
1100
0000
0000
0000
0001
0000
0000
0001
0000
0000
0001
0000
,
1000
0000
0000
1000
0000
0000
1000
0000
0000
0000
0001
0000
0100
0000
0010
0000
,
0001
0000
0000
0000
0010
0000
0000
0000
1001
0000
0000
1000
0000
0000
0100
0000
,
0020
0000
0000
0000
0000
0030
0000
0000
,
1100
0000
0100
1000
0010
0001
0010
0000
,
0011
0000
0001
0010
1000
0100
0001
0000
,
0101
0000
0001
0100
1000
0000
0010
1000
,
0100
0000
0000
0000
0010
0000
0001
0000
1000
0000
0000
1000
0000
0000
1000
0000
,
0002
0013
0020
0130
0200
1300
2000
3100
,
0001
0100
0010
0001
0100
0010
0001
0000
,
0220
0000
0000
0330
,
1001
0000
1001
0000
1001
0000
0001
1000
,
1001
0000
1000
0010
1000
0100
0010
0100
,
1000
0000
0001
0100
0001
0010
0100
0010
,
0001
0000
1000
0100
0001
0100
1000
0010
,
1000
0000
0100
0001
0100
1000
0010
0000
,
1001
0000
0001
0010
0100
0010
0100
1000
,
0001
0000
1000
0100
0010
0100
0010
0001
,
1000
0000
1000
0010
0100
0000
0100
0001
,
1000
0000
0000
0000
1000
0000
0001
0000
1000
0000
0000
1000
0000
0000
1000
0000
,
0010
0000
1000
0010
2000
0000
0010
3010
,
0020
1000
1030
1000
2000
0010
0010
0010
,
3000
0000
0100
0001
0200
0000
0001
0001
,
0302
0003
0100
0100
0001
0001
0100
0100
,
1001
0000
0000
0000
1000
0000
0001
0000
1000
0000
0000
0001
1000
0000
0001
0000
,
1000
0000
0000
0000
0010
0000
0100
0000
0010
0000
0000
0100
0010
0000
0100
0000
,
0010
0000
0001
1000
1000
0001
1000
0001
,
1000
0001
0001
1000
0001
0000
0110
0000
,
2002
0000
0000
0003
,
0200
0000
0000
0300
,
0002
0000
0000
0003
,
0001
0010
3002
1000
,
0100
0000
0000
0000
0000
0000
0000
0100
,
0100
0000
1000
0000
0000
0000
0000
0010
,
0010
1000
0000
1000
,
0010
0000
1003
0000
1001
0000
1000
0010
,
0100
0010
1000
0000
1000
0001
0100
0000
,
0100
0001
0010
0000
0010
0001
1000
0000
,
1000
0001
0010
0000
0011
0000
1100
0000
,
1001
0000
0001
0010
0100
0010
0001
0000
,
0001
0100
0010
0000
0010
1000
0001
0000
,
0001
1000
0010
0000
0010
0100
0001
0000
,
0001
0100
1000
0100
0010
0001
0010
0000
,
0021
0000
0000
0100
0000
0000
1030
0000
0000
0000
0000
0000
0000
0000
0000
0000
,
0201
0000
0000
0010
0000
0000
1300
0000
0000
0000
0000
0000
0000
0000
0000
0000
,
0102
0000
0000
1000
0000
0000
0013
0000
0000
0000
0000
0000
0000
0000
0000
0000
,
2100
0000
0000
0100
0000
0000
0001
0000
0000
0001
0000
0000
3010
0000
0010
0000
,
0201
0000
0000
0010
0000
0000
1300
0000
0000
0000
0000
0000
0000
0000
0000
0000
,
0021
0000
0000
0100
0000
0000
1030
0000
0000
0000
0000
0000
0000
0000
0000
0000
,
0001
1000
0001
1000
0010
0100
0010
0100
,
1002
0000
0000
0000
0010
0010
0013
0000
,
1000
0000
0001
0000
0100
0000
0000
0000
0001
0000
0000
0001
0000
0000
0001
0000
,
1000
0000
0000
1000
0000
0000
1000
0000
0000
0000
0001
0000
1000
0000
0010
0000
,
0100
0000
0010
0000
0001
0000
0000
0000
0010
0000
0000
0010
0000
0000
0010
0000
,
0100
0000
0000
0100
0000
0000
0100
0000
0000
0000
0001
0000
0100
0000
1000
0000
,
0001
0000
0010
0000
1000
0000
0000
0000
0001
0000
0000
0001
0000
0000
0001
0000
,
1000
0000
0000
1000
0000
0000
1000
0000
0000
0000
0100
0000
1000
0000
0010
0000
,
0100
0000
0001
0000
0010
0000
0000
0000
0100
0000
0000
0100
0000
0000
0100
0000
,
0020
0000
0000
0030
,
0120
0000
0000
0001
0000
0000
1000
0000
0000
0001
0000
0000
0130
0000
0100
0000
,
0000
0000
0010
0000
0000
0110
0000
0000
0100
0000
0000
0110
0000
0000
0010
0000
,
0001
0000
0000
1000
0000
0000
1000
0000
0000
0010
0000
0000
0001
0000
0000
0010
,
0000
0000
0100
0000
0000
0001
0000
0000
0101
0000
0000
1001
0000
0000
1010
0000
,
0010
0000
0000
0000
0100
0000
0000
0000
0001
0000
0000
0001
0000
0000
0001
0000
,
1000
0000
0000
1000
0000
0000
1000
0000
0000
0010
0000
0000
0100
0000
0010
0000
,
0220
0000
0000
0000
0300
0000
0000
0000
0001
0000
0000
0001
0000
0000
1000
0000
,
0000
1000
0000
0000
0001
0000
0000
1000
0000
0000
0100
0000
0100
0000
0130
0000
,
1001
0000
0000
0000
0100
0000
0000
0000
0010
0000
0000
0010
0000
0000
0010
0000
,
0100
0000
0000
0100
0000
0000
0100
0000
0000
0000
0001
0000
0100
0000
1000
0000
,
0100
0000
0001
0000
0010
0000
0000
0000
0001
0000
0000
0001
0000
0000
0001
0000
,
1000
0000
0000
1000
0000
0000
1000
0000
0000
0000
0000
0000
1001
0000
0000
0000
,
0110
0000
0000
0000
1001
0000
0000
0000
0001
0000
0000
1000
0000
0000
0001
0000
,
0010
0000
0000
0100
0000
0000
0010
0000
0000
0000
0001
0000
0100
0000
0010
0000
,
1000
0000
0000
0000
0100
0000
0000
0000
1000
0000
0000
1000
0000
0000
1000
0000
,
1001
0000
0000
1000
0100
0001
0100
0010
,
0000
0000
0000
0000
;
#NOTES:
     dance-single:
     :
     Hard:
     14:
     :
0000
0000
0000
0000
,
0000
0000
0000
0000
,
0000
0000
0000
0000
,
0000
0000
0000
0000
,
0000
0000
0000
0000
,
0000
0000
0000
0000
,
0000
0000
0000
0000
,
1001
0000
1000
0000
0001
0000
0000
0000
1000
0000
0000
0001
0000
0000
0010
0000
,
0100
0000
0000
0010
0000
0000
1000
0000
0000
0000
0001
0000
0100
1000
0100
0000
,
0010
0000
0001
0000
0100
0000
0000
0000
1001
0000
0000
0010
0000
0000
0100
0000
,
2002
0000
0000
0000
0000
3003
0000
0000
,
1002
0000
0103
0010
0100
1000
0100
0001
,
2001
0000
3010
0100
0001
0001
1000
1000
,
1002
0000
1003
0010
0001
0010
0100
0001
,
2001
0000
0000
0000
0010
0000
3010
0000
0101
0000
0000
1001
0000
0000
0011
0000
,
0001
0000
0000
0001
0010
0000
0000
0010
0100
0000
0000
0100
1000
0000
0000
1000
,
0001
0000
0010
0000
0100
0000
0010
0000
0001
0100
0001
0000
1000
0100
1000
0000
,
2002
0000
0000
3003
,
1001
0000
1001
0000
1001
0000
0001
1000
,
1001
0000
0000
0000
0001
0000
0100
0010
0100
0010
0000
0010
1000
0000
0001
0000
,
1000
0000
0001
0000
0010
0100
0010
0000
0001
1000
0000
0100
1000
0000
1000
0000
,
0001
0000
0010
0000
0100
1000
0100
0000
0010
0100
0000
0100
0010
0000
0100
0000
,
1000
0000
0100
0000
0001
0000
0100
0010
0000
0010
0100
0000
0010
0000
0000
0000
,
1001
0000
0000
0000
1000
0000
0010
0100
0010
0100
0000
0100
1000
0000
0100
0000
,
0001
0000
0010
0100
0010
0000
0001
0100
0000
0010
1000
0000
0001
0000
0100
0000
,
0001
0000
0100
0000
1000
0000
0100
0001
0000
0010
0100
0000
1000
0000
0100
0000
,
0001
0000
0100
0000
1000
0000
0010
0000
1010
0000
0000
1001
0000
0000
1100
0000
,
1001
0000
0000
0000
1000
0010
1000
0000
1000
0010
0000
0010
1000
0000
1000
0000
,
2020
0000
3030
0000
0010
1000
0010
0000
0010
1000
0000
1000
0010
0000
1000
0000
,
1010
0000
0000
0000
0001
0100
0001
0000
0001
0100
0000
0100
0001
0000
0100
0000
,
0202
0000
0303
0000
0001
0000
0001
0100
0001
0000
0001
0000
0100
0000
0001
0000
,
1001
0000
0000
0000
1000
0001
1000
0000
1000
0001
0000
0001
1000
0000
1000
0000
,
0220
0000
0330
0000
0010
0100
0010
0000
0010
0100
0000
0100
0010
0000
0010
0000
,
1001
0000
0001
0001
2002
3003
1000
1000
,
2000
0000
0000
3001
0000
0000
0002
0000
0000
1003
0000
0000
0010
0000
0001
0000
0010
0000
0100
0000
1000
0000
0100
0000
,
0001
0100
0000
0100
0000
0200
0000
0000
,
0000
0000
0000
0000
0000
0000
0300
0001
,
0100
1000
0100
0001
0000
0001
0000
0000
,
0110
0000
1001
0000
0001
0010
1000
0010
,
0001
0000
0200
0000
0000
0000
0000
0000
0000
0000
0000
0000
0300
0000
0010
1000
,
0010
0000
0010
0000
0001
0000
0020
0000
0000
0000
0000
0000
0000
0000
0130
1000
,
0100
0001
0010
0020
0000
0000
0001
0000
,
0100
0000
1030
0000
0110
0010
0001
1000
,
0001
0100
0001
1000
0001
0010
0001
0001
,
1000
0010
1000
0001
1000
0100
1000
0001
,
1000
0010
1000
0100
0110
0000
1001
1000
,
0100
1000
0100
0010
0100
0001
0100
0010
,
0100
1000
0010
0001
0010
0100
0010
1000
,
0010
0100
0010
0001
1000
0100
0001
0010
,
0001
1000
0001
0100
0001
1000
0001
0010
,
1001
0000
0000
1100
0000
0000
0101
0000
0000
0000
1000
0100
0000
0001
0100
0000
,
1001
0000
0000
0011
0000
0000
1010
0000
0000
0010
0001
0000
0010
1000
0000
0000
,
1001
0000
0000
1100
0000
0000
0011
0000
0000
0000
1000
0100
1000
0001
0000
0000
,
1001
0000
0000
0011
0000
0000
1100
0000
0000
0101
0000
0000
1010
0000
0010
0000
,
1001
0000
0000
0110
0000
0000
1001
0000
0000
0000
1000
0001
0000
0100
0010
0000
,
0110
0000
0000
1001
0000
0000
0110
0000
0000
1000
0001
0000
0100
0010
0000
0000
,
1000
0100
1000
0100
0010
0001
0010
0001
,
0011
1100
1010
0101
,
0100
0000
0001
0000
1000
0000
0001
0000
1000
0000
0100
1000
0000
0000
0001
0000
,
1000
0000
0010
0100
0000
0000
0010
0000
0000
0000
0100
0000
0001
0100
0001
0000
,
0010
0000
0100
0000
0001
0000
0100
0000
1000
0000
0010
0100
0000
0000
0010
0000
,
0001
0000
0010
1000
0000
0000
0010
0000
0000
0000
1000
0000
0100
0010
0100
0000
,
0010
0000
0001
0000
1000
0000
0001
0000
1000
0000
0001
0010
0000
0000
0001
0000
,
1000
0000
0100
1000
0000
0000
0010
0000
0000
0000
0001
0000
1000
0100
1000
0000
,
0100
0000
0001
0000
0010
0000
1000
0000
0010
0000
0100
0010
0000
0100
0010
0000
,
1001
0000
1000
1000
0001
0001
1000
0001
,
1001
0000
0000
1100
0000
0000
0011
0000
0000
1100
0000
0000
0011
0000
0010
0000
,
0001
0000
0010
0000
1000
0010
0000
0000
0001
0000
0100
0001
0000
0000
1000
0000
,
0100
0000
0010
1000
0000
0010
0001
0000
0010
0100
0000
0010
1000
0000
0010
0001
,
0000
0000
1000
0000
0001
0010
0000
0000
1010
0000
0000
1001
0000
0000
1010
0000
,
1000
0100
0010
0100
1000
0001
1000
0001
,
1000
0000
0100
0000
1000
0000
0100
0000
1000
0100
1000
0000
0010
0001
0010
0000
,
2002
0000
0000
0000
0000
0000
3003
0000
1001
0000
0000
1010
0000
0000
0110
0000
,
0000
0011
0000
0000
0110
0000
0000
1100
0000
0000
0101
0000
0001
0000
0001
0000
,
1001
0000
0001
0000
0010
0000
0001
0000
1000
0000
0100
1000
0000
0001
1000
0000
,
0100
0000
0010
0100
0000
0001
0100
0000
0000
0000
0100
0000
1000
0100
1000
0000
,
0010
0000
0001
0000
0010
0000
0001
0000
1000
0000
0100
0001
0000
1000
0001
0000
,
0010
0000
0100
0001
0000
1000
0001
0000
0100
0000
1000
0000
0010
0000
1000
0000
,
1001
0000
0000
0000
0011
0000
0000
0000
1010
0000
0010
1000
0000
0010
0001
0000
,
0011
0000
0000
0110
0000
0000
1010
0000
0000
0000
1000
0000
0010
0100
0010
0000
,
0001
0000
0010
0000
1000
0000
0100
0000
0001
0000
0100
0010
0000
0001
0100
0000
,
2002
0000
0000
0000
3003
0000
1000
0010
1000
0000
0001
0100
0001
0000
0010
0100
,
0000
0000
0000
0000
;
#NOTES:
     dance-single:
     :
     Challenge:
     15:
     :
0000
0000
0000
0000
,
0000
0000
0000
0000
,
0000
0000
0000
0000
,
0000
0000
0000
0000
,
0000
0000
0000
0000
,
0000
0000
0000
0000
,
0000
0000
0000
0000
,
1001
0000
1000
0000
0001
0000
1000
0000
0001
0000
0010
0100
0000
0100
0010
0000
,
0110
0000
0000
0101
0000
0000
1001
0000
0000
0000
1000
0000
0100
0010
0100
0010
,
0001
0000
0000
0000
1100
0000
0000
0000
0011
0000
0001
0100
0000
1000
0100
0000
,
2002
0000
0000
0000
0000
3003
0000
0000
,
1001
1000
0100
0010
0001
1000
0010
0110
,
0110
0100
0001
0010
0100
1000
1001
1001
,
1001
0001
0100
0010
1000
0001
0010
0011
,
0011
0000
0001
0000
0100
0000
1000
0000
1100
0000
0000
0110
0000
0000
0101
0000
,
0001
0000
0100
0001
0100
0000
0010
1000
0010
0000
1000
0100
1000
0000
0001
0010
,
0001
0000
1000
0000
0100
0000
0010
0000
0001
0010
0001
0010
0100
1000
0100
0000
,
2002
0000
0000
3003
,
1001
0100
1001
0100
1001
0000
1000
0001
,
1001
0000
0000
0000
1000
0000
0001
0010
0001
0100
0000
0010
1000
0000
0001
0000
,
0100
0000
0010
0000
1000
0100
0100
0000
1000
0001
0000
0001
1000
0000
0010
0000
,
0100
0000
0001
0000
0010
0100
0010
0000
0001
1000
0000
1000
0010
0000
1000
0000
,
0001
0000
0100
0000
1000
0000
0100
0001
1000
0001
0100
0000
0010
0000
0000
0000
,
1001
0000
0000
0000
0001
0000
0100
0001
1000
0010
0000
0010
1000
0000
1000
0000
,
0001
0000
0010
0010
0100
0000
1000
0001
0000
1000
0010
0000
0001
0000
0010
0000
,
1000
0000
0100
0000
0001
0000
0001
0100
0000
0010
0001
0000
0100
0000
0010
0000
,
1000
0000
0100
0000
0001
0000
0100
0000
0110
0000
0000
0011
0000
0000
1001
0000
,
1010
0000
0000
0000
1000
0010
1000
0010
1000
0010
0000
0010
1000
0000
1000
0000
,
1010
0000
0010
1000
0010
1000
0010
0000
0010
1000
0000
1000
0010
0000
0010
0000
,
0101
0000
0000
0000
0100
0001
0100
0001
0100
0001
0000
0001
0100
0000
0100
0000
,
0101
0000
0100
0001
0100
0001
0100
0000
0101
0000
0001
0000
0101
0000
0100
0000
,
1001
0000
0000
0000
1000
0001
1000
0001
1000
0001
0000
0001
1000
0000
1000
0000
,
0110
0000
0100
0010
0100
0010
0100
0000
0010
0100
0000
0100
0010
0000
0010
0000
,
1001
0000
0000
0000
1000
0001
1000
0001
1000
0001
0000
0001
1000
0000
1000
0000
,
0001
0000
0000
0000
0000
0000
1000
0000
0000
0001
0000
0000
1000
0000
0000
0001
0000
0000
0001
0000
0000
0000
0000
0000
0010
0000
0000
0000
0001
0000
0000
0000
0100
0000
0000
0000
0010
0000
0000
0000
1000
0000
0000
0000
0100
0000
0000
0000
,
0010
0001
1000
0100
0010
0200
0000
0000
,
0000
0000
0000
0000
0000
0000
0300
0010
,
0001
0010
1000
0010
0001
0100
0000
0000
,
0110
0000
1001
0000
1000
0100
0100
0010
,
0001
0000
0002
0000
0000
0000
0000
0000
0000
0000
0000
0000
0003
0000
0100
0001
,
0100
0000
0100
0000
0100
0000
0200
0000
0000
0000
0000
0000
0000
0000
0310
1000
,
0010
0010
0010
0200
0000
0000
0001
0000
,
1000
0000
0301
0000
1001
1000
0100
0001
,
1000
0010
0001
1000
0010
0001
1000
0100
,
0001
1000
0100
0001
1000
0010
0100
1000
,
0010
0100
0001
0010
0110
0100
0110
0010
,
0110
0010
0100
1000
0010
0100
1000
0001
,
0010
0100
0001
0010
0100
1000
0010
0100
,
1000
0001
0010
1000
0001
0010
1000
0001
,
1000
0001
0100
1000
0010
0001
0010
0100
,
0101
0000
0000
1001
0000
0000
0011
0000
0000
0000
0010
0001
0000
0001
1000
0000
,
1100
0000
0000
1001
0000
0000
1010
0000
0000
1000
0010
0000
0010
0100
0000
0000
,
0101
0000
0000
0110
0000
0000
1100
0000
0000
0000
0100
0001
1000
0010
0000
0000
,
0011
0000
0000
1001
0000
0000
0101
0000
0000
1001
0000
0000
0011
0000
1100
0000
,
1001
0000
0000
1010
0000
0000
1001
0000
0000
0000
1000
0010
0000
0010
0100
0000
,
0101
0000
0000
0110
0000
0000
1100
0000
0000
1000
0100
0000
0100
0010
0000
0000
,
0001
0010
0001
0000
0001
1000
0001
0000
1000
0100
1000
0000
1000
0001
1000
0000
,
1200
0310
0021
0130
1200
0310
0021
0130
,
0010
0000
0001
0000
1000
0000
0001
0000
0100
0000
0100
0001
0000
0001
0100
0000
,
0010
0000
0010
1000
0000
1000
0020
0000
0000
0000
0130
0000
0001
1000
0001
1000
,
0010
0000
1000
0000
0001
0000
1000
0000
0100
0000
0100
0010
0000
0010
0100
0000
,
1000
0000
1000
0001
0000
0001
2000
0000
0000
0000
3001
0010
0001
0010
0100
0000
,
1000
0000
0010
0000
0100
0000
0001
0000
0010
0000
0010
0001
0000
0001
1000
0000
,
0100
0000
0010
0001
0000
0001
0020
0000
0000
0000
0031
0000
0100
0010
0100
0010
,
1000
0000
0100
0000
0001
0000
0100
0000
1000
0000
0100
0010
0000
0010
0100
0000
,
1001
0000
0000
0000
1000
0000
0010
0100
0010
0000
1000
0100
1000
0000
0010
0000
,
1001
0000
0000
1100
0000
0000
0011
0000
0000
0101
0000
0000
1010
0000
1001
0000
,
1000
0000
0010
0000
0100
0010
0000
0000
1000
0000
0010
0100
0000
0100
0001
0000
,
1000
0000
0100
1000
0000
0100
0010
0000
0100
0001
0000
0100
0010
0000
0100
1000
,
0000
0000
0001
0000
0010
0100
0000
0000
0101
0000
0000
1001
0000
0000
0011
0000
,
0001
0010
0100
0000
0100
1000
0001
0000
0001
1000
0100
0000
0100
0010
0001
0000
,
0010
0001
0010
0000
0100
1000
0100
0000
0010
0100
0010
0001
0010
0000
0001
0000
,
2002
0000
0000
0000
0000
0000
3003
0000
1001
0000
0000
1001
0000
0000
0110
0000
,
0000
0110
0000
0000
1001
0000
0000
1001
0000
0000
1001
0000
1001
0000
1001
0000
,
1001
0000
0001
0000
0010
0000
0001
0000
1000
0000
0010
0100
0000
1000
0100
0010
,
1000
0000
0001
0100
0000
0100
0002
0000
0000
0000
0013
0000
0100
0010
0100
0010
,
0001
0000
0001
0000
0100
0000
1000
0000
0001
0000
0010
1000
0000
0001
0100
0001
,
1000
0000
0100
0010
0000
1000
0002
0000
0000
0000
1003
0010
0001
0100
0001
0000
,
1001
0000
1000
0000
1001
0000
0000
0000
1100
0000
1000
0100
0000
0100
0010
0000
,
0011
0000
0000
0110
0000
0000
1100
0000
0000
0000
1000
0010
0100
0010
1000
0001
,
0100
0000
0001
0000
0100
0000
0001
0000
1001
0000
0100
0010
0000
0010
0100
0000
,
2002
0000
0000
0000
3003
0000
1000
0001
0010
0100
0010
0001
1000
0001
0100
0010
,
0000
0000
0000
0000
;
#NOTES:
     dance-double:
     :
     Easy:
     7:
     :
00000000
00000000
00000000
00000000
,
00000000
00000000
00000000
00000000
,
00000000
00000000
00000000
00000000
,
00000000
00000000
00000000
00000000
,
00000000
00000000
00000000
00000000
,
00000000
00000000
00000000
00000000
,
00000000
00000000
00000000
00000000
,
00001001
00000000
00000000
00000000
,
00001100
00000000
00010000
00001000
,
00011000
00000000
00100000
00010000
,
20020000
00000000
00000000
30030000
,
20000000
00000000
00000000
30100000
,
02010000
00000000
00000000
03001000
,
00210000
00000000
00000000
00301000
,
00020100
00000000
00000010
00031000
,
00010200
00001300
00002010
00003001
,
00000102
00000013
00002100
00003010
,
00022000
00000000
00000000
00033000
,
00011000
00011000
00011000
00000000
,
00011000
00001000
00010000
00001000
,
00100000
00001000
01000000
00010000
,
00100000
10000000
00100000
01000000
,
00100000
00010000
01000000
00000000
,
01100000
00100000
01000000
00010000
,
01000000
10000000
01000000
00010000
,
00100000
00001000
00010000
00000100
,
00000020
00000000
00000100
00000130
,
00000012
00000000
00000010
00000013
,
00001200
00000000
00010000
00010300
,
00021000
00000000
01000000
01030000
,
02100000
03100000
01200000
01300000
,
10020000
00000000
00100000
00130000
,
01200000
00000000
00001000
00301000
,
00012000
00000000
00000100
00003100
,
00000210
00000000
00000001
00000300
,
00001002
00000000
00000000
00000000
,
00000000
00000000
00000000
00000000
,
00000203
00000000
00000000
00000000
,
00002300
00000000
00023000
00000000
,
00000000
00000000
00000000
00000000
,
00032000
00000000
00000000
00000000
,
00003020
00000000
00000000
00000032
,
00000000
00000003
00001000
00000100
,
00001000
00000100
00000010
00000001
,
00000010
00000001
00000100
00001000
,
00000100
00001000
00010000
00010000
,
00001000
00010000
00001000
00010000
,
00100000
10000000
00100000
10000000
,
01000000
00100000
01000000
00100000
,
00001000
00010000
00001000
00000000
,
00002200
00000000
00000000
00003300
,
00000022
00000000
00000000
00000033
,
00002002
00000000
00000000
00003003
,
00002020
00000000
00000000
00003030
,
00002002
00000000
00000000
00003003
,
00000220
00000000
00000000
00000330
,
00002002
00000000
00000000
00000003
,
00000020
00000000
00000000
00003030
,
00001010
00010010
00011000
00010000
,
00001000
00000010
00000100
00010000
,
00011000
01001000
01010000
01000000
,
00010000
00100000
00001000
00010000
,
00011000
00010100
00000110
00000010
,
00001000
00000010
00000001
00000100
,
00000101
00001010
00010100
00101000
,
00110000
11000000
10010000
01100000
,
20020000
00000000
00000000
30030000
,
00010000
01000000
00010000
01000000
,
02020000
00000000
00000000
03030000
,
00202000
00000000
00000000
00303000
,
00001000
00100000
00001000
00100000
,
00001000
00010000
00001000
00010000
,
00022000
00030000
00010000
00010000
,
00010000
00000000
00010000
00000000
00010000
00000000
00013000
00010000
,
00010000
00101000
00100000
01000000
,
00010000
00001000
00000010
00001000
,
00010000
01000000
10000000
01000000
,
00010000
00001000
00010000
00001000
,
00022000
00000000
00000000
00033000
,
00010000
00000100
00001000
00000010
,
00000001
00000010
00000100
00001000
,
00000220
00000000
00000000
00000330
,
00000000
00000000
00000000
00000000
;
#NOTES:
     dance-double:
     :
     Medium:
     11:
     :
00000000
00000000
00000000
00000000
,
00000000
00000000
00000000
00000000
,
00000000
00000000
00000000
00000000
,
00000000
00000000
00000000
00000000
,
00000000
00000000
00000000
00000000
,
00000000
00000000
00000000
00000000
,
00000000
00000000
00000000
00000000
,
10010000
00000000
00000000
00000000
01010000
00000000
00000000
00000000
10000000
00000000
00000000
10000000
00000000
00000000
10000000
00000000
,
00010000
00000000
00000000
00010000
00000000
00000000
00010000
00000000
00000000
00000000
00100000
00000000
00001000
00000000
00010000
00000000
,
00100000
00000000
00000000
00000000
00010000
00000000
00000000
00000000
00001000
00000000
00000000
00000010
00000000
00000000
00000100
00000000
,
00000020
00000000
00000000
00000000
00000000
00000030
00000000
00000000
,
00000011
00000000
00000010
00001000
00000010
00000001
00000100
00000000
,
00000101
00000000
00000100
00000001
00000010
00001000
00010000
00000000
,
00011000
00000000
00001000
00010000
00100000
00000000
00100000
10000000
,
01000000
00000000
00000000
00000000
00100000
00000000
00010000
00000000
10000000
00000000
00000000
10000000
00000000
00000000
10000000
00000000
,
00020000
00130000
00200000
00301000
00002000
00013000
00020000
00031000
,
00000100
00000001
00001000
00000100
00000001
00000100
00001000
00000000
,
00000220
00000000
00000000
00000330
,
00001001
00000000
00001001
00000000
00001001
00000000
00000001
00001000
,
00001001
00000000
00000001
00000100
00000001
00000010
00001000
00010000
,
00001000
00000000
00010000
00001000
00010000
00100000
01000000
00100000
,
00010000
00000000
00001000
00100000
01000000
00100000
00001000
00010000
,
00001000
00000000
00000010
00001000
00000010
00000001
00000100
00000000
,
00001001
00000000
00000001
00000010
00001000
00000010
00000100
00001000
,
00000001
00000000
00000100
00001000
00010000
00001000
00010000
00100000
,
01000000
00000000
01000000
00010000
10000000
00000000
10000000
00010000
,
00100000
00000000
00000000
00000000
00001000
00000000
00010000
00000000
00001000
00000000
00000000
00001000
00000000
00000000
00001000
00000000
,
01000000
00000000
00100000
10000000
00200000
00000000
10000000
10300000
,
20000000
00100000
30100000
00100000
00200000
10000000
10000000
10000000
,
00300000
00000000
00010000
01000000
00020000
00000000
01000000
01000000
,
02030000
03000000
00010000
00010000
01000000
01000000
00001000
00001000
,
00011000
00000000
00000000
00000000
00010000
00000000
00001000
00000000
00010000
00000000
00000000
00001000
00010000
00000000
00001000
00000000
,
00010000
00000000
00000000
00000000
00000100
00000000
00000010
00000000
00000100
00000000
00000000
00000010
00000100
00000000
00000010
00000000
,
00000100
00000000
00000010
00000001
00000001
00000010
00000010
00000001
,
00000010
00000001
00000001
00000010
00000001
00000000
00000110
00000000
,
00002002
00000000
00000000
00000003
,
00000200
00000000
00000000
00000000
00000000
00000300
00000000
00000000
,
00000020
00000000
00000000
00000030
,
00000001
00000100
00003200
00010000
,
00001000
00000000
00000000
00000000
00000000
00000000
00000000
00000010
,
00000010
00000000
00000001
00000000
00000000
00000000
00000000
00001000
,
00001000
00010000
00000000
00010000
,
00001000
00000000
00000310
00000000
00001001
00000000
00000001
00000100
,
00000010
00000100
00000001
00000000
00000001
00000100
00001000
00000000
,
00001000
00010000
00100000
00000000
00100000
01000000
10000000
00000000
,
00010000
00100000
10000000
00000000
10100000
00000000
01010000
00000000
,
00101000
00000000
00001000
00010000
00100000
00010000
00001000
00000000
,
00001000
00000100
00000001
00000000
00000001
00000010
00001000
00000000
,
00001000
00010000
01000000
00000000
01000000
10000000
00100000
00000000
,
00100000
01000000
10000000
01000000
00100000
00010000
00100000
00000000
,
00210000
00000000
00000000
01000000
00000000
00000000
10300000
00000000
00000000
00000000
00000000
00000000
00000000
00000000
00000000
00000000
,
02100000
00000000
00000000
00010000
00000000
00000000
03001000
00000000
00000000
00000000
00000000
00000000
00000000
00000000
00000000
00000000
,
00102000
00000000
00000000
00010000
00000000
00000000
00003100
00000000
00000000
00000000
00000000
00000000
00000000
00000000
00000000
00000000
,
00000102
00000000
00000000
00000100
00000000
00000000
00001000
00000000
00000000
00001000
00000000
00000000
00000013
00000000
00000010
00000000
,
00000201
00000000
00000000
00000010
00000000
00000000
00001300
00000000
00000000
00000000
00000000
00000000
00000000
00000000
00000000
00000000
,
00002100
00000000
00000000
00010000
00000000
00000000
00103000
00000000
00000000
00000000
00000000
00000000
00000000
00000000
00000000
00000000
,
00010000
00100000
00010000
00100000
01000000
10000000
01000000
10000000
,
12000000
00000000
00000000
00000000
00100000
00100000
03100000
00000000
,
01000000
00000000
00010000
00000000
00001000
00000000
00000000
00000000
00000100
00000000
00000000
00000100
00000000
00000000
00000100
00000000
,
00000010
00000000
00000000
00000010
00000000
00000000
00000010
00000000
00000000
00000000
00000001
00000000
00000010
00000000
00001000
00000000
,
00000001
00000000
00000010
00000000
00001000
00000000
00000000
00000000
00010000
00000000
00000000
00010000
00000000
00000000
00010000
00000000
,
00001000
00000000
00000000
00001000
00000000
00000000
00001000
00000000
00000000
00000000
00001000
00000000
00000100
00000000
00000001
00000000
,
00000010
00000000
00001000
00000000
00010000
00000000
00000000
00000000
01000000
00000000
00000000
01000000
00000000
00000000
01000000
00000000
,
00100000
00000000
00000000
00100000
00000000
00000000
00100000
00000000
00000000
00000000
00010000
00000000
00001000
00000000
00000100
00000000
,
00010000
00000000
00001000
00000000
00000010
00000000
00000000
00000000
00000100
00000000
00000000
00000100
00000000
00000000
00000100
00000000
,
00000020
00000000
00000000
00000030
,
00000210
00000000
00000000
00000010
00000000
00000000
00001000
00000000
00000000
00010000
00000000
00000000
00001300
00000000
00001000
00000000
,
00000000
00000000
00000100
00000000
00000000
00000110
00000000
00000000
00000010
00000000
00000000
00000110
00000000
00000000
00000100
00000000
,
00000001
00000000
00000000
00000010
00000000
00000000
00000100
00000000
00000000
00000010
00000000
00000000
00000100
00000000
00000000
00001000
,
00000000
00000000
00000010
00000000
00000000
00000100
00000000
00000000
00001010
00000000
00000000
00010100
00000000
00000000
00101000
00000000
,
00100000
00000000
00000000
00000000
01000000
00000000
00000000
00000000
10000000
00000000
00000000
10000000
00000000
00000000
10000000
00000000
,
00010000
00000000
00000000
00010000
00000000
00000000
00010000
00000000
00000000
00100000
00000000
00000000
01000000
00000000
00100000
00000000
,
02200000
00000000
00000000
00000000
00300000
00000000
00000000
00000000
10000000
00000000
00000000
10000000
00000000
00000000
00100000
00000000
,
00000000
00100000
00000000
00000000
00010000
00000000
00000000
00001000
00000000
00000000
00010000
00000000
00010000
00000000
03010000
00000000
,
01100000
00000000
00000000
00000000
00100000
00000000
00000000
00000000
01000000
00000000
00000000
01000000
00000000
00000000
01000000
00000000
,
00010000
00000000
00000000
00010000
00000000
00000000
00010000
00000000
00000000
00000000
00001000
00000000
00000100
00000000
00000001
00000000
,
00000010
00000000
00000100
00000000
00000001
00000000
00000000
00000000
00001000
00000000
00000000
00001000
00000000
00000000
00001000
00000000
,
00000010
00000000
00000000
00000010
00000000
00000000
00000010
00000000
00000000
00000000
00000000
00000000
00000011
00000000
00000000
00000000
,
00001100
00000000
00000000
00000000
00010100
00000000
00000000
00000000
00010000
00000000
00000000
00001000
00000000
00000000
00010000
00000000
,
00000010
00000000
00000000
00000100
00000000
00000000
00000010
00000000
00000000
00000000
00001000
00000000
00000001
00000000
00000100
00000000
,
00001000
00000000
00000000
00000000
00010000
00000000
00000000
00000000
01000000
00000000
00000000
01000000
00000000
00000000
01000000
00000000
,
01010000
00000000
00000000
01000000
00010000
00001000
00000100
00000001
,
00000000
00000000
00000000
00000000
;
#NOTES:
     dance-double:
     :
     Hard:
     14:
     :
00000000
00000000
00000000
00000000
,
00000000
00000000
00000000
00000000
,
00000000
00000000
00000000
00000000
,
00000000
00000000
00000000
00000000
,
00000000
00000000
00000000
00000000
,
00000000
00000000
00000000
00000000
,
00000000
00000000
00000000
00000000
,
00001001
00000000
00001000
00000000
00000010
00000000
00000000
00000000
00000001
00000000
00000000
00000010
00000000
00000000
00001000
00000000
,
00000100
00000000
00000000
00010000
00000000
00000000
00001000
00000000
00000000
00000000
00010000
00000000
01000000
10000000
01000000
00000000
,
00100000
00000000
00010000
00000000
01000000
00000000
00000000
00000000
10010000
00000000
00000000
00100000
00000000
00000000
01000000
00000000
,
20020000
00000000
00000000
00000000
00000000
30030000
00000000
00000000
,
10020000
00000000
01030000
00100000
01000000
10000000
01000000
00010000
,
02010000
00000000
03100000
00010000
00001000
00001000
00010000
00010000
,
00012000
00000000
00003100
00000001
00000010
00000001
00000100
00000100
,
00000210
00000000
00000000
00000000
00000001
00000000
00000301
00000000
00001010
00000000
00000000
00010100
00000000
00000000
00101000
00000000
,
00100000
00000000
00000000
00100000
01000000
00000000
00000000
01000000
00010000
00000000
00000000
00010000
00001000
00000000
00000000
00001000
,
00000010
00000000
00000001
00000000
00001000
00000000
00000010
00000000
00000100
00000001
00000100
00000000
00000010
00001000
00000010
00000000
,
00002002
00000000
00000000
00003003
,
00001001
00000000
00001001
00000000
00001001
00000000
00001000
00000001
,
00001001
00000000
00000000
00000000
00001000
00000000
00000100
00000010
00000100
00000010
00000000
00000010
00000001
00000000
00001000
00000000
,
00000001
00000000
00001000
00000000
00000010
00000100
00000010
00000000
00001000
00000100
00000000
00010000
00001000
00000000
00001000
00000000
,
00100000
00000000
01000000
00000000
10000000
01000000
10000000
00000000
01000000
00100000
00000000
01000000
00010000
00000000
00010000
00000000
,
00001000
00000000
00010000
00000000
00100000
00000000
00010000
00001000
00000000
00010000
00001000
00000000
01000000
00000000
00000000
00000000
,
10010000
00000000
00000000
00000000
00010000
00000000
00100000
01000000
00100000
01000000
00000000
01000000
00010000
00000000
00001000
00000000
,
00010000
00000000
00100000
00010000
00100000
00000000
01000000
00100000
00000000
00010000
00001000
00000000
00000010
00000000
00000001
00000000
,
00000010
00000000
00001000
00000000
00000010
00000000
00000001
00000100
00000000
00000010
00000001
00000000
00001000
00000000
00000100
00000000
,
00001000
00000000
00010000
00000000
00001000
00000000
00100000
00000000
00101000
00000000
00000000
00011000
00000000
00000000
01010000
00000000
,
10010000
00000000
00000000
00000000
10000000
00100000
10000000
00000000
10000000
00100000
00000000
00100000
10000000
00000000
10000000
00000000
,
20200000
00000000
30300000
00000000
00100000
10000000
00100000
00000000
00100000
10000000
00000000
10000000
00100000
00000000
10000000
00000000
,
10100000
00000000
00000000
00000000
00010000
01000000
00010000
00000000
00010000
01000000
00000000
01000000
00010000
00000000
01000000
00000000
,
02020000
00000000
03030000
00000000
00010000
00000000
00010000
01000000
00010000
00000000
01000000
00000000
00001000
00000000
00010000
00000000
,
00011000
00000000
00000000
00000000
00010000
00001000
00010000
00000000
00010000
00001000
00000000
00001000
00010000
00000000
00001000
00000000
,
00000220
00000000
00000330
00000000
00000010
00000100
00000010
00000000
00000010
00000100
00000000
00000100
00000010
00000000
00000100
00000000
,
00000011
00000000
00000001
00000001
00000022
00000033
00000010
00000010
,
00000020
00000000
00000000
00000031
00000000
00000000
00000200
00000000
00000000
00001300
00000000
00000000
00000001
00000000
00000010
00000000
00000100
00000000
00000001
00000000
00000010
00000000
00000100
00000000
,
00000010
00001000
00000000
00001000
00000000
00002000
00000000
00000000
,
00000000
00000000
00000000
00000000
00000000
00000000
00003000
00010000
,
00100000
10000000
00100000
00010000
00000000
00010000
00000000
00000000
,
01100000
00000000
10010000
00000000
10000000
01000000
00010000
01000000
,
10000000
00000000
00200000
00000000
00000000
00000000
00000000
00000000
00000000
00000000
00000000
00000000
00300000
00000000
00010000
00001000
,
00010000
00000000
00010000
00000000
00001000
00000000
00020000
00000000
00000000
00000000
00000000
00000000
00000000
00000000
00030010
00001000
,
00000010
00000100
00000001
00000002
00000000
00000000
00000010
00000000
,
00001000
00000000
00000103
00000000
00000110
00000010
00000100
00000001
,
00000100
00001000
00000100
00000010
00000100
00000001
00000100
00001000
,
00010000
00001000
00010000
00000100
00010000
00001000
00010000
00000010
,
00010000
00001000
00010000
01000000
01100000
00000000
10010000
10000000
,
01000000
10000000
01000000
00100000
01000000
00010000
01000000
00100000
,
01000000
10000000
00100000
00010000
00001000
00010000
00001000
00000010
,
00001000
00010000
00001000
01000000
00001000
00010000
00001000
00100000
,
00001000
00010000
00001000
00000100
00001000
00010000
00001000
00000010
,
00000011
00000000
00000000
00001100
00000000
00000000
00001001
00000000
00000000
00000000
00001000
00000100
00000000
00000001
00000100
00000000
,
00001001
00000000
00000000
00001010
00000000
00000000
00010100
00000000
00000000
00010000
00001000
00000000
00010000
00100000
00000000
00000000
,
00110000
00000000
00000000
01100000
00000000
00000000
10100000
00000000
00000000
00000000
10000000
01000000
10000000
00010000
00000000
00000000
,
10010000
00000000
00000000
01010000
00000000
00000000
00101000
00000000
00000000
00010010
00000000
00000000
00001010
00000000
00000010
00000000
,
00001001
00000000
00000000
00000110
00000000
00000000
00001001
00000000
00000000
00000000
00001000
00000001
00000000
00000100
00000010
00000000
,
00000110
00000000
00000000
00001001
00000000
00000000
00000110
00000000
00000000
00001000
00000001
00000000
00000100
00000010
00000000
00000000
,
00000001
00000100
00000010
00001000
00000100
00010000
00001000
00100000
,
00110000
11000000
10100000
01010000
,
01000000
00000000
00010000
00000000
10000000
00000000
00100000
00000000
00010000
00000000
00001000
00010000
00000000
00000000
00000010
00000000
,
00001000
00000000
00000100
00000001
00000000
00000000
00001000
00000000
00000000
00000000
00000010
00000000
00000001
00000100
00000001
00000000
,
00001000
00000000
00000010
00000000
00000001
00000000
00000010
00000000
00001000
00000000
00100000
01000000
00000000
00000000
00100000
00000000
,
00010000
00000000
00100000
10000000
00000000
00000000
00100000
00000000
00000000
00000000
00010000
00000000
00001000
00010000
00001000
00000000
,
00000100
00000000
00000001
00000000
00000010
00000000
00001000
00000000
00000010
00000000
00000001
00000100
00000000
00000000
00001000
00000000
,
00010000
00000000
00100000
10000000
00000000
00000000
01000000
00000000
00000000
00000000
00010000
00000000
01000000
10000000
01000000
00000000
,
00100000
00000000
00010000
00000000
00001000
00000000
00000100
00000000
00000010
00000000
00000001
00001000
00000000
00000010
00000100
00000000
,
00001001
00000000
00001000
00001000
00000001
00000001
00001000
00000001
,
00001001
00000000
00000000
00001010
00000000
00000000
00010100
00000000
00000000
00101000
00000000
00000000
11000000
00000000
10000000
00000000
,
01000000
00000000
10000000
00000000
00100000
00010000
00000000
00000000
10000000
00000000
01000000
00010000
00000000
00000000
00100000
00000000
,
00001000
00000000
01000000
00010000
00000000
01000000
00100000
00000000
01000000
10000000
00000000
01000000
00100000
00000000
01000000
00001000
,
00000000
00000000
00010000
00000000
00000010
00000100
00000000
00000000
00000011
00000000
00000000
00001010
00000000
00000000
00000110
00000000
,
00000010
00000001
00000010
00001000
00010000
01000000
10000000
01000000
,
00010000
00000000
00001000
00000000
00000010
00000000
00000001
00000000
00000010
00000001
00000010
00000000
00001000
00000100
00001000
00000000
,
00002002
00000000
00000000
00000000
00000000
00000000
00003003
00000000
00001001
00000000
00000000
00011000
00000000
00000000
01100000
00000000
,
00000000
10010000
00000000
00000000
00011000
00000000
00000000
00000110
00000000
00000000
00001001
00000000
00000001
00000000
00001000
00000000
,
00001001
00000000
00000001
00000000
00000010
00000000
00001000
00000000
00000010
00000000
00000001
00000100
00000000
00000001
00001000
00000000
,
00000100
00000000
00001000
00000100
00000000
00010000
00001000
00000000
00000000
00000000
00010000
00000000
01000000
00100000
01000000
00000000
,
00100000
00000000
00010000
00000000
00100000
00000000
00010000
00000000
10000000
00000000
01000000
00010000
00000000
10000000
00010000
00000000
,
01000000
00000000
00010000
00001000
00000000
00001000
00000010
00000000
00000100
00000000
00010000
00000000
00001000
00000000
00100000
00000000
,
01100000
00000000
00000000
00000000
10010000
00000000
00000000
00000000
01010000
00000000
01000000
00010000
00000000
01000000
10000000
00000000
,
00110000
00000000
00000000
01100000
00000000
00000000
10100000
00000000
00000000
00000000
10000000
00000000
00100000
01000000
00100000
00000000
,
00010000
00000000
00001000
00000000
00000010
00000000
00000100
00000000
00000001
00000000
00000100
00000010
00000000
00000001
00000100
00000000
,
00002002
00000000
00000000
00000000
00003003
00000000
00001000
00000001
00001000
00000000
00000010
00000100
00000010
00000000
00000010
00000100
,
00000000
00000000
00000000
00000000
;
#NOTES:
     dance-double:
     :
     Challenge:
     15:
     :
00000000
00000000
00000000
00000000
,
00000000
00000000
00000000
00000000
,
00000000
00000000
00000000
00000000
,
00000000
00000000
00000000
00000000
,
00000000
00000000
00000000
00000000
,
00000000
00000000
00000000
00000000
,
00000000
00000000
00000000
00000000
,
00011000
00000000
00010000
00000000
00001000
00000000
00000100
00000000
00001000
00000000
00010000
00001000
00000000
00001000
00010000
00000000
,
00011000
00000000
00000000
00101000
00000000
00000000
00110000
00000000
00000000
00000000
00010000
00000000
00100000
01000000
00100000
01000000
,
10000000
00000000
00000000
00000000
10010000
00000000
00000000
00000000
00110000
00000000
00010000
00100000
00000000
00100000
01000000
00000000
,
02200000
00000000
00000000
00000000
00000000
03300000
00000000
00000000
,
10010000
00010000
10000000
01000000
00010000
00001000
00010000
00011000
,
00011000
00001000
00000100
00000001
00000100
00000010
00000110
00000110
,
00000110
00000100
00000010
00001000
00000100
00010000
00001000
00011000
,
00011000
00000000
00010000
00000000
00100000
00000000
01000000
00000000
11000000
00000000
00000000
01100000
00000000
00000000
01010000
00000000
,
01000000
00000000
00010000
01000000
00010000
00000000
00100000
00001000
00100000
00000000
00000100
00010000
00000100
00000000
00000010
00000001
,
00000010
00000000
00001000
00000000
00000010
00000000
00000001
00000000
00000010
00000100
00000010
00000100
00001000
00000001
00001000
00000000
,
00002002
00000000
00000000
00003003
,
00001001
00000010
00001001
00000010
00001001
00000000
00000001
00001000
,
00001001
00000000
00000000
00000000
00001000
00000000
00000001
00000010
00000001
00000100
00000000
00000100
00000010
00000000
00001000
00000000
,
00000100
00000000
00010000
00000000
00001000
00010000
00010000
00000000
00001000
00100000
00000000
00100000
00001000
00000000
01000000
00000000
,
00010000
00000000
10000000
00000000
00100000
01000000
00100000
00000000
10000000
01000000
00000000
01000000
10000000
00000000
01000000
00000000
,
00010000
00000000
00001000
00000000
00000100
00000000
00000010
00000100
00001000
00000100
00000010
00000000
00000001
00000000
00000000
00000000
,
00000011
00000000
00000000
00000000
00000001
00000000
00000010
00001000
00000001
00000010
00000000
00000010
00000001
00000000
00001000
00000000
,
00000010
00000000
00000100
00000100
00001000
00000000
00000100
00000010
00000000
00000010
00001000
00000000
00000001
00000000
00000010
00000000
,
00001000
00000000
00000001
00000000
00000100
00000000
00001000
00000010
00000000
00000010
00000100
00000000
00001000
00000000
00010000
00000000
,
00100000
00000000
00010000
00000000
00100000
00000000
10000000
00000000
10010000
00000000
00000000
00110000
00000000
00000000
10010000
00000000
,
10100000
00000000
00000000
00000000
10000000
00100000
10000000
00100000
10000000
00100000
00000000
00100000
10000000
00000000
10000000
00000000
,
00100000
00000000
00100000
10000000
00100000
10000000
00100000
10000000
00100000
10000000
00000000
10000000
00100000
00000000
00100000
00000000
,
01010000
00000000
00000000
00000000
01000000
00010000
01000000
00010000
01000000
00010000
00000000
00010000
01000000
00000000
01000000
00000000
,
01010000
00000000
01000000
00010000
01000000
00010000
01000000
00000000
00010000
00000000
01000000
00000000
00011000
00000000
00001000
00000000
,
00011000
00000000
00000000
00000000
00010000
00001000
00010000
00001000
00010000
00001000
00000000
00001000
00010000
00000000
00001000
00000000
,
00000010
00000000
00000100
00000010
00000100
00000010
00000100
00000000
00000010
00000100
00000000
00000100
00000010
00000000
00000010
00000000
,
00000011
00000000
00000000
00000000
00000010
00000001
00000010
00000001
00000010
00000001
00000000
00000001
00000010
00000000
00000010
00000000
,
00000001
00000000
00000000
00000000
00000000
00000000
00000010
00000000
00000000
00000001
00000000
00000000
00000010
00000000
00000000
00000001
00000000
00000000
00000001
00000000
00000000
00000000
00000000
00000000
00000010
00000000
00000000
00000000
00000100
00000000
00000000
00000000
00001000
00000000
00000000
00000000
00000100
00000000
00000000
00000000
00001000
00000000
00000000
00000000
00010000
00000000
00000000
00000000
,
00001000
00010000
00100000
00010000
00001000
00020000
00000000
00000000
,
00000000
00000000
00000000
00000000
00000000
00000000
00030000
00001000
,
00000100
00000001
00000100
00001000
00010000
00001000
00000000
00000000
,
00000110
00000000
00001001
00000000
00000001
00000010
00000010
00000100
,
00001000
00000000
00002000
00000000
00000000
00000000
00000000
00000000
00000000
00000000
00000000
00000000
00003000
00000000
00000100
00010000
,
00000100
00000000
00000100
00000000
00000100
00000000
00000200
00000000
00000000
00000000
00000000
00000000
00000000
00000000
00010300
00001000
,
00010000
00010000
00010000
00020000
00000000
00000000
00001000
00000000
,
00100000
00000000
00031000
00000000
00011000
00001000
00010000
01000000
,
10000000
00010000
01000000
10000000
00010000
00100000
00001000
00010000
,
01000000
00100000
10000000
01000000
00010000
10000000
00100000
00010000
,
10000000
00100000
00010000
00001000
00011000
00010000
00011000
00001000
,
00011000
00010000
00001000
00000010
00000001
00001000
00000010
00000001
,
00001000
00000100
00010000
00001000
00000010
00000001
00000010
00001000
,
00000100
00000010
00000001
00000100
00001000
00000001
00001000
00000001
,
00000010
00000100
00000001
00000010
00000100
00001000
00000100
00010000
,
00011000
00000000
00000000
00101000
00000000
00000000
10010000
00000000
00000000
00000000
10000000
00010000
00000000
10000000
00010000
00000000
,
01010000
00000000
00000000
01100000
00000000
00000000
11000000
00000000
00000000
10000000
01000000
00000000
01000000
00010000
00000000
00000000
,
01010000
00000000
00000000
00101000
00000000
00000000
00010100
00000000
00000000
00000000
00001000
00000100
00000010
00000001
00000000
00000000
,
00000011
00000000
00000000
00000110
00000000
00000000
00001010
00000000
00000000
00011000
00000000
00000000
00101000
00000000
00110000
00000000
,
10010000
00000000
00000000
01100000
00000000
00000000
10010000
00000000
00000000
00000000
00010000
00100000
00000000
00100000
10000000
00000000
,
10100000
00000000
00000000
01100000
00000000
00000000
00110000
00000000
00000000
00100000
00010000
00000000
00010000
01000000
00000000
00000000
,
00010000
00100000
00001000
00000000
00010000
00000000
00001000
00010000
00000100
00000000
00001000
00000000
00000001
00000010
00000100
00000000
,
00001200
00000310
00000021
00000130
00001200
00000310
00000021
00000130
,
00001000
00000000
00000100
00000000
00000001
00000000
00000100
00000000
00001000
00000000
00001000
00000010
00000000
00000010
00010000
00000000
,
00001000
00000000
00001000
01000000
00000000
01000000
00020000
00000000
00000000
00000000
00130000
00000000
00010000
10000000
00010000
10000000
,
01000000
00000000
00010000
00000000
01000000
00000000
10000000
00000000
00100000
00000000
00100000
00010000
00000000
00010000
00001000
00000000
,
00000010
00000000
00000010
00000001
00000000
00000001
00000200
00000000
00000000
00000000
00000301
00000010
00000001
00000010
00000100
00000000
,
00000010
00000000
00001000
00000000
00000010
00000000
00000001
00000000
00000100
00000000
00000100
00001000
00000000
00001000
00010000
00000000
,
00000100
00000000
00000100
00000010
00000000
00000010
00000002
00000000
00000000
00000000
00001003
00000000
00000010
00000100
00000010
00000100
,
00000001
00000000
00001000
00000000
00000001
00000000
00000010
00000000
00000100
00000000
00000010
00000100
00000000
00000100
00000010
00000000
,
00001001
00000000
00000000
00000000
00001000
00000000
00000100
00010000
00000100
00000000
00100000
00001000
00100000
00000000
00010000
00000000
,
00110000
00000000
00000000
11000000
00000000
00000000
01010000
00000000
00000000
10100000
00000000
00000000
00110000
00000000
10010000
00000000
,
10000000
00000000
00100000
00000000
00010000
00100000
00000000
00000000
10000000
00000000
01000000
00010000
00000000
00010000
00001000
00000000
,
00000010
00000000
00001000
00010000
00000000
00001000
00000100
00000000
00001000
00010000
00000000
00001000
00000010
00000000
00001000
00010000
,
00000000
00000000
00000100
00000000
00000010
00000001
00000000
00000000
00000011
00000000
00000000
00001001
00000000
00000000
00000101
00000000
,
00000001
00000000
00000100
00000000
00001000
00010000
00001000
00000000
00100000
00000000
01000000
00000000
00100000
00000000
00001000
00010000
,
00001000
00000000
00000100
00000000
00000010
00000000
00000100
00000000
00000010
00000100
00000010
00000001
00000010
00000000
00001000
00000000
,
00002002
00000000
00000000
00000000
00000000
00000000
00003003
00000000
00001001
00000000
00000000
00001001
00000000
00000000
00000110
00000000
,
00000000
00011000
00000000
00000000
01100000
00000000
00000000
10010000
00000000
00000000
10010000
00000000
10010000
00000000
10010000
00000000
,
10010000
00000000
10000000
00000000
00100000
00000000
00010000
00000000
10000000
00000000
01000000
00100000
00000000
10000000
01000000
00100000
,
01000000
00000000
00010000
01000000
00000000
10000000
00020000
00000000
00000000
00000000
00130000
00000000
00001000
00010000
00001000
00010000
,
00000100
00000000
00000010
00000000
00000001
00000000
00000100
00000000
00000010
00000000
00001000
00000100
00000000
00001000
00000100
00001000
,
00000001
00000000
00000100
00000010
00000000
00000001
00002000
00000000
00000000
00000000
00003001
00000010
00001000
00000100
00001000
00000000
,
00001001
00000000
00000001
00000000
00001001
00000000
00000000
00000000
00000101
00000000
00000001
00000100
00000000
00000100
00001000
00000000
,
00011000
00000000
00000000
01100000
00000000
00000000
10010000
00000000
00000000
00000000
00010000
01000000
00100000
01000000
00010000
00100000
,
00001000
00000000
00010000
00000000
00000100
00000000
00001000
00000000
00001100
00000000
00000100
00000010
00000000
00000010
00000001
00000000
,
00002002
00000000
00000000
00000000
00003003
00000000
00001000
00000100
00001000
00000001
00000100
00000010
00000100
00000010
00001000
00010000
,
00000000
00000000
00000000
00000000
;
