
//----- song ID: rofo -----//
#TITLE:Robot Footwork;
#ARTIST:Super Shrimp;
#BANNER:Robot Footwork.png;
#BACKGROUND:Robot Footwork-bg.png;
#CDTITLE:./CDTitles/DDR WORLD.png;
#MUSIC:Robot Footwork.ogg;
#SAMPLESTART:84.91;
#SAMPLELENGTH:15;
#BPMS:0=162;
#NOTES:
     dance-single:
     :
     Beginner:
     3:
     :
0000
0000
0000
0000
,
0000
0000
0000
0000
,
0000
0000
0000
0000
,
0000
0000
0000
0000
,
0000
0000
0000
0000
,
0001
0000
0000
0000
,
1000
0000
0000
0000
,
0001
0000
0100
0000
,
0001
0000
0000
0000
,
1000
0000
0000
0000
,
0001
0000
0000
0000
,
0100
0000
0000
0000
,
0100
0000
0000
0000
,
0001
0000
0000
0000
,
1000
0000
0000
0000
,
0010
0000
1000
0000
,
0010
0000
0000
0000
,
1000
0000
0000
0000
,
1000
0000
0000
0000
,
0001
0000
0100
0000
,
0001
0000
0000
0000
,
0100
0000
0000
0000
,
0100
0000
0000
0000
,
0010
0000
1000
0000
,
0010
0000
1000
0000
,
0001
0000
0000
0000
,
0010
0000
0000
0000
,
0001
0000
1000
0000
,
0001
0000
0000
0000
,
0100
0000
0000
0000
,
0010
0000
0000
0000
,
1000
0000
0001
0000
,
1000
0000
0000
0000
,
0100
0000
0000
0000
,
1000
0000
0000
0000
,
0001
0000
0000
0000
,
0100
0000
0000
0000
,
0010
0000
0000
0000
,
1000
0000
0000
0000
,
0001
0000
0000
0000
,
0100
0000
0000
0000
,
0001
0000
0000
0000
,
1000
0000
0000
0000
,
0100
0000
0000
0000
,
0010
0000
0000
0000
,
0001
0000
0000
0000
,
1000
0000
0000
0000
,
0100
0000
0000
0000
,
0010
0000
0000
0000
,
0001
0000
1000
0000
,
0001
0000
0000
0000
,
0100
0000
0000
0000
,
0020
0000
0030
0000
,
1000
0000
0001
0000
,
1000
0000
0000
0000
,
1001
0000
0000
0000
,
0000
0000
0000
0000
,
0001
0000
0000
0000
,
0001
0000
0000
0000
,
1000
0000
0010
0000
,
1000
0000
0000
0000
,
0010
0000
0000
0000
,
0010
0000
0000
0000
,
0100
0000
0001
0000
,
0100
0000
0001
0000
,
1000
0000
0000
0000
,
0100
0000
0000
0000
,
1000
0000
0001
0000
,
1000
0000
0000
0000
,
0010
0000
0000
0000
,
0100
0000
0000
0000
,
0001
0000
1000
0000
,
0001
0000
0000
0000
,
1000
0000
0100
0000
,
1000
0000
0000
0000
,
0001
0000
0100
0000
,
0001
0000
0000
0000
,
1000
0000
0001
0000
,
1000
0000
0000
0000
,
0010
0000
0100
0000
,
0010
0000
0000
0000
,
1001
0000
0000
0000
,
0000
0000
0000
0000
;
#NOTES:
     dance-single:
     :
     Easy:
     8:
     :
0000
0000
0000
0000
,
0000
0000
0000
0000
,
0000
0000
0000
0000
,
0000
0000
0000
0000
,
0000
0000
0000
0000
,
1000
0000
0001
0000
,
0010
0100
0010
0100
,
1000
1000
0001
0001
,
0000
1000
0000
0000
0000
0000
0000
0001
0000
0000
0000
0000
0000
0000
0000
0000
,
0010
0100
1000
0001
,
0010
0100
1000
0001
,
0100
0010
0100
0010
,
1000
1000
0001
0001
,
1000
0100
0010
0001
,
1000
0100
0010
0001
,
0100
0100
0010
0010
,
1000
0001
1001
0000
,
0001
0100
0001
1000
,
0100
1001
0100
0110
,
0001
0010
0001
0010
,
0100
0020
0031
0200
,
0310
1000
0010
0100
,
0001
0110
1000
1001
,
0101
0000
1010
0000
,
1000
0010
0100
0001
,
0020
0000
0230
0000
,
1300
0001
0010
0100
,
1000
1000
0010
0100
,
0110
0000
1001
0000
,
1000
0010
1000
0001
,
0010
0010
0001
1000
,
0010
0100
0001
0010
,
0001
1000
1001
0000
,
0001
0100
1000
0100
,
0001
1000
0010
1000
,
0001
0100
0001
0010
,
0100
1000
0010
1000
,
0001
0010
1000
0010
,
0001
1000
0100
1000
,
0001
0010
0001
0100
,
0001
2000
0100
3100
,
1000
0100
0001
0100
,
1000
0001
0010
0001
,
1000
0100
1000
0010
,
0100
0001
0010
0001
,
1000
0010
0001
0010
,
1000
0001
0100
0001
,
1000
0010
1000
0100
,
0010
0010
0100
0100
,
1000
0000
0000
0000
0000
0100
0000
1000
0000
0000
0100
0000
0000
0010
0000
0000
,
0000
0000
0100
0000
0000
0020
0000
0000
0230
0000
0000
0320
0000
0000
0230
0000
,
0000
0000
0300
0000
1000
0000
0000
0001
0000
0000
0000
0100
0000
0000
0001
0000
,
0000
2000
0000
0000
,
3001
0000
0000
0000
0000
0010
0000
0001
0000
0000
0020
0000
0000
0130
0000
0000
,
0000
0000
1000
0000
0000
0002
0000
0000
2003
0000
0000
3002
0000
0000
2003
0000
,
0000
3001
0000
0000
0000
0100
,
0010
0000
1000
0001
0000
0000
,
1000
0010
1000
0001
,
0010
1001
0010
0110
,
1000
0100
1000
0100
,
0010
0200
1300
0020
,
0130
0001
0100
0010
,
1000
0110
0001
1001
,
1010
0000
0101
0000
,
0001
0100
0010
1000
,
0200
0000
0320
0000
,
0031
1000
0100
0010
,
0001
0001
0100
0010
,
0110
0000
0000
0000
0000
1001
0000
0000
,
0001
0100
0001
1000
,
0100
0100
1000
0001
,
0100
0010
1000
0100
,
1000
0001
1001
0000
,
1000
0100
1000
0100
,
0010
0001
0010
0001
,
0100
0010
0100
0010
,
1000
1000
0001
0001
,
0010
0100
0010
0100
,
1000
0001
1000
0001
,
1001
1001
0110
0110
,
1000
0001
0100
0010
,
0100
0000
0000
0000
,
0000
0000
0000
0000
;
#NOTES:
     dance-single:
     :
     Medium:
     12:
     :
0000
0000
0000
0000
,
0000
0000
0000
0000
,
0000
0000
0000
0000
,
0000
0000
0000
0000
,
0000
0000
0000
0000
,
0001
1000
0010
0010
,
0100
0000
0010
0000
1000
0000
0001
1000
,
0001
0000
0000
0000
0001
0000
0000
0000
0100
0000
0000
0100
0000
0000
0010
0000
,
0000
0010
0000
0000
1000
0000
0000
1000
0000
0000
0001
0000
0000
0000
0000
0000
,
0100
0000
0001
1000
0010
0000
1000
0000
,
0001
0000
0000
0010
0000
0010
0000
0000
0001
0000
0000
1000
0000
1000
0000
0000
,
0100
1000
0100
1000
0001
0000
0100
0000
,
0001
1000
0010
0000
1000
0000
0100
0000
,
0010
0000
0100
1000
0010
0000
1000
0000
,
0001
0000
0000
0100
0000
0100
0000
0000
0010
0000
0000
1000
0000
1000
0000
0000
,
0001
0010
0001
0010
0100
0000
0010
0000
,
0001
0000
1000
0000
0010
0000
0000
0000
0100
0000
0000
0100
0000
0000
0000
0000
,
0001
0000
0000
0100
0000
0000
0010
0000
1000
0000
0000
0100
0000
0000
0010
0000
,
0100
1000
0100
0000
0010
0001
0010
0000
,
0100
0000
0000
0010
0000
0000
0100
0000
1000
0000
0000
0001
0000
0000
1000
0000
,
0001
0100
0002
0000
1003
0010
2000
0000
,
3001
0000
0000
0100
0000
0000
0010
0000
1000
0000
0000
0100
0000
0000
0010
0000
,
0001
0100
0001
0000
1000
0010
1000
0000
,
0001
0001
0100
0110
,
1000
0000
0100
0000
1000
0000
0000
0000
0001
0000
0010
0000
0000
0010
0000
0000
,
0002
0000
0000
0000
2003
0000
0000
0000
3100
0000
0000
0100
0000
0000
0100
0000
,
1000
0000
0000
0010
0000
0000
0100
0000
0001
0000
1000
0000
0001
0000
0000
0000
,
0010
0000
0000
0100
0000
0000
0010
0000
0001
0000
0000
1000
0000
0000
0001
0000
,
2000
0000
0000
0000
3200
0000
0000
0310
0000
0100
0000
0000
0000
0010
0000
0000
,
0001
0000
0000
0100
0000
0000
0010
0000
0100
0000
0000
0001
0000
0000
0010
0000
,
0100
1000
0100
0000
0010
0001
0010
0000
,
0100
0000
0000
0010
0000
0000
0100
0000
1000
0000
0001
0000
0100
0000
0000
0000
,
0010
0000
1000
0000
0100
0000
0000
0000
0010
0000
0100
0000
0000
0110
0000
0000
,
0001
0000
0000
0100
0000
0001
0000
0000
0100
0000
0000
0010
0000
0100
0000
0000
,
0010
0000
0000
1000
0000
0010
0000
0000
1000
0000
0000
0001
0000
1000
0000
0000
,
0100
0000
0000
0010
0000
0100
0000
0000
0010
0000
0000
0100
0000
0010
0000
0000
,
0001
0000
0000
1000
0000
0001
0000
0000
0100
0000
0000
0010
0000
0100
0000
0000
,
0001
0000
0000
0100
0000
0010
0000
0000
1000
0000
0000
0001
0000
0010
0000
0000
,
0100
0000
0000
1000
0000
0001
0000
0000
0100
0000
0000
0010
0000
1000
0000
0000
,
0001
0000
0000
0100
0000
0001
0000
0000
1000
0000
0000
0010
0000
1000
0000
0000
,
0100
0000
0000
0010
0000
0100
0000
0000
1000
0000
0000
0001
0000
1000
0000
0000
,
0001
0000
0000
0100
0000
0010
0000
0000
1000
0000
0000
0100
0000
0001
0000
0000
,
0100
0000
0000
0010
0000
0001
0000
0000
1000
0000
0000
0010
0000
0001
0000
0000
,
0010
0000
0000
1000
0000
0100
0000
0000
1000
0000
0000
0001
0000
0100
0000
0000
,
1000
0000
0000
0100
0000
0001
0000
0000
0010
0000
0000
0001
0000
0100
0000
0000
,
0001
0000
0000
0010
0000
0100
0000
0000
1000
0000
0000
0010
0000
0001
0000
0000
,
0010
0000
0000
0100
0000
0001
0000
0000
1000
0000
0000
0100
0000
0001
0000
0000
,
0100
0000
0000
1000
0000
0010
0000
0000
1000
0000
0000
0001
0000
0010
0000
0000
,
0100
0000
0010
0000
0100
0000
0000
0000
1000
0000
0000
0010
0000
0010
0000
0000
,
0100
0000
0100
0000
0000
0001
0000
1000
0000
0000
0002
0000
0000
0013
0000
0010
,
0000
0000
0001
0000
0000
0200
0000
0000
0320
0000
0000
0230
0000
0000
0310
0000
,
0020
0000
0030
0000
0100
0000
0000
0001
0000
0001
0000
0001
0000
0000
1000
0000
,
0001
0200
0000
0000
,
0310
0000
0010
0000
0000
1000
0000
0001
0000
0000
2000
0000
0000
3100
0000
0100
,
0000
0000
0010
0000
0000
0002
0000
0000
2003
0000
0000
3002
0000
0000
1003
0000
,
2000
3001
0010
0100
1000
0100
,
0010
0000
0001
0000
1000
0000
2002
0000
0000
3003
0000
0000
,
1000
0000
0000
0010
0000
0000
0100
0000
0001
0000
0000
0010
0000
0000
0100
0000
,
0010
0001
0010
0000
0100
1000
0100
0000
,
0010
0000
0000
0100
0000
0000
0010
0000
0001
0000
0000
1000
0000
0000
0001
0000
,
1000
0010
2000
0000
3001
0100
0002
0000
,
1003
0000
0000
0010
0000
0000
0100
0000
0001
0000
0000
0010
0000
0000
0100
0000
,
1000
0010
1000
0000
0001
0100
0001
0000
,
1000
1000
0010
0110
,
0001
0000
0010
0000
0001
0000
0000
0000
1000
0000
0100
0000
0000
0100
0000
0000
,
2000
0000
0000
0000
3002
0000
0000
0000
0013
0000
0000
0010
0000
0000
0010
0000
,
0001
0000
0000
0100
0000
0000
0010
0000
1000
0000
0001
0000
1000
0000
0000
0000
,
0100
0000
0000
0010
0000
0000
0100
0000
1000
0000
0000
0001
0000
0000
1000
0000
,
0002
0000
0000
0000
0203
0000
0000
0310
0000
0100
0000
0000
0000
0010
0000
0000
,
1000
0000
0000
0100
0000
0000
0010
0000
0100
0000
0000
1000
0000
0000
0010
0000
,
0100
0001
0100
0000
0010
1000
0010
0000
,
0100
0000
0000
0010
0000
0000
0100
0000
0001
0000
1000
0000
0010
0000
0000
0000
,
0100
0000
0001
0000
0010
0000
0000
0000
0100
0000
0010
0000
0000
0110
0000
0000
,
1000
0000
0000
0100
0000
0000
0010
0000
0001
0000
0000
0100
0000
0000
0010
0000
,
1000
0000
0000
0001
0000
0000
0100
0000
0001
0000
0000
1000
0000
0000
0010
0000
,
1000
0000
0000
0100
0000
0000
1000
0000
0001
0000
0000
0010
0000
0000
0001
0000
,
0100
0000
0000
0010
0000
0000
0100
0000
0010
0000
0000
1000
0000
0000
0010
0000
,
1000
0000
0000
0100
0000
0000
0001
0000
1000
0000
0000
0010
0000
0000
0001
0000
,
1000
0000
0000
0010
0000
0000
0001
0000
1000
0000
0000
0100
0000
0000
0001
0000
,
1000
0000
0000
0000
0001
0000
0000
0000
0010
0000
0000
0100
0000
0000
0010
0000
,
0001
0000
0100
0000
0010
0000
0000
0000
1000
0000
0001
0000
0000
1000
0000
0000
,
0100
0000
0000
0000
,
0000
0000
0000
0000
;
#NOTES:
     dance-single:
     :
     Hard:
     14:
     :
0000
0000
0000
0000
,
0000
0000
0000
0000
,
0000
0000
0000
0000
,
0000
0000
0000
0000
,
0000
0000
0000
0000
,
1000
0000
0000
0100
0000
0010
0000
0000
0001
1000
0000
0000
0010
0000
0100
0000
,
0001
0000
0010
0100
0000
0010
0000
0100
0000
1000
0100
0000
1000
0000
0001
0000
,
0100
0000
0010
0000
0100
0000
0010
0000
1010
0000
0000
1001
0000
0000
0011
0000
,
0000
0110
0000
0000
1100
0000
0000
1010
0000
0000
0110
0000
0001
0000
1000
0000
,
0100
0000
0000
0010
0000
0001
0000
1000
0100
0000
0000
1000
0000
0001
0000
0100
,
0010
0000
0000
0100
0000
0100
0000
0001
0010
0000
0000
0100
0000
0100
0000
1000
,
0010
0000
0000
0100
0000
0001
0000
1000
0001
0000
0000
0010
0000
0010
0000
0001
,
0100
0000
0010
0000
1000
0000
0001
0000
1000
0000
0000
0010
0000
0100
0010
0000
,
1000
0000
0000
0100
0000
0010
0000
0001
1000
0000
0000
0010
0000
1000
0000
0100
,
0001
0000
0000
0100
1000
0000
0000
0010
0001
0000
0000
0010
1000
0000
0010
0000
,
0100
0000
0000
0001
0000
0010
0000
0100
0010
0000
0001
0010
0000
0100
0000
1000
,
0001
0000
0100
0000
0010
0100
0000
0100
0010
0000
0000
0220
0000
0000
0330
0000
,
1000
0000
0000
0100
0000
0010
0001
0000
1000
0000
0000
0010
0000
0100
0001
0000
,
1000
0000
0010
0000
0000
0001
0010
0000
1000
0000
0100
0000
0000
0001
0100
0000
,
1000
0001
0100
0010
1000
0001
0100
0010
,
1000
0100
0002
0000
0103
1000
0020
0000
,
1030
0000
0000
0001
0000
0010
0100
0000
1000
0000
0000
0001
0000
0100
0010
0000
,
1000
0000
0010
0000
0000
0001
0010
0000
1000
0000
0100
0000
0000
0001
0100
0000
,
1000
0100
1000
0100
0010
0001
0100
0010
,
1000
0000
0001
0000
0010
0000
0100
0000
1000
0000
0001
0010
0000
0100
0010
0000
,
0002
0000
0000
0103
2000
0000
0000
3100
0020
0000
0000
0130
0000
0000
0100
0000
,
0001
0000
0000
0010
0000
0000
0100
0000
1000
0000
0010
0000
1000
0000
0001
0000
,
1000
0000
0100
0010
0000
0010
0001
0000
1000
0000
0010
0100
0000
0100
0001
0000
,
0020
0000
0000
0000
0230
0000
0000
1300
0000
0000
1010
0000
0000
0110
0000
0000
,
0001
0000
0000
0010
0000
0100
1000
0000
0001
0000
0000
0100
0000
0010
1000
0000
,
0010
0000
0100
0001
0000
0100
0010
0000
1000
0000
0100
0010
0000
0100
1000
0000
,
0001
0000
0000
0011
0000
0000
0110
0000
1000
0000
0001
0000
0100
0000
0100
0000
,
0001
0000
0010
0000
0100
0000
1000
0000
0010
0000
1010
0000
0000
1001
0000
0000
,
1000
0100
0000
0010
0000
0001
0000
1000
0001
0000
0000
0100
0000
0010
0000
0000
,
1001
0000
0000
0001
0000
0100
0000
0010
0100
0000
0000
0001
0000
1000
0000
0000
,
1001
0000
0000
0100
0000
0100
0000
0000
1001
0000
0000
0010
0000
0010
0000
0000
,
1010
0000
0000
0001
0000
0001
0000
0000
0011
0000
0000
1000
0000
1000
0000
0000
,
0001
0010
0000
0100
0000
1000
0000
0001
1000
0000
0000
0010
0000
0100
0000
0000
,
1001
0000
0000
1000
0000
0010
0000
0100
0010
0000
0000
1000
0000
0001
0000
0000
,
1001
0000
0000
0010
0000
0010
0000
0001
1000
0000
0000
0100
0000
0100
0000
0000
,
0101
0000
0000
1000
0000
1000
0000
0000
1100
0000
0000
0001
0000
0001
0000
0000
,
0100
0010
0000
1000
0000
0100
0000
0010
0001
0000
0000
1000
0000
0001
0000
0000
,
0101
0000
0000
1000
0000
1000
0000
0000
1100
0000
0000
0001
0000
0001
0000
0000
,
0010
0100
0000
0010
0000
0001
0000
1000
0010
0000
0000
1000
0000
0001
0000
0010
,
0100
0000
1000
0000
0001
0100
0000
0010
1000
0000
0000
0001
0000
1000
0000
0000
,
0100
0010
0000
0001
0000
0100
0000
0010
1000
0000
0000
0001
0000
1000
0000
0000
,
1100
0000
0000
0001
0000
0001
0000
0000
0101
0000
0000
1000
0000
1000
0000
0000
,
0010
0100
0000
0010
0000
1000
0000
0001
0010
0000
0000
0001
0000
1000
0000
0100
,
1000
0000
0010
0000
0100
0000
0010
0000
0100
0001
0000
0001
0000
0001
0000
0000
,
1000
0000
1000
0000
0000
0010
0000
0100
0000
0000
0020
0000
0000
1030
0000
1000
,
0001
0000
0100
0010
0000
2000
0000
0000
3002
0000
0000
2003
0000
0000
3001
0000
,
0002
0000
0003
0000
0100
0010
0000
0100
0000
0100
0000
0100
0001
0000
0010
0000
,
0100
0000
0000
0000
0010
0002
0000
0000
0000
1000
0000
1000
0000
1000
0000
0000
,
0013
0000
0010
0000
0000
0001
0000
0100
0000
0000
0002
0000
0000
0013
0000
0010
,
0100
0000
1000
0001
0000
0200
0000
0000
0320
0000
0000
0230
0000
0000
0310
0000
,
0020
1030
0100
0010
0011
0100
,
0010
0000
1010
0000
0001
0000
2002
0000
0000
3003
0000
0000
,
0001
0000
0000
0100
0000
0010
1000
0000
0001
0000
0000
0010
0000
0100
1000
0000
,
0001
0000
0100
0000
0000
1000
0100
0000
0001
0000
0010
0000
0000
1000
0010
0000
,
0001
1000
0100
0010
0001
1000
0100
0010
,
0001
0100
2000
0000
3100
0001
0020
0000
,
0031
0000
0000
1000
0000
0010
0100
0000
0001
0000
0000
1000
0000
0100
0010
0000
,
0001
0000
0100
0000
0000
1000
0100
0000
0001
0000
0010
0000
0000
1000
0010
0000
,
0001
0100
0001
0100
0010
1000
0100
0010
,
0001
0000
1000
0000
0010
0000
0100
0000
0001
0000
1000
0010
0000
0100
0010
0000
,
2000
0000
0000
3100
0002
0000
0000
0103
0020
0000
0000
0130
0000
0000
0100
0000
,
1000
0000
0000
0010
0000
0000
0100
0000
0001
0000
0010
0000
0001
0000
1000
0000
,
0001
0000
0100
0010
0000
0010
1000
0000
0001
0000
0010
0100
0000
0100
1000
0000
,
0020
0000
0000
0000
0230
0000
0000
0301
0000
0000
0011
0000
0000
0110
0000
0000
,
1000
0000
0000
0010
0000
0100
0001
0000
1000
0000
0000
0100
0000
0010
0001
0000
,
1000
0000
0100
0001
0000
0100
0010
0000
0001
0000
0100
1000
0000
0100
0010
0000
,
1000
0000
0000
1100
0000
0000
0110
0000
0001
0000
1000
0000
0010
0000
0010
0000
,
1000
0000
0100
0000
0010
0000
0001
0000
0100
0000
0101
0000
0000
1001
0000
0000
,
1000
0000
0000
0001
0000
0100
0010
0000
1000
0000
0000
0001
0000
0100
0010
0000
,
1000
0000
0000
0001
0000
0010
0100
0000
1000
0000
0000
0001
0000
0010
0100
0000
,
1000
0000
0010
0100
0000
0010
0100
0000
0001
0000
0010
0100
0000
0100
0010
0000
,
0001
0000
1000
0010
0000
1000
0010
0000
0100
0000
0001
0010
0000
0010
0100
0000
,
1000
0000
0000
0010
0000
0100
0001
0000
1000
0000
0000
0010
0000
0100
0001
0000
,
1000
0000
0000
0100
0000
0010
0001
0000
1000
0000
0000
0100
0000
0010
0001
0000
,
1000
0000
0000
0010
0001
0000
0000
0010
1000
0000
0001
0100
0000
0100
0010
0000
,
1000
0000
0100
0000
0010
0000
0001
0000
0100
0000
0001
0010
0000
1000
0010
0000
,
0001
0000
0000
0000
,
0000
0000
0000
0000
;
#NOTES:
     dance-double:
     :
     Easy:
     8:
     :
00000000
00000000
00000000
00000000
,
00000000
00000000
00000000
00000000
,
00000000
00000000
00000000
00000000
,
00000000
00000000
00000000
00000000
,
00000000
00000000
00000000
00000000
,
00000001
00000000
00001000
00000000
,
00000100
00010000
00001000
01000000
,
00010000
00010000
10000000
10000000
,
00000000
00010000
00000000
00000000
00000000
00000000
00000000
10000000
00000000
00000000
00000000
00000000
00000000
00000000
00000000
00000000
,
00010000
00100000
00001000
00010000
,
00000010
00001000
00000001
00000100
,
00000010
00001000
00000010
00001000
,
00000001
00000001
00000100
00000100
,
00001000
00010000
00100000
10000000
,
00010000
01000000
00010000
01000000
,
00001000
00001000
00010000
00010000
,
00000100
00001000
00001001
00000000
,
00000001
00000100
00000001
00001000
,
00000100
00010000
00001000
00100000
,
00101000
00000000
01100000
00000000
,
10000000
00200000
00310000
00002000
,
00013000
00001000
00010000
00000100
,
00001000
00000001
00000100
00000010
,
00000110
00000000
00011000
00000000
,
00001000
00010000
01000000
10000000
,
00020000
00000000
20030000
00000000
,
31000000
00100000
00010000
00001000
,
00000100
00000100
00001000
00000001
,
00001001
00000000
00000000
00000000
,
00001000
00000100
00010000
00001000
,
01000000
01000000
00001000
00010000
,
00001000
00000100
00000001
00001000
,
00000100
00000010
00000110
00000000
,
00000001
00000010
00001000
00010000
,
00001000
00010000
01000000
10000000
,
00100000
10000000
01000000
00010000
,
00001000
00010000
00000010
00010000
,
00001000
00000100
00000001
00000100
,
00001000
00010000
00001000
00100000
,
00001000
00010000
01000000
10000000
,
00010000
20000000
00000000
30000000
,
10000000
01000000
00010000
00001000
,
00010000
00001000
00000010
00000001
,
00000100
00000001
00000010
00001000
,
00010000
00001000
01000000
00001000
,
00010000
00100000
10000000
00100000
,
00010000
00001000
00010000
00000100
,
00010000
00001000
00000010
00000001
,
00001000
00001000
00000001
00000001
,
00001000
00000000
00000000
00000000
00000000
00000100
00000000
00001000
00000000
00000000
00000100
00000000
00000000
00010000
00000000
00000000
,
00000000
00000000
00001000
00000000
00000000
00020000
00000000
00000000
00032000
00000000
00000000
00023000
00000000
00000000
00032000
00000000
,
00000000
00000000
00003000
00000000
01000000
00000000
00000000
00010000
00000000
00000000
00000000
01000000
00000000
00000000
00010000
00000000
,
00000000
20000000
00000000
00000000
,
30100000
00000000
00000000
00000000
00000000
01000000
00000000
00100000
00000000
00000000
02000000
00000000
00000000
03010000
00000000
00000000
,
00000000
00000000
01000000
00000000
00000000
00002000
00000000
00000000
00023000
00000000
00000000
00032000
00000000
00000000
00023000
00000000
,
00000000
00030100
00000000
00000000
00000000
00010000
,
00001000
00000000
01000000
00010000
00000000
00000000
,
10000000
00100000
10000000
00010000
,
00100000
00001000
00010000
00000100
,
00010100
00000000
00000110
00000000
,
00000001
00000200
00001300
00020000
,
00031000
00010000
00001000
00100000
,
00010000
10000000
00100000
01000000
,
01100000
00000000
00011000
00000000
,
00010000
00001000
00000010
00000001
,
00002000
00000000
00003002
00000000
,
00000013
00000100
00001000
00010000
,
00100000
00100000
00010000
10000000
,
10010000
00000000
00000000
00000000
,
00010000
00100000
00001000
00010000
,
00000010
00000010
00010000
00001000
,
00010000
00100000
10000000
00010000
,
00100000
01000000
01100000
00000000
,
10000000
01000000
10000000
01000000
,
00100000
00010000
00100000
00010000
,
00001000
00000100
00000010
00000001
,
00001000
00000001
00001001
00000000
,
00000001
00000010
00000001
00000010
,
00000100
00001000
00000100
00001000
,
00010100
00011000
01001000
01010000
,
00010000
10000000
01000000
00100000
,
01000000
00000000
00000000
00000000
,
00000000
00000000
00000000
00000000
;
#NOTES:
     dance-double:
     :
     Medium:
     12:
     :
00000000
00000000
00000000
00000000
,
00000000
00000000
00000000
00000000
,
00000000
00000000
00000000
00000000
,
00000000
00000000
00000000
00000000
,
00000000
00000000
00000000
00000000
,
10000000
00010000
01000000
01000000
,
00001000
00010000
00000100
00001000
,
00000001
00000000
00000000
00000000
00000001
00000000
00000000
00000000
00000100
00000000
00000000
00000100
00000000
00000000
00001000
00000000
,
00000000
00001000
00000000
00000000
00010000
00000000
00000000
00010000
00000000
00000000
00001000
00000000
00000000
00000000
00000000
00000000
,
00100000
00010000
10000000
00010000
,
01000000
00010000
10000000
00010000
,
00100000
00001000
00100000
00000000
00001000
00000000
00010000
00000000
,
00000010
00001000
00000010
00000000
00000100
00000000
00000001
00000000
,
00001000
00000100
00000010
00000001
,
00001000
00000010
00001000
00000100
,
00010000
00001000
00010000
00000000
00001000
00000000
00100000
00000000
,
00010000
00000000
00100000
00000000
01000000
00000000
00000000
00000000
10000000
00000000
00000000
10000000
00000000
00000000
00000000
00000000
,
00010000
00000000
00000000
01000000
00000000
00000000
00001000
00000000
00010000
00000000
00000000
00000100
00000000
00000000
00001000
00000000
,
00000001
00000001
00001000
00001000
,
00000001
00000000
00000000
00000100
00000000
00000000
00001000
00000000
00010000
00000000
00000000
00100000
00000000
00000000
10000000
00000000
,
00010000
00100000
00002000
00000000
00013000
00000010
00002000
00000000
,
00003001
00000000
00000000
00000100
00000000
00000000
00000010
00000000
00001000
00000000
00000000
00000100
00000000
00000000
00010000
00000000
,
00001000
00100000
00010000
01000000
,
00010000
00010000
10000000
10000000
,
01000000
00000000
00010000
00000000
00001000
00000000
00000000
00000000
00010000
00000000
00000100
00000000
00000000
00000100
00000000
00000000
,
00002000
00000000
00000000
00000000
00003002
00000000
00000000
00000000
00000103
00000000
00000000
00000100
00000000
00000000
00000100
00000000
,
00000001
00000000
00000000
00000010
00000000
00000000
00001000
00000000
00010000
00000000
00001000
00000000
00010000
00000000
00000000
00000000
,
00001000
00000000
00000000
00100000
00000000
00000000
00010000
00000000
10000000
00000000
00000000
00100000
00000000
00000000
10000000
00000000
,
02000000
00000000
00000000
00000000
03020000
00000000
00000000
00031000
00000000
00010000
00000000
00000000
00000000
00001000
00000000
00000000
,
00000100
00000000
00000000
00000010
00000000
00000000
00000100
00000000
00000001
00000000
00000000
00000010
00000000
00000000
00000001
00000000
,
00001000
00001000
00000100
00000100
,
00010000
00000000
00000000
00001000
00000000
00000000
01000000
00000000
00010000
00000000
10000000
00000000
00010000
00000000
00000000
00000000
,
00100000
00000000
01000000
00000000
10000000
00000000
00000000
00000000
00010000
00000000
10000000
00000000
00000000
10010000
00000000
00000000
,
10000000
00000000
00000000
01000000
00000000
10000000
00000000
00000000
01000000
00000000
00000000
00010000
00000000
01000000
00000000
00000000
,
00010000
00000000
00000000
00001000
00000000
00010000
00000000
00000000
00001000
00000000
00000000
00000100
00000000
00001000
00000000
00000000
,
00000100
00000000
00000000
00000010
00000000
00000100
00000000
00000000
00000001
00000000
00000000
00001000
00000000
00000001
00000000
00000000
,
00000010
00000000
00000000
00000100
00000000
00000010
00000000
00000000
00000001
00000000
00000000
00000100
00000000
00000001
00000000
00000000
,
00000010
00000000
00000000
00000100
00000000
00001000
00000000
00000000
00010000
00000000
00000000
00100000
00000000
01000000
00000000
00000000
,
10000000
00000000
00000000
00010000
00000000
10000000
00000000
00000000
01000000
00000000
00000000
00100000
00000000
00010000
00000000
00000000
,
00001000
00000000
00000000
00000100
00000000
00000010
00000000
00000000
00000001
00000000
00000000
00001000
00000000
00000001
00000000
00000000
,
00000100
00000000
00000000
00000010
00000000
00000100
00000000
00000000
00000001
00000000
00000000
00001000
00000000
00000001
00000000
00000000
,
00000001
00000000
00000000
00000010
00000000
00000001
00000000
00000000
00000010
00000000
00000000
00001000
00000000
00000010
00000000
00000000
,
00001000
00000000
00000000
00010000
00000000
00001000
00000000
00000000
00010000
00000000
00000000
00100000
00000000
00010000
00000000
00000000
,
00100000
00000000
00000000
01000000
00000000
00100000
00000000
00000000
10000000
00000000
00000000
00010000
00000000
10000000
00000000
00000000
,
01000000
00000000
00000000
00100000
00000000
01000000
00000000
00000000
10000000
00000000
00000000
00100000
00000000
10000000
00000000
00000000
,
01000000
00000000
00000000
00100000
00000000
00010000
00000000
00000000
00001000
00000000
00000000
00000100
00000000
00000010
00000000
00000000
,
00000001
00000000
00000000
00001000
00000000
00000001
00000000
00000000
00000010
00000000
00000000
00000100
00000000
00001000
00000000
00000000
,
00010000
00000000
00000000
00100000
00000000
01000000
00000000
00000000
10000000
00000000
00000000
00010000
00000000
10000000
00000000
00000000
,
01000000
00000000
00100000
00000000
00010000
00000000
00000000
00000000
00100000
00000000
00000000
00001000
00000000
00001000
00000000
00000000
,
00010000
00000000
00010000
00000000
00000000
00000010
00000000
00001000
00000000
00000000
00000002
00000000
00000000
00000013
00000000
00000010
,
00000000
00000000
00000001
00000000
00000000
00002000
00000000
00000000
00003002
00000000
00000000
00002003
00000000
00000000
00003100
00000000
,
00000200
00000000
00000300
00000000
00010000
00000000
00000000
00001000
00000000
00001000
00000000
00001000
00000000
00000000
00100000
00000000
,
00010000
20000000
00000000
00000000
,
30100000
00000000
00100000
00000000
00000000
10000000
00000000
00010000
00000000
00000000
20000000
00000000
00000000
31000000
00000000
01000000
,
00000000
00000000
00100000
00000000
00000000
00020000
00000000
00000000
20030000
00000000
00000000
30020000
00000000
00000000
00130000
00000000
,
00200000
00301000
00010000
00001000
00010000
00000100
,
00010000
00000000
00000100
00000000
00001000
00000000
00002002
00000000
00000000
00003003
00000000
00000000
,
00001000
00000000
00000000
00000010
00000000
00000000
00010000
00000000
00001000
00000000
00000000
00100000
00000000
00000000
00010000
00000000
,
10000000
10000000
00010000
00010000
,
10000000
00000000
00000000
00100000
00000000
00000000
00010000
00000000
00001000
00000000
00000000
00000100
00000000
00000000
00000001
00000000
,
00001000
00000100
00020000
00000000
00031000
01000000
00020000
00000000
,
10030000
00000000
00000000
00100000
00000000
00000000
01000000
00000000
00010000
00000000
00000000
00100000
00000000
00000000
00001000
00000000
,
00010000
00000100
00001000
00000010
,
00001000
00001000
00000001
00000001
,
00000010
00000000
00001000
00000000
00010000
00000000
00000000
00000000
00001000
00000000
00100000
00000000
00000000
00100000
00000000
00000000
,
00020000
00000000
00000000
00000000
20030000
00000000
00000000
00000000
30100000
00000000
00000000
00100000
00000000
00000000
00100000
00000000
,
10000000
00000000
00000000
01000000
00000000
00000000
00010000
00000000
00001000
00000000
00010000
00000000
00001000
00000000
00000000
00000000
,
00010000
00000000
00000000
00001000
00000000
00000000
00000100
00000000
00000001
00000000
00000000
00001000
00000000
00000000
00000001
00000000
,
00000020
00000000
00000000
00000000
00002030
00000000
00000000
00013000
00000000
00001000
00000000
00000000
00000000
00010000
00000000
00000000
,
00100000
00000000
00000000
01000000
00000000
00000000
00100000
00000000
10000000
00000000
00000000
01000000
00000000
00000000
10000000
00000000
,
00010000
00010000
00100000
00100000
,
00001000
00000000
00000000
00010000
00000000
00000000
00001000
00000000
00000010
00000000
00000001
00000000
00001000
00000000
00000000
00000000
,
00000100
00000000
00000010
00000000
00000001
00000000
00000000
00000000
00001000
00000000
00000001
00000000
00000000
00001001
00000000
00000000
,
00000001
00000000
00000000
00000100
00000000
00000000
00001000
00000000
00000100
00000000
00000000
00001000
00000000
00000000
00010000
00000000
,
00001000
00000000
00000000
00010000
00000000
00000000
00100000
00000000
00010000
00000000
00000000
00100000
00000000
00000000
10000000
00000000
,
01000000
00000000
00000000
00100000
00000000
00000000
01000000
00000000
00100000
00000000
00000000
00010000
00000000
00000000
00100000
00000000
,
00001000
00000000
00000000
00010000
00000000
00000000
00001000
00000000
01000000
00000000
00000000
00100000
00000000
00000000
01000000
00000000
,
00100000
00000000
00000000
10000000
00000000
00000000
01000000
00000000
10000000
00000000
00000000
01000000
00000000
00000000
00010000
00000000
,
01000000
00000000
00000000
00010000
00000000
00000000
00001000
00000000
00010000
00000000
00000000
00001000
00000000
00000000
00000010
00000000
,
00000001
00000000
00000000
00000000
00000010
00000000
00000000
00000000
00000001
00000000
00000000
00000100
00000000
00000000
00001000
00000000
,
00010000
00000000
00001000
00000000
00010000
00000000
00000000
00000000
00001000
00000000
01000000
00000000
00000000
00010000
00000000
00000000
,
10000000
00000000
00000000
00000000
,
00000000
00000000
00000000
00000000
;
#NOTES:
     dance-double:
     :
     Hard:
     14:
     :
00000000
00000000
00000000
00000000
,
00000000
00000000
00000000
00000000
,
00000000
00000000
00000000
00000000
,
00000000
00000000
00000000
00000000
,
00000000
00000000
00000000
00000000
,
00001000
00000000
00000000
00010000
00000000
00000100
00000000
00000000
00001000
00000100
00000000
00000000
00000010
00000000
00000001
00000000
,
00001000
00000000
00000100
00001000
00000000
00000100
00000000
00010000
00000000
00001000
00010000
00000000
00001000
00000000
00100000
00000000
,
00010000
00000000
01000000
00000000
00010000
00000000
01000000
00000000
01010000
00000000
00000000
10010000
00000000
00000000
11000000
00000000
,
00000000
01100000
00000000
00000000
00110000
00000000
00000000
00101000
00000000
00000000
00011000
00000000
00010000
00000000
00000010
00000000
,
00001000
00000000
00000000
00000001
00000000
00000100
00000000
00000010
00001000
00000000
00000000
00000010
00000000
00001000
00000000
00000100
,
00010000
00000000
00000000
00001000
00000000
00001000
00000000
00100000
00010000
00000000
00000000
01000000
00000000
01000000
00000000
00100000
,
10000000
00000000
00000000
01000000
00000000
00010000
00000000
00001000
00010000
00000000
00000000
00001000
00000000
00001000
00000000
00000100
,
00000010
00000000
00000100
00000000
00000001
00000000
00001000
00000000
00000001
00000000
00000000
00000010
00000000
00000001
00000010
00000000
,
00000100
00000000
00000000
00001000
00000000
00000010
00000000
00010000
00001000
00000000
00000000
00100000
00000000
00010000
00000000
10000000
,
00010000
00000000
00000000
01000000
10000000
00000000
00000000
01000000
00010000
00000000
00000000
00100000
10000000
00000000
00100000
00000000
,
01000000
00000000
00000000
00010000
00000000
00001000
00000000
00010000
00001000
00000000
00000010
00000100
00000000
00001000
00000000
00000001
,
00001000
00000000
00000100
00000000
00010000
00001000
00000000
00001000
00010000
00000000
00000000
00022000
00000000
00000000
00033000
00000000
,
00001000
00000000
00000000
01000000
00000000
00010000
01000000
00000000
00100000
00000000
00000000
10000000
00000000
00100000
10000000
00000000
,
01000000
00100000
01000000
00000000
00100000
00010000
00100000
00000000
,
00001000
00100000
00010000
01000000
00100000
00010000
00001000
00000100
,
00000010
00001000
00000200
00000000
00000310
00000001
00000200
00000000
,
00000301
00000000
00000000
00000010
00000000
00000001
00000010
00000000
00000100
00000000
00000000
00001000
00000000
00000100
00001000
00000000
,
00000010
00010000
00000010
00000000
00010000
00001000
00010000
00000000
,
00000100
00010000
00001000
00000100
00000010
00001000
00000100
00010000
,
00001000
00000000
00100000
00000000
00010000
00000000
10000000
00000000
01000000
00000000
00100000
00010000
00000000
00100000
01000000
00000000
,
20000000
00000000
00000000
30100000
00020000
00000000
00000000
00130000
20000000
00000000
00000000
31000000
00000000
00000000
01000000
00000000
,
00010000
00000000
00000000
00001000
00000000
00000000
00000010
00000000
00000001
00000000
00000010
00000000
00000001
00000000
00000000
00000000
,
00001000
00000000
00000100
00010000
00000000
00010000
00001000
00000000
01000000
00000000
00010000
10000000
00000000
10000000
00100000
00000000
,
02000000
00000000
00000000
00000000
03002000
00000000
00000000
00013000
00000000
00000000
00010100
00000000
00000000
00001100
00000000
00000000
,
00001000
00000000
00000000
00000010
00000000
00000100
00000001
00000000
00001000
00000000
00000000
00000100
00000000
00000010
00000001
00000000
,
00000100
00000000
00001000
00010000
00000000
00000100
00010000
00000000
00001000
00000000
00100000
00010000
00000000
10000000
00010000
00000000
,
10000000
00000000
00000000
11000000
00000000
00000000
01100000
00000000
00100000
00000000
00001000
00000000
00010000
00000000
00010000
00000000
,
00000100
00000000
00001000
00000000
00000010
00000000
00000100
00000000
00000001
00000000
00000101
00000000
00000000
00001001
00000000
00000000
,
00000001
00000010
00000000
00000100
00000000
00001000
00000000
00000001
00001000
00000000
00000000
00000100
00000000
00010000
00000000
00000000
,
00011000
00000000
00000000
00001000
00000000
00010000
00000000
01000000
00100000
00000000
00000000
00010000
00000000
10000000
00000000
00000000
,
10010000
00000000
00000000
00100000
00000000
00100000
00000000
00000000
01100000
00000000
00000000
00001000
00000000
00001000
00000000
00000000
,
00011000
00000000
00000000
00010000
00000000
00010000
00000000
00000000
00000110
00000000
00000000
00001000
00000000
00001000
00000000
00000000
,
00000001
00000010
00000000
00001000
00000000
00010000
00000000
00001000
00010000
00000000
00000000
01000000
00000000
10000000
00000000
00000000
,
11000000
00000000
00000000
00010000
00000000
00100000
00000000
00001000
00010000
00000000
00000000
00000010
00000000
00001000
00000000
00000000
,
00000110
00000000
00000000
00001000
00000000
00001000
00000000
00000100
00010000
00000000
00000000
00001000
00000000
00001000
00000000
00000000
,
01100000
00000000
00000000
10000000
00000000
10000000
00000000
00000000
01100000
00000000
00000000
00010000
00000000
00010000
00000000
00000000
,
10000000
01000000
00000000
00100000
00000000
00010000
00000000
10000000
00010000
00000000
00000000
00100000
00000000
00001000
00000000
00000000
,
00011000
00000000
00000000
00010000
00000000
00001000
00000000
00000010
00000100
00000000
00000000
00001000
00000000
00000001
00000000
00000000
,
00001001
00000000
00000000
00000100
00000000
00000100
00000000
00000000
00000110
00000000
00000000
00010000
00000000
00010000
00000000
00000000
,
00011000
00000000
00000000
00001000
00000000
00001000
00000000
00000000
01100000
00000000
00000000
00010000
00000000
00010000
00000000
00000000
,
10000000
01000000
00000000
00010000
00000000
00001000
00000000
00010000
00001000
00000000
00000000
00000010
00000000
00000001
00000000
00000000
,
00001001
00000000
00000000
00000100
00000000
00000100
00000000
00000000
00000110
00000000
00000000
00010000
00000000
00010000
00000000
00000000
,
00001000
00010000
00000000
00001000
00000000
00100000
00000000
00010000
00100000
00000000
00000000
00010000
00000000
10000000
00000000
01000000
,
10000000
00000000
01000000
00000000
00010000
00000000
00001000
00000000
00000010
00000001
00000000
00000001
00000000
00000001
00000000
00000000
,
00001000
00000000
00001000
00000000
00000000
00000010
00000000
00000100
00000000
00000000
00000020
00000000
00000000
00001030
00000000
00001000
,
00000010
00000000
00010000
00001000
00000000
02000000
00000000
00000000
03200000
00000000
00000000
02300000
00000000
00000000
03100000
00000000
,
00200000
00000000
00300000
00000000
10000000
00010000
00000000
10000000
00000000
10000000
00000000
10000000
00010000
00000000
00100000
00000000
,
00001000
00000000
00000000
00000000
00010000
00000200
00000000
00000000
00000000
00001000
00000000
00001000
00000000
00001000
00000000
00000000
,
00000310
00000000
00000010
00000000
00000000
00000001
00000000
00000010
00000000
00000000
00000200
00000000
00000000
00001300
00000000
00001000
,
00000100
00000000
00010000
00000100
00000000
00020000
00000000
00000000
00032000
00000000
00000000
00023000
00000000
00000000
00031000
00000000
,
00002000
00013000
01000000
00010000
00001000
00010000
,
00001000
00000000
00000100
00000000
00001000
00000000
00022000
00000000
00000000
00033000
00000000
00000000
,
00010000
00000000
00000000
00000010
00000000
00001000
00000010
00000000
00000100
00000000
00000000
00000001
00000000
00000100
00000001
00000000
,
00000010
00000100
00000010
00000000
00000100
00001000
00000100
00000000
,
00010000
00000100
00001000
00000010
00000100
00001000
00010000
00100000
,
01000000
00010000
00200000
00000000
01300000
10000000
00200000
00000000
,
10300000
00000000
00000000
01000000
00000000
10000000
01000000
00000000
00100000
00000000
00000000
00010000
00000000
00100000
00010000
00000000
,
01000000
00001000
01000000
00000000
00001000
00010000
00001000
00000000
,
00100000
00001000
00010000
00100000
01000000
00010000
00100000
00001000
,
00010000
00000000
00000100
00000000
00001000
00000000
00000001
00000000
00000010
00000000
00000100
00001000
00000000
00000100
00000010
00000000
,
00000002
00000000
00000000
00000103
00002000
00000000
00000000
00003100
00000002
00000000
00000000
00000013
00000000
00000000
00000010
00000000
,
00001000
00000000
00000000
00010000
00000000
00000000
01000000
00000000
10000000
00000000
01000000
00000000
10000000
00000000
00000000
00000000
,
00010000
00000000
00100000
00001000
00000000
00001000
00010000
00000000
00000010
00000000
00001000
00000001
00000000
00000001
00000100
00000000
,
00000020
00000000
00000000
00000000
00020030
00000000
00000000
00031000
00000000
00000000
00101000
00000000
00000000
00110000
00000000
00000000
,
00010000
00000000
00000000
01000000
00000000
00100000
10000000
00000000
00010000
00000000
00000000
00100000
00000000
01000000
10000000
00000000
,
00100000
00000000
00010000
00001000
00000000
00100000
00001000
00000000
00010000
00000000
00000100
00001000
00000000
00000001
00001000
00000000
,
00000001
00000000
00000000
00000011
00000000
00000000
00000110
00000000
00000100
00000000
00010000
00000000
00001000
00000000
00000000
00000000
,
00100000
00000000
00010000
00000000
01000000
00000000
00100000
00000000
10000000
00000000
10100000
00000000
00000000
10010000
00000000
00000000
,
10000000
00000000
00000000
01000000
00000000
00100000
00010000
00000000
10000000
00000000
00000000
01000000
00000000
00100000
00010000
00000000
,
00001000
00000000
00000000
00000100
00000000
00000010
00000001
00000000
00001000
00000000
00000000
00000100
00000000
00000010
00000001
00000000
,
00001000
00000000
00000010
00000100
00000000
00000010
00000100
00000000
00000010
00000000
00010000
00001000
00000000
00001000
00010000
00000000
,
00001000
00000000
00100000
00010000
00000000
00100000
00010000
00000000
00100000
00000000
00001000
00010000
00000000
00010000
00000100
00000000
,
00001000
00000000
00000000
00000010
00000000
00000001
00000010
00000000
00001000
00000000
00000000
00000001
00000000
00000100
00001000
00000000
,
00010000
00000000
00000000
00100000
00000000
10000000
00100000
00000000
10000000
00000000
00000000
01000000
00000000
00010000
00001000
00000000
,
00000010
00000000
00000000
00000001
00000010
00000000
00000000
00001000
00000010
00000000
00000001
00001000
00000000
00001000
00000001
00000000
,
00000010
00000000
00000100
00000000
00001000
00000000
00010000
00000000
00100000
00000000
01000000
00100000
00000000
00010000
00100000
00000000
,
01000000
00000000
00000000
00000000
,
00000000
00000000
00000000
00000000
;
