
//----- song ID: renk -----//
#TITLE:恋繋エピローグ;
#ARTIST:Amateras Records feat. KUMI(ヲタみん);
#TITLETRANSLIT:Renkei epilogue;
#ARTISTTRANSLIT:Amateras Records feat. KUMI (Otamin);
#BANNER:Renkei epilogue.png;
#BACKGROUND:Renkei epilogue-bg.png;
#CDTITLE:./CDTitles/SDVX III GRAVITY WARS.png;
#MUSIC:Renkei epilogue.ogg;
#SAMPLESTART:76.626;
#SAMPLELENGTH:15;
#BPMS:0=155;
#NOTES:
     dance-single:
     :
     Beginner:
     3:
     :
0000
0000
0000
0000
,
0000
0000
0000
0000
,
0000
0000
0000
0000
,
0000
0000
0000
0000
,
0000
0000
0000
0000
,
0000
0000
0000
0000
,
0001
0000
0001
0000
,
0001
0000
0000
0000
,
1000
0000
1000
0000
,
2000
0000
3000
0000
,
0001
0000
0001
0000
,
1000
0000
0000
0000
,
1000
0000
1000
0000
,
0001
0000
0000
0000
,
0001
0000
0001
0000
,
0010
0000
0000
0000
,
1000
0000
1000
0000
,
0010
0000
0000
0000
,
0010
0000
0100
0000
,
0010
0000
0000
0000
,
0001
0000
1000
0000
,
0001
0000
0000
0000
,
1000
0000
0010
0000
,
0100
0000
0000
0000
,
0001
0000
0010
0000
,
0100
0000
0000
0000
,
1001
0000
1001
0000
,
1001
0000
0000
0000
,
0110
0000
0110
0000
,
0110
0000
0000
0000
,
0002
0000
0003
0000
,
2000
0000
3000
0000
,
2002
0000
3003
0000
,
0220
0000
0330
0000
,
0002
0000
0003
0000
,
2000
0000
3000
0000
,
0020
0000
0030
0000
,
0200
0000
0300
0000
,
0001
0000
0001
0000
,
0010
0000
0000
0000
,
0100
0000
0100
0000
,
1000
0000
0000
0000
,
0001
0000
0001
0000
,
0002
0000
0000
0003
,
1000
0000
1000
0000
,
1000
0000
1001
0000
,
0001
0000
0001
0000
,
0002
0000
0003
0000
,
0010
0000
0010
0000
,
0020
0000
0030
0000
,
0001
0000
0001
0000
,
1000
0000
0000
0000
,
1000
0000
1000
0000
,
0100
0000
0000
0000
,
0100
0000
0100
0000
,
0010
0000
0000
0000
,
0010
0000
0010
0000
,
0001
0000
0000
0000
,
0001
0000
0010
0000
,
0100
0000
0000
0000
,
1000
0000
0100
0000
,
0010
0000
0000
0000
,
1001
0000
0000
0000
,
0110
0000
0000
0000
,
0001
0000
1000
0000
,
2002
0000
3003
0000
,
0001
0000
0001
0000
,
0010
0000
0010
0000
,
0001
0000
0001
0000
,
1000
0000
0000
0000
,
1000
0000
1000
0000
,
0010
0000
0010
0000
,
1000
0000
1000
0000
,
0001
0000
0000
0000
,
0001
0000
0001
0000
,
0100
0000
0100
0000
,
0010
0000
0010
0000
,
1000
0000
0000
0000
,
1000
0000
0001
0000
,
0010
0000
0100
0000
,
0110
0000
0110
0000
,
0220
0000
0330
0000
,
2002
0000
0000
3003
,
0000
0000
0000
0000
;
#NOTES:
     dance-single:
     :
     Easy:
     7:
     :
0000
0000
0000
0000
,
0000
0000
0000
0000
,
0000
0000
0000
0000
,
0000
0000
0000
0000
,
0000
0000
0000
0000
,
0000
0000
0000
0000
,
0001
1000
0100
0010
,
0001
1000
0010
0100
,
0001
0100
0010
1000
,
2002
0000
3003
0000
,
0001
0010
0001
0010
,
0002
0003
2000
3000
,
0010
1000
0010
0000
,
2020
0000
3030
0000
,
1000
0100
1000
0100
,
2000
3000
0002
0003
,
0100
0001
0100
0000
,
0101
0000
0001
1000
,
0001
0100
0010
1000
,
0002
0003
0200
0300
,
0001
0010
0100
0000
,
2002
0000
3003
0000
,
0001
0100
0001
0100
,
0020
0030
0200
0300
,
0001
1000
0001
1000
,
2002
0000
3003
0000
,
2000
3000
0001
0000
,
0020
0000
0000
0030
0001
0000
0000
0000
,
0200
0000
0000
0300
0010
0000
0000
0000
,
2000
3000
0100
0000
,
1000
0100
0100
0010
,
0010
0001
0001
1000
,
1000
0100
0010
0001
,
2002
0000
0000
3003
,
0002
0003
0002
0003
,
0020
0000
0030
0000
,
0200
0300
0200
0300
,
2000
0000
3000
0000
,
0020
0030
0020
0030
,
0200
0300
0200
0300
,
0002
0003
2000
3000
,
2002
0000
3003
0000
,
0001
1000
0001
1000
,
0002
0003
2000
3000
,
0010
0100
0010
0100
,
0020
0030
0200
0300
,
0001
0100
0010
1000
,
0002
0003
2000
3000
,
0001
0010
0100
0010
,
0002
0000
0003
0000
,
0001
0100
0010
1000
,
0001
0010
0100
0000
,
1000
0100
0010
0001
,
0010
0100
1000
0000
,
0001
1000
0010
1000
,
0010
0100
0010
0000
,
0010
1000
0001
0000
,
2002
0000
3003
0000
,
0001
1000
0010
1000
,
0001
0100
0001
0000
,
0001
1000
0100
1000
,
0001
0010
0001
0000
,
0001
0010
0001
0000
,
1000
0100
1000
0000
,
0001
0100
0010
0000
,
2002
0000
3003
0000
,
0001
0000
0000
1000
0010
0000
0000
1000
,
0001
0100
0010
0000
,
0110
0000
0110
0000
,
1000
0000
0000
0100
0010
0000
0000
0000
,
0001
0010
0001
0000
,
1000
0100
1000
0000
,
0001
0000
1000
0000
0001
0000
0000
0100
,
0010
0000
1001
0000
,
1000
0100
0010
0000
,
0001
0100
0010
0000
,
1001
0000
0000
0001
1000
0000
0000
0000
,
0001
1000
0010
0000
,
1010
0000
1001
0000
,
0011
0000
0110
0000
,
0010
0000
0001
0000
1000
0001
1000
0000
,
2002
0000
0000
3003
,
0220
0000
0000
0330
,
0000
0000
0000
0000
;
#NOTES:
     dance-single:
     :
     Medium:
     10:
     :
0000
0000
0000
0000
,
0000
0000
0000
0000
,
0000
0000
0000
0000
,
0000
0000
0000
0000
,
0000
0000
0000
0000
,
0000
0000
0000
0000
,
0011
0000
1010
0000
1000
0100
1000
0000
,
1100
0000
0101
0000
0100
0001
0010
0000
,
0011
1010
1100
0101
,
2002
0000
3003
1001
,
0002
0000
0003
1000
0100
0000
0010
0000
,
0200
0000
0300
0010
0001
0000
0000
0001
,
0200
0000
0300
0010
0100
0000
0001
0000
,
0020
0001
0100
0031
,
2000
0000
3000
0001
0010
0000
0100
0000
,
0020
0000
0030
0001
0200
0000
0300
0001
,
2000
0000
3000
0001
0010
0000
0010
0100
,
1000
0000
0011
1100
,
1002
0000
0003
1000
0100
0000
0010
0000
,
0002
0000
0003
0010
0200
0000
0300
1000
,
0020
0000
0030
1000
0001
0000
0010
0000
,
0200
1000
0010
1300
,
0002
0000
0003
1000
0010
0000
0100
0000
,
0020
0000
0030
1000
0200
0000
0300
1000
,
0002
0000
0003
1000
0100
0000
1000
0010
,
0200
0000
0300
0000
,
2010
0000
0000
0000
0000
0000
3010
0000
1000
0000
0000
0100
0000
0000
0010
0000
,
0200
0000
0000
0000
0000
0000
0300
0000
1000
0000
0000
0010
0000
0000
0100
0000
,
0002
0000
0000
0000
0000
0000
0003
0000
0010
0000
0000
0001
0000
0000
1000
0000
,
0200
0000
0000
0300
0000
0000
1000
0000
0100
0000
0000
0000
0000
0000
0000
0000
,
0011
0101
1000
0010
,
1010
1100
0001
0010
,
0001
0010
0100
0000
0100
1000
0010
0000
,
2000
0000
0000
3000
,
2020
0030
0002
0003
,
0200
0300
0020
3030
,
0202
0300
2000
3000
,
0020
0030
0200
0300
,
2003
3010
0020
0130
,
0200
0301
0002
1003
,
0001
0010
0100
2000
,
0020
0000
3030
0000
,
1000
0010
0100
0000
0001
0010
0100
0000
,
2000
0000
3020
0000
,
1030
0001
0010
0000
0100
1000
0010
0000
,
1000
0001
0100
0000
0001
1000
0001
0000
,
1000
0100
0010
0000
0001
0010
0100
0000
,
2000
3000
0002
0003
,
0011
0000
0010
0100
1000
0010
0100
0000
,
2002
0000
3003
0000
0001
0100
0010
0000
,
1001
0000
1000
0001
0100
0000
0010
0100
,
0001
0000
0001
1000
0100
0000
0011
0000
,
1100
0000
1000
0100
0010
0000
0010
0100
,
1000
0000
0001
0010
0100
0000
1001
0000
,
1010
0000
0010
1000
0100
0000
1000
0010
,
0100
0000
0100
0001
0010
0000
0110
0000
,
1001
0000
0001
0010
0100
0010
0001
0000
,
2002
0000
3003
0000
0001
0100
0010
0000
,
1001
0000
0001
0100
0010
0000
1000
0100
,
0010
0000
0001
0010
0100
0000
0110
0000
,
1001
0000
0001
0010
0100
0000
1000
0010
,
0100
0000
0010
1000
0100
0000
1100
0000
,
0001
0100
0101
1010
,
1000
0100
1100
0011
,
0101
0000
0001
0010
0100
1000
0001
0000
,
2002
0000
0000
3003
,
1000
0000
0000
0010
0000
0000
1000
0000
0001
0000
0000
0100
0000
0000
0010
0000
,
1000
0100
0010
0000
0010
0100
1000
0000
,
0001
0010
0100
0010
0001
0010
0100
0000
,
1000
0000
0000
0100
0000
0000
0010
0000
0001
0000
0000
0000
0000
0000
0000
0000
,
0001
0010
0001
0000
1000
0100
1000
0000
,
0001
0010
0100
0000
1000
0100
0010
0000
,
0001
0000
0100
0000
0010
0000
0000
0000
0100
0000
0000
0001
0000
0000
0100
0000
,
0100
0000
0000
0001
0000
0000
0010
0000
0200
0000
0000
0000
0000
0000
0000
0000
,
1300
0000
1000
0100
0010
0000
0001
0100
,
1000
0000
1000
0100
0001
0000
0010
0100
,
2000
0000
0000
0000
3000
0000
0100
0000
0010
0000
0000
0001
0000
0000
0001
0000
,
0100
0000
0000
0001
0000
0000
0010
0000
0100
0000
0000
0000
0000
0000
0000
0000
,
0010
0000
0000
0100
0000
0000
1000
0000
0010
0000
0000
0100
0000
0000
0001
0000
,
0100
0000
0000
0010
0000
0000
1000
0000
0100
0000
0000
0000
1000
0000
0100
0000
,
1000
0010
0100
0001
0100
0010
1000
0001
,
2000
0000
0000
3000
,
0220
0000
0000
0330
,
0000
0000
0000
0000
;
#NOTES:
     dance-single:
     :
     Hard:
     13:
     :
0000
0000
0000
0000
,
0000
0000
0000
0000
,
0000
0000
0000
0000
,
0000
0000
0000
0000
,
0000
0000
0000
0000
,
0000
0000
0000
0000
,
0001
0000
0010
0001
0000
1000
0001
0000
1000
0000
0010
0000
0100
0000
0001
0000
,
1000
0000
0100
1000
0000
0001
1000
0000
0001
0000
0010
0000
0100
0000
1000
0000
,
0001
0010
1000
0010
0001
0100
1000
0100
,
0002
0000
0000
0000
0003
0000
1000
0100
,
2000
0000
3000
0001
0010
0100
1000
0100
,
0020
0000
0030
0001
2000
0000
3000
0100
,
0002
0000
0003
0100
1000
0100
0010
0001
,
0020
0000
1000
0000
0100
0000
0031
1000
,
0200
0000
0300
1000
0100
0010
0001
0100
,
0020
0000
0030
1000
0200
0000
0300
1000
,
0020
0000
0030
0100
1000
0100
0001
0100
,
0002
0000
0000
0000
0000
0000
0003
0000
0000
0000
0000
0000
0001
0000
0010
0000
0100
0000
1000
0000
0000
0010
0000
0000
,
0200
0000
0300
0010
1000
0001
0100
0010
,
2000
0000
0000
3100
0002
0000
0003
0100
,
2000
0000
3000
0100
0010
1000
0010
0001
,
0200
0000
0001
0000
0010
0000
1300
0100
,
0020
0000
0030
1000
0100
0010
0001
1000
,
0200
0000
0300
1000
0020
0000
0030
0100
,
0002
0000
0000
1003
0100
0001
0100
1000
,
0002
0000
0003
0000
,
1020
0000
0000
0000
0000
0000
1030
0000
0100
0000
0000
0010
0000
0000
0001
0000
,
2000
0000
0000
0000
0000
0000
3000
0000
0100
0000
0000
0010
0000
0000
0001
0000
,
0200
0000
0000
0000
0000
0000
0300
0000
0010
0000
0000
1000
0000
0000
0001
0000
,
0200
0000
0300
0001
1000
0000
0000
0000
,
0001
0010
0100
1000
0001
0100
0010
1000
,
0001
0010
1000
0010
0001
0100
1000
0100
,
0001
0010
1000
0001
1000
0010
0001
0200
,
0020
0000
0330
0000
0010
1000
0100
0010
,
0002
0000
2003
0000
,
3020
0000
0230
0000
,
0302
0000
0023
0000
,
0230
0000
2300
0000
,
3002
0100
0023
1000
,
0230
0001
2300
0010
,
3200
0001
0320
1000
,
0002
0000
0033
0000
,
0011
0011
0011
0000
1100
1100
1100
0000
,
1000
0100
0010
0001
0202
0000
0303
0000
,
1010
1010
1010
0000
0101
0101
0101
0000
,
0001
0000
0010
0001
1000
0000
0000
0000
0001
0010
0100
0010
0200
0000
0000
0000
,
1300
0010
0001
1000
0100
0001
0010
0100
,
2200
3300
0022
0033
,
0001
0010
1000
0001
0100
1000
0010
0000
,
2020
0000
3030
0000
0010
1000
0100
0010
,
0002
0003
1000
0100
0002
0003
0001
0100
,
1000
0010
0001
0010
1000
0000
1000
0010
,
0200
0300
0001
0010
0200
0300
1000
0100
,
0010
0001
0100
0010
1000
0000
1000
0010
,
0001
0000
1000
0100
0001
0000
1000
0001
,
0100
0000
0000
0010
0100
0000
0001
0000
0010
0000
0000
0000
0100
0000
1000
0000
,
0020
0000
0031
0010
1000
0100
0010
0000
,
2002
0000
3003
0000
0001
0010
1000
0010
,
0002
0003
1000
0100
0002
0003
1000
0010
,
0001
0010
0100
1000
0010
0000
1000
0010
,
0100
0000
0001
0100
0010
0000
1000
0100
,
0010
0000
0001
0010
0001
0000
0010
0000
0100
0000
0000
0000
0100
0000
0010
0000
,
0001
0010
0100
1000
0001
0100
0010
1000
,
0001
0100
0010
0100
0001
0010
1000
0010
,
0001
0000
1000
0000
0100
0000
0010
0000
0001
0010
0001
0000
1000
0100
1000
0000
,
0002
0000
0000
0000
0000
0000
1003
0010
,
0002
0000
0000
0023
0000
0000
0230
0000
0302
0000
0000
0203
0000
0000
2300
0000
,
3001
0000
0010
0000
1000
0000
0010
0000
0100
0000
0001
0100
0010
0000
0100
0000
,
0001
0010
0001
0000
0010
0001
0010
0000
0100
1000
0100
0000
1000
0100
1000
0000
,
0002
0000
0000
0103
0000
0000
0010
0000
2000
0000
0000
0000
3000
0000
0000
0000
,
1000
0000
0001
0010
0001
0000
1000
0000
0010
0000
1000
0010
1000
0000
0001
0000
,
0100
0000
0010
0000
1000
0000
0010
0000
1000
0010
1000
0000
0001
0100
0001
0000
,
1000
0000
0100
0000
0001
0000
0100
0000
0002
0000
0000
0203
0000
0000
2300
0000
,
3002
0000
0000
0023
0000
0000
0031
0000
0200
0000
0000
0000
0000
0000
0300
0000
,
0010
0100
1000
0100
0001
0010
0100
0010
,
1000
0000
0010
0000
0001
0000
0100
0000
0010
0000
0000
0000
0100
0010
1000
0000
,
0200
0000
0000
0000
0300
0000
0001
0000
2000
0000
0000
3020
0000
0000
0032
0000
,
2003
0000
0000
3200
0000
0000
0310
0000
0110
0000
0000
0000
0000
0000
0000
0000
,
0002
0000
0000
0023
0000
0000
1030
0000
0002
0000
0000
0203
0000
0000
1300
0000
,
0002
0000
0000
0203
0000
0000
0310
0000
0100
0000
0000
0000
0001
0100
0001
0000
,
1000
0010
0100
0000
0001
0010
0100
0000
0010
0000
0100
0000
1000
0000
0020
0000
,
0200
0000
0000
0330
,
2002
0000
0000
3003
,
0000
0000
0000
0000
;
#NOTES:
     dance-double:
     :
     Easy:
     7:
     :
00000000
00000000
00000000
00000000
,
00000000
00000000
00000000
00000000
,
00000000
00000000
00000000
00000000
,
00000000
00000000
00000000
00000000
,
00000000
00000000
00000000
00000000
,
00000000
00000000
00000000
00000000
,
00000001
00000010
00000010
00000000
,
00000100
00001000
00001000
00000000
,
00000100
00010000
00001000
00100000
,
00220000
00000000
00330000
00000000
,
10000000
00010000
01000000
00001000
,
00010000
00000000
00011000
00000000
,
00010000
00000010
00001000
00000100
,
00002200
00000000
00003300
00000000
,
00000001
00001000
00000010
00010000
,
00001000
00000000
00011000
00000000
,
00001000
00100000
00010000
01000000
,
00010000
00000000
01010000
01010000
,
00010000
01000000
00010000
00100000
,
01000000
00000000
01100000
00000000
,
10000000
01000000
00100000
00010000
,
00020000
00000000
00030000
00000000
,
00100000
00001000
00010000
00000100
,
00000010
00000000
00000110
00000000
,
00000001
00000100
00000001
00001000
,
00000020
00000000
00000030
00000000
,
00000020
00000000
00000000
00000030
00001000
00000000
00001000
00000000
,
00000100
00000000
00000100
00010000
,
00001000
00000000
00010000
00100000
,
01000000
00000000
01100000
00000000
,
10000000
01000000
10000000
00000000
,
01000000
00100000
00010000
00000000
,
00100000
00010000
01000000
00010000
,
00200000
00000000
00000000
00000000
,
00302000
00000000
00000000
00000000
,
00023000
00000000
00000000
00000000
,
00030200
00000000
00000000
00000000
,
00002300
00000000
00000000
00000000
,
00003002
00000000
00000000
00000000
,
00002003
00000000
00000000
00000000
,
00003200
00000000
00000000
00000000
,
00020300
00000000
00030000
00000000
,
00011000
00000000
00011000
00000000
,
00010000
00000000
01000000
00000000
,
11000000
00000000
00110000
00000000
,
00010000
01000000
00100000
00000000
,
01000000
00010000
00100000
00000000
,
00011000
00000000
00001010
00000000
,
00001000
00000010
00000100
00000000
,
00001001
00000000
00000000
00000000
,
00000001
00000100
00000100
00000000
,
00000010
00010000
00010000
00000000
,
00010000
00001000
00001000
00000000
,
00010000
00100000
01000000
00000000
,
00010000
00100000
01000000
00000000
,
10000000
01000000
00100000
00000000
,
00010000
00100000
00010000
01000000
,
01100000
00000000
10010000
10010000
,
10000000
01000000
01000000
00000000
,
00100000
00001000
00001000
00000000
,
00001000
00010000
00010000
00000000
,
00001000
00010000
00000100
00000000
,
00001000
00000100
00000010
00000000
,
00000010
00000100
00001000
00000000
,
00000100
00010000
00001000
01000000
,
20020000
00000000
30030000
00000000
,
10010000
00000000
00000000
10000000
00010000
00000000
00000000
00000000
,
10000000
01000000
00100000
00000000
,
00100000
00001000
00010000
00000010
,
00001000
00000000
00000000
00000010
00001000
00000000
00000000
00000000
,
00000010
00001000
00000100
00010000
,
00001000
00100000
01000000
01000000
,
10000000
00000000
00100000
00000000
10000000
00000000
00000000
10000000
,
00010000
00000000
10010000
00000000
,
00010000
00100000
01000000
00100000
,
00100000
00001000
00010000
00000100
,
00000020
00000000
00000030
00000001
00000100
00000000
00000000
00000000
,
00000001
00001000
00001000
00000000
,
00000100
00010000
00001000
00000000
,
00100000
00001000
00010000
00000000
,
00001000
00100000
00010000
01000000
,
02200000
00000000
03300000
00000000
,
20020000
00000000
00000000
00000000
,
30030000
00000000
00000000
00000000
,
00000000
00000000
00000000
00000000
;
#NOTES:
     dance-double:
     :
     Medium:
     10:
     :
00000000
00000000
00000000
00000000
,
00000000
00000000
00000000
00000000
,
00000000
00000000
00000000
00000000
,
00000000
00000000
00000000
00000000
,
00000000
00000000
00000000
00000000
,
00000000
00000000
00000000
00000000
,
00000001
00000000
00000010
00000000
00000100
00010000
00001000
00000000
,
00100000
00000000
00010000
00000000
10000000
00100000
01000000
00000000
,
00100000
01000000
00010000
00000000
00100000
00001000
00010000
00000000
,
00022000
00000000
00000000
00000000
00033000
00000000
00010000
00000100
,
00000020
00000000
00000030
00000001
00000010
00000000
00000100
00000000
,
00020000
00000000
00030000
00001000
00200000
00000000
00300000
01000000
,
20000000
00000000
30000000
00100000
10000000
00000000
01000000
00000000
,
00200000
00010000
01000000
00010000
,
02300000
00000000
03000000
10000000
01000000
00000000
00100000
00000000
,
00002000
00000000
00003000
00010000
00000020
00000000
00000030
00001000
,
00000200
00000000
00000300
00000010
00000001
00000000
00001000
00000000
,
00000001
00000000
00001001
00000110
,
00001001
00000000
00000000
00001000
00000010
00000000
00010000
00000000
,
00002000
00000000
00003000
00100000
00020000
00000000
00030000
10000000
,
02000000
00000000
03000000
00100000
00001000
00000000
00010000
00000000
,
00000020
00000100
00001000
00000100
,
00002030
00000000
00003000
00000001
00001000
00000000
00000100
00000000
,
00020000
00000000
00030000
00001000
00200000
00000000
00300000
00010000
,
01000000
00000000
00000000
00001000
00100000
00000000
00001000
00010000
,
00000200
00000000
00000300
00000010
,
00001001
00000000
00000000
00000000
00000000
00000000
00000001
00000000
00000100
00000000
00000000
00000100
00000000
00000000
00001000
00000000
,
00020000
00000000
00000000
00000000
00000000
00000000
00000000
00000000
00031000
00000000
00000000
00001000
00000000
00000000
00100000
00000000
,
02000000
00000000
00000000
00000000
03000000
00000000
00000000
00000000
10000000
00000000
00000000
10000000
00000000
00000000
01000000
00000000
,
00200000
00000000
00300000
00001000
00010000
00000000
00000000
00000000
,
00000010
00000100
00001000
00010000
,
00100000
01000000
00010000
00100000
,
00001000
00010000
00000010
00000000
00010000
00001000
00100000
00000000
,
00022000
00000000
00000000
00030000
,
00203000
00000000
01000000
00000000
,
00302000
00000000
01000000
00000000
,
00023000
00000000
00000100
00000000
,
00030020
00000000
00001000
00000000
,
00000230
00000001
00000010
00001000
,
00002300
00000100
00010000
00100000
,
00203000
00010000
01000000
10000000
,
02300000
00000000
03000000
00000000
,
10000000
00010000
00100000
00000000
01000000
00010000
00001000
00000000
,
00011000
00000000
00010000
00000010
00001000
00000000
00000000
00000000
,
00000010
00000100
00000001
00000000
00000010
00000100
00001000
00000000
,
00000001
00000100
00000010
00000000
00001000
00000001
00000010
00000000
,
00000100
00000000
00001000
00000010
00010000
00000000
00001000
00100000
,
00010000
00000000
01000000
00100000
20000000
00000000
30000000
00000000
,
00010000
01000000
00100000
00000000
10010000
00000000
01100000
00000000
,
20020000
00000000
30030000
00000000
00010000
00100000
01000000
00000000
,
00010000
00001000
00010000
00000010
,
00001000
00000000
00000010
00001000
00000100
00000000
00000110
00000000
,
00000010
00000100
00010000
00001000
,
00100000
00000000
00010000
01000000
00100000
00000000
10010000
00000000
,
00010000
01000000
00001000
00100000
,
00010000
00000000
01000000
00001000
00010000
00000000
00000100
00000000
,
00000010
00000000
00000100
00000000
00001000
00000010
00000100
00000000
,
00001001
00000000
00000000
00000000
00001000
00000001
00000010
00000100
,
00001000
00000100
00010000
00001000
,
00100000
00000000
00010000
01000000
00100000
00000000
01100000
00000000
,
10000000
00100000
01000000
00010000
,
00100000
00000000
00001000
00010000
00000100
00000000
00001000
00000100
,
00010000
00000000
00001000
00100000
01000000
00000000
10000000
01000000
,
00100000
00000000
00010000
01000000
10000000
00000000
01000000
00100000
,
10000000
00000000
00010000
00100000
10000000
00100000
00010000
00000000
,
20020000
00000000
00000000
30030000
,
10000000
00000000
00000000
00100000
00000000
00000000
01000000
00000000
00010000
00000000
00000000
00100000
00000000
00000000
01000000
00000000
,
10000000
00010000
00100000
00001000
,
00010000
00000010
00001000
00000000
00000001
00000010
00000100
00000000
,
00010000
00000000
00000000
00001000
00000000
00000000
00100000
00000000
00010000
00000000
00000000
00000000
00000000
00000000
00000000
00000000
,
10000000
00100000
00010000
00001000
,
00000100
00000000
00000001
00000000
00001000
00000010
00000100
00000000
,
00000001
00000000
00000000
00000000
00000010
00000000
00000000
00000000
00000001
00000000
00000000
00000100
00000000
00000000
00000001
00000000
,
00001000
00000000
00000000
00000100
00000000
00000000
00010000
00000000
00002000
00000000
00000000
00000000
00003000
00000000
00000000
00000000
,
01000000
00000000
00100000
00000000
10000000
00010000
00100000
00000000
,
01000000
00100000
01000000
10000000
00010000
00000000
10010000
00000000
,
01020000
00000000
00000000
00000000
00000000
00000000
01030000
00000000
00001000
00000000
00000000
01000000
00000000
00000000
00001000
00000000
,
00010000
00000000
00000000
00000100
00000000
00000000
00001000
00000000
00000010
00000000
00000000
00000000
00000000
00000000
00000000
00000000
,
00001001
00000000
00000000
00000001
00000010
00000000
00000000
00000100
,
00010000
00000000
00000000
00001000
00100000
00000000
00010000
10000000
,
01000000
00010000
00001000
00000000
00010000
00000010
00001000
00000000
,
00002020
00000000
00003030
00000000
,
00002002
00000000
00000000
00000000
,
00003003
00000000
00000000
00000000
,
00000000
00000000
00000000
00000000
;
#NOTES:
     dance-double:
     :
     Hard:
     13:
     :
00000000
00000000
00000000
00000000
,
00000000
00000000
00000000
00000000
,
00000000
00000000
00000000
00000000
,
00000000
00000000
00000000
00000000
,
00000000
00000000
00000000
00000000
,
00000000
00000000
00000000
00000000
,
00000001
00000000
00000100
00000010
00000000
00010000
00001000
00000000
00100000
00000000
01000000
00000000
10000000
00000000
00100000
00000000
,
10000000
00000000
01000000
00100000
00000000
00001000
00010000
00000000
00000010
00000000
00000100
00000000
00000001
00000000
00001000
00000000
,
00000001
00000010
00000100
00010000
00001000
00100000
01000000
10000000
,
20020000
00000000
00000000
00000000
30030000
00000000
10000000
01000000
,
00020000
00000000
00030000
00001000
00010000
00001000
00000010
00000100
,
00002000
00000000
00003000
00000100
00020000
00000000
00030000
00000010
,
00020000
00000000
00030000
00001000
00010000
00001000
00000010
00000100
,
00020000
00000000
00000010
00000000
00001000
00000000
01030000
00100000
,
02000000
00000000
03000000
00010000
00001000
00000100
00000001
00000010
,
00000002
00000000
00000003
00000100
00000020
00000000
00000030
00010000
,
00002000
00000000
00003000
00010000
01000000
10000000
01000000
00010000
,
00002000
00000000
00000000
00000000
00000000
00000000
00000000
00000000
00000000
00003000
00000000
00000000
00010000
00000000
00000010
00000000
00001000
00000000
00000100
00000000
00000000
00000010
00000000
00000000
,
00000002
00000000
00000003
00000010
00000100
00010000
00000010
00001000
,
00000200
00000000
00000300
00000010
00000002
00000000
00000003
00000100
,
00002000
00000000
00003000
00000100
00000010
00010000
00001000
00100000
,
00002000
00000000
00100000
00000000
00010000
00000000
00003100
00000001
,
00000020
00000000
00000030
00000100
00000010
00000001
00000100
00000010
,
00020000
00000000
00030000
00001000
00200000
00000000
00300000
01000000
,
20000000
00000000
30000000
01000000
00100000
00001000
00010000
00000010
,
00000200
00000000
00000300
00011000
,
00021000
00000000
00000000
00000000
00000000
00000000
00031000
00000000
01000000
00000000
00000000
00100000
00000000
00000000
10100000
00000000
,
20200000
00000000
00000000
00000000
30300000
00000000
00000000
00000000
00100000
00000000
00000000
00010000
00000000
00000000
00001000
00000000
,
00022000
00000000
00000000
00000000
00033000
00000000
00000000
00000000
00001000
00000000
00000000
01000000
00000000
00000000
00010000
00000000
,
02020000
00000000
03030000
00010000
10000000
00000000
00000000
00000000
,
10000000
01000000
00010000
01000000
00100000
00001000
00010000
00000010
,
00000100
00000001
00000010
00001000
00010000
01000000
10000000
00100000
,
00010000
00001000
00000100
00000010
00001000
00010000
00000100
00000010
,
00002002
00000000
00000000
00000003
,
00003200
00000000
00020300
00000000
,
00032000
00000000
00203000
00000000
,
02300000
00000000
03020000
00000000
,
00032000
00000000
00003020
00000000
,
00000032
00000100
00002003
00000100
,
00003020
00010000
00020030
00001000
,
00230000
01000000
20300000
01000000
,
00020000
00000000
30030000
00000000
,
00110000
00110000
00110000
00000000
01100000
01100000
01100000
00000000
,
00100000
00001000
00010000
00000100
00020200
00000000
00030300
00000000
,
00001100
00001100
00001100
00000000
00000110
00000110
00000110
00000000
,
00000001
00000000
00001000
00000010
00001000
00000000
00000000
00000000
00000100
00010000
00000100
00000000
00020200
00000000
00030300
00000000
,
00010000
00001000
00100000
01000000
10000000
00100000
00010000
00001000
,
00020000
00000000
00031000
00000010
00000200
00000000
00001300
00000001
,
00001000
00000010
00001000
00010000
01000000
10000000
01000000
00000000
,
02200000
00000000
03300000
00000000
00100000
10000000
01000000
00010000
,
00002000
00000000
00013000
00000010
00000200
00000000
00000301
00000010
,
00000001
00000100
00001000
00000100
00000001
00000000
00000001
00000010
,
00002000
00000000
00013000
00100000
20000000
00000000
31000000
00100000
,
00010000
01000000
10000000
01000000
00020000
00000000
10030000
01000000
,
00200000
00000000
00310000
00001000
00000010
00000000
00010000
00001000
,
01000000
00000000
00000000
00100000
10000000
00000000
01000000
00000000
00010000
00000000
00000000
00000000
01000000
00000000
00100000
00000000
,
00002000
00003000
00010000
00000010
00000100
00000010
00001000
00000000
,
00002200
00000000
00003300
00000000
00001000
00000010
00000001
00000010
,
00000200
00000000
00000301
00000010
00002000
00000000
00013000
00001000
,
00010000
00100000
10000000
00100000
01000000
00000000
00010000
00100000
,
00001000
00000000
00010000
00000010
00001000
00000000
00001000
00000100
,
00001000
00000000
00000100
00010000
00000100
00000000
00010000
00000000
00001000
00000000
00000000
00000000
00010000
00000000
00100000
00000000
,
01000000
00000000
00001000
00100000
01000000
00000000
00010000
00001000
,
00000100
00000000
00000000
00000001
00000010
00000000
00001000
00000000
00010000
00000000
00000000
00000000
01000000
00000000
10000000
00000000
,
02000000
00000000
03010000
01000000
10000000
00010000
01000000
00000000
,
02200000
00000000
00000000
00000000
03300000
00000000
00100000
01000000
,
10000000
00000000
00000000
01000000
00000000
00000000
00010000
00000000
00100000
00000000
00000000
00001000
00000000
00000000
00010000
00000000
,
00000010
00000100
00001000
00010000
01000000
00100000
00010000
01000000
,
00001000
00100000
00001000
00010000
00000100
00010000
00000010
00001000
,
00000100
00000000
00000000
00010000
00000000
00000000
00001000
00000000
00200000
00000000
00000000
00000000
00000000
00000000
00300000
00000000
,
00001000
01000000
00010000
00100000
00001000
00010000
00000010
00001000
,
00000100
00010000
00001000
01000000
00010000
00100000
00001000
00010000
,
00100000
00000000
10000000
00000000
01000000
00000000
00100000
00000000
00001000
00000000
00000000
00010000
00000000
00000000
00001000
00000000
,
00010000
00000000
00000000
00000100
00000000
00000000
00000010
00000000
00000002
00000000
00000000
00000000
00000000
00000000
00000000
00000000
,
00000103
00000010
00010000
00001000
00100000
00010000
01000000
00100000
,
10000000
01000000
00100000
00001000
00010000
00000000
00001000
00010000
,
00002000
00000000
00000000
00000000
00003000
00000000
00000100
00000000
00000001
00000000
00000000
00000010
00000000
00000000
00001000
00000000
,
00010000
00000000
00000000
00001000
00000000
00000000
00000100
00000000
00000002
00000000
00000000
00000000
00000003
00000000
00000000
00000000
,
00000020
00000000
00000000
00002030
00000000
00000000
00013000
00000000
00200000
00000000
00000000
00320000
00000000
00000000
00031000
00000000
,
00200000
00000000
00000000
02300000
00000000
00000000
13000000
00000000
00200000
00000000
00000000
00000000
01300000
00000000
00010000
00000000
,
10000000
01000000
00100000
00001000
01000000
00100000
00010000
00001000
,
02000000
00000000
00000000
03000000
,
20020000
00000000
00000000
00000000
,
30030000
00000000
00000000
00000000
,
00000000
00000000
00000000
00000000
;
