
//----- song ID: rmrm -----//
#TITLE:リメンバーリメンバー;
#ARTIST:rino & m@sumi from plastic penguin;
#TITLETRANSLIT:Remember remember;
#BANNER:Remember remember.png;
#BACKGROUND:Remember remember-bg.png;
#CDTITLE:./CDTitles/pnm Sunny Park.png;
#MUSIC:Remember remember.ogg;
#SAMPLESTART:82.447;
#SAMPLELENGTH:15;
#BPMS:0=182;
#BGSTAGE:3;
#NOTES:
     dance-single:
     :
     Beginner:
     3:
     :
0000
0000
0000
0000
,
0000
0000
0000
0000
,
0000
0000
0000
0000
,
0000
0000
0000
0000
,
0000
0000
0000
0000
,
0000
0000
0000
0000
,
0000
0000
0000
0000
,
0000
0000
0000
0000
,
0001
0000
0000
0001
,
0000
0000
0010
0000
,
0000
0000
0000
0000
,
0010
0000
0000
0010
,
0000
0000
1000
0000
,
0000
0000
0000
0000
,
1000
0000
0000
1000
,
0000
0000
0010
0000
,
0000
0000
0000
0000
,
0010
0000
0000
0010
,
0000
0000
0001
0000
,
0000
0000
0000
0000
,
0000
0000
0000
0001
,
0000
0000
0001
0000
,
0000
0100
0000
0000
,
0000
0000
0000
0001
,
0000
0000
0010
0000
,
0000
0001
0000
0000
,
0000
0000
0000
0001
,
0000
0000
0001
0000
,
0000
0010
0000
0000
,
0000
0000
0000
0001
,
0000
0000
0010
0000
,
0000
1000
0000
0000
,
0000
0000
0000
2000
,
0000
0000
3000
0000
,
0000
1000
0000
0000
,
1000
0000
0000
0100
,
0000
0000
0000
0000
,
0000
1000
0000
0000
,
0000
0000
0000
1000
,
0000
0000
1000
0000
,
0000
0010
0000
0000
,
0000
0000
0000
1000
,
0000
0000
0010
0000
,
0000
0001
0000
0000
,
0000
0000
0000
0001
,
0000
0000
0010
0000
,
0000
0001
0000
0000
,
0000
0000
0000
0001
,
0000
0000
0100
0000
,
0000
0001
0000
0000
,
0000
0000
0000
0020
,
0000
0000
0030
0000
,
0000
0200
0000
0000
,
0300
0000
0000
0020
,
0000
0000
0030
0000
,
0000
0010
0000
0000
,
0010
0000
0000
1000
,
0000
0000
0000
0000
,
0000
0000
0000
0000
,
0000
0000
0000
1001
,
0000
0000
0000
0000
,
0000
1001
0000
0000
,
0000
0000
0000
1000
,
0000
0000
1000
0000
,
0000
0010
0000
0000
,
0000
0000
0000
1000
,
0000
0000
0010
0000
,
0000
0001
0000
0000
,
0000
0000
0000
0001
,
0000
0000
0010
0000
,
0000
0001
0000
0000
,
0000
0000
0000
0001
,
0000
0000
0001
0000
,
0000
0010
0000
0000
,
0000
0000
0000
0001
,
0000
0000
0010
0000
,
0000
1000
0000
0000
,
0000
0000
0000
0010
,
0000
0000
1000
0000
,
0000
0100
0000
0000
,
0000
0000
0000
1000
,
0000
0000
0010
0000
,
0000
0001
0000
0000
,
0000
0000
0000
0000
0000
0000
0000
1001
,
0000
0000
0000
0000
;
#NOTES:
     dance-single:
     :
     Easy:
     6:
     :
0000
0000
0000
0000
,
0000
0000
0000
0000
,
0000
0000
0000
0000
,
0000
0000
0000
0000
,
0000
0000
0000
0000
,
0000
0000
0000
0000
,
0000
0000
0000
0000
,
0000
0000
0000
0001
,
0100
0000
0100
0001
,
0000
0000
0001
0000
1000
0000
0000
1000
,
0000
1000
0000
1000
,
0100
0000
1000
0100
,
0000
0000
1000
0000
0001
0000
0000
0001
,
0000
0001
0000
0001
,
0010
0000
0010
0001
,
0000
0000
0001
0000
1000
0000
0000
1000
,
0000
1000
0000
1000
,
0010
0000
1000
0001
,
1000
0001
0200
0000
,
0000
0000
0000
0000
,
0300
0000
0001
1000
,
0000
1000
0010
0000
,
0010
0000
0100
0000
0000
0100
0000
0000
,
0100
0000
0001
1000
,
0000
0001
1000
0000
,
0100
0000
0010
0000
0000
0010
0000
0000
,
0110
0000
0001
1000
,
0000
1000
0001
0000
,
0010
0000
0100
0000
0000
0100
0000
0000
,
0100
0000
1000
0001
,
0000
0001
0100
0010
,
0100
0020
0000
0000
,
0000
0000
0030
0110
,
0000
0000
1001
0000
,
0000
1000
0100
0100
,
0010
0001
0001
2000
,
0000
0000
0000
0000
,
3000
0002
0000
0000
,
0000
0000
0003
1001
,
0000
0000
0110
0000
,
0000
0001
0100
0100
,
0010
1000
0010
2000
,
0000
0000
0000
0000
,
3000
0002
0000
0000
,
0000
0000
0003
0001
,
0100
0010
1000
0000
,
0000
1000
0100
0010
,
0001
0000
0000
0001
,
0000
0001
0100
0000
,
0100
0010
1000
0010
,
1000
0000
0000
2000
,
0000
0000
3000
0000
,
0000
0002
0000
0000
,
0003
0000
0000
0020
,
0000
0000
0030
0000
,
0000
0200
0000
0000
,
0300
0000
0000
0110
,
0000
0000
0000
0000
,
0000
0000
0000
0000
,
0000
0000
0000
1000
,
0100
0010
0001
0000
,
0000
0000
0001
0000
0000
0100
0000
0000
,
0010
0000
1000
0010
,
0010
1000
0010
0010
,
0100
0000
0001
0000
0000
0001
0000
0000
,
0001
0000
0000
1001
,
0000
0001
0100
0000
,
0000
0010
0000
0010
,
1000
0000
0000
1001
,
0000
0000
0110
0000
,
0000
1000
0100
0010
,
0001
0000
1000
0001
,
0001
1000
0001
0001
,
1000
0000
0100
0000
0000
0010
0000
0000
,
0110
0000
0001
1000
,
0010
0100
0001
0010
,
0100
0000
1000
0000
0000
0010
0000
0000
,
0110
0000
1000
0001
,
0000
0001
0100
0000
,
0100
0010
0000
0010
,
1000
0000
1000
0001
,
0000
0000
1000
0000
,
0000
0220
0000
0000
,
0000
0000
0000
0000
0330
0000
0000
1001
,
0000
0000
0000
0000
;
#NOTES:
     dance-single:
     :
     Medium:
     8:
     :
0000
0000
0000
0000
,
0000
0000
0000
0000
,
0000
0000
0000
0000
,
0000
0000
0000
0000
,
0000
0000
0000
0000
,
0000
0000
0000
0000
,
0000
0000
0000
0000
,
0000
0000
0000
0001
,
1000
0001
0100
0010
,
0100
0000
0001
0000
0011
0000
0000
0110
,
0000
1100
0000
1000
,
0001
1000
0100
0010
,
0100
0000
1000
0000
1010
0000
0000
0110
,
0000
0101
0000
0001
,
1000
0000
1000
0100
,
0000
0000
0100
0000
0010
0000
0000
0011
,
0000
1001
0000
0001
,
0100
0000
0100
0010
,
1000
0010
0200
0000
,
0000
0000
0000
0000
,
0300
0000
0001
1000
,
0000
1000
0001
0000
,
0001
0000
0100
0000
0000
0110
0000
0000
,
1010
0000
1000
0010
,
0001
0001
0010
1000
,
0001
0000
0101
0000
0000
0110
0000
0000
,
1001
0000
1000
0001
,
0000
0001
1000
0000
,
1000
0000
0100
0000
0000
0110
0000
0000
,
0011
0000
0001
0010
,
0000
1000
0010
0001
,
1000
0200
0000
0000
,
0000
0000
0300
1000
,
0000
1000
0100
0000
,
0100
0010
0001
0001
,
0100
0001
0001
0020
,
0000
0000
0230
0000
,
0000
0000
1300
0000
0001
0000
0000
1000
,
0100
0000
0000
0000
0000
1000
0001
0000
,
0000
0001
0100
0000
,
0100
0010
1000
1000
,
0100
1000
1000
0020
,
0000
0000
0230
0000
,
0000
0301
1000
0001
,
0100
0000
0000
0110
0000
0000
2000
0000
,
0000
0000
3002
0000
,
0000
1003
0100
0001
,
0001
0100
1000
0001
,
0000
0001
0100
0010
,
0100
0010
1000
0010
,
0100
0000
0100
0002
,
0000
0000
0003
0000
,
0001
1000
0000
1000
,
0100
0000
0100
0020
,
0001
0001
0031
0000
,
0001
2000
0000
3020
,
0000
0030
0100
0110
,
0000
0000
0000
0000
,
0000
0000
0000
0000
,
0000
0000
0000
0000
0000
0000
0001
0100
,
0010
1000
0010
0000
,
0000
0000
1000
0000
0000
0100
0000
0001
,
0100
1000
0001
0100
,
1000
1000
0100
0001
,
1000
0000
0100
0010
0000
0100
0000
0010
,
0100
0000
0000
0000
1000
0100
1000
0000
,
0000
1000
0001
0100
,
0100
0020
0000
1030
,
1000
0010
0100
0001
,
0000
1001
0000
0000
1000
0100
0010
0000
,
0001
0000
1000
0010
0000
0100
0000
0010
,
1000
0000
1000
0010
,
0010
1000
0100
0100
,
1000
0000
0001
0100
0000
0010
0000
0100
,
0001
0000
1000
0100
,
0100
0001
0100
0100
,
1000
0000
0001
0010
0000
0100
0000
1000
,
0100
0000
0000
0000
1000
0010
1000
0000
,
0000
1000
0002
0010
,
0013
0001
0000
0001
,
2000
0010
3010
1000
,
0000
0000
0100
0000
,
0000
0000
1000
0100
0010
0001
1000
0000
,
0001
0010
0100
0000
1000
0001
0000
1000
,
0000
0000
0000
0000
;
#NOTES:
     dance-single:
     :
     Hard:
     11:
     :
0000
0000
0000
0000
,
0000
0000
0000
0000
,
0000
0000
0000
0000
,
0000
0000
0000
0000
,
0000
0000
0000
0000
,
0000
0000
0000
0000
,
0000
0000
0000
0000
,
0000
0000
0000
0001
,
1000
1000
0100
1000
,
1000
0000
0010
0000
0100
0010
0000
1000
,
0000
0100
0010
0000
0000
0000
0001
0000
,
0010
0011
0001
1000
,
1010
0000
0010
0000
1000
0010
0000
0100
,
0000
0001
1000
0000
0000
0000
1000
0000
,
0001
0001
0100
0001
,
0001
0000
0010
0000
0100
0010
0000
0001
,
0000
0100
0010
0000
0000
0000
1000
0010
,
1000
0000
1000
0100
,
0001
0100
0020
0000
,
0000
0000
0000
0000
,
0030
0000
0010
0001
,
0100
0100
1000
0100
,
0100
0000
0001
1000
0000
0100
0000
0010
,
0100
0000
1000
0001
,
0101
0001
1000
1100
,
0100
0000
0010
0001
0000
0100
0000
0001
,
0010
0000
0010
0001
,
0001
1000
0001
0001
,
0100
0000
1000
0100
0000
0001
0000
1000
,
0100
0000
0000
0000
0001
0100
1000
0000
,
0000
1000
0010
0100
,
0010
2000
0000
0000
,
0000
0000
3000
1000
,
0100
0010
0001
0000
1000
0100
0010
0001
,
1000
0100
0010
0000
0001
0000
0101
0000
,
0100
0010
1010
1000
,
0001
0100
0001
0000
0010
0000
0100
1000
,
0100
0000
0001
0000
0010
0000
0000
1000
,
0100
0000
0000
2000
,
0000
0000
3002
0000
,
0000
1003
0010
0110
,
0001
0010
0110
1000
,
0100
0010
0100
0000
0010
0001
0010
0000
,
0001
0100
0010
1000
0010
0000
1000
0001
,
1000
0000
0000
1001
0000
0000
0002
0000
,
0000
0000
2003
0000
,
0000
3001
0100
0110
,
1000
0100
0110
0002
,
0100
0103
2000
0100
,
3100
0001
0101
0110
,
1010
0000
1000
0001
1000
0000
0100
0000
,
0010
0001
1000
0000
0010
0000
0100
0001
,
1000
0000
0100
0000
0001
0100
1000
0000
,
0001
0010
0100
2000
,
0010
3010
0020
0100
,
0130
0200
0001
0301
,
0001
0000
1000
0100
0010
0000
0002
0000
,
0000
0000
0000
0000
,
0000
0003
0000
0000
,
0000
0000
0000
0000
0000
0000
0001
0100
,
0010
1000
0100
0010
0001
0000
0000
0000
,
0000
0000
0101
0000
0000
1100
0000
0000
,
1001
0000
1000
0001
1000
0000
0001
0000
,
0011
1000
0010
1010
,
0001
0100
0010
1000
0000
0100
0000
1000
,
0010
0000
0000
0000
0010
0100
0001
0000
,
0000
0001
0100
1000
,
0100
0002
0000
1003
,
2000
3200
0320
0031
,
0000
0011
0000
0000
0101
0000
0100
0010
,
1000
0000
0100
0010
0000
0110
0000
1100
,
0000
1000
0010
0100
0010
1000
0100
0000
,
1100
0001
0100
0101
,
1000
0010
0100
0001
0000
0011
0000
0001
,
1000
0010
0100
0001
0010
0000
0001
0100
,
0010
0000
0110
0000
1000
0100
0010
0000
,
0110
0000
0100
1000
0000
1001
0000
0001
,
0100
0000
0110
0000
0010
1000
0200
0000
,
0010
0310
0002
1000
,
1003
0000
0001
0100
0000
0100
0010
0000
,
1000
0100
0010
0001
1000
0100
0020
0000
,
0000
0000
0032
0000
,
0000
0000
1003
0010
1000
0100
1000
0000
,
0001
0010
0001
0100
0001
0010
0000
1001
,
0000
0000
0000
0000
;
#NOTES:
     dance-double:
     :
     Easy:
     6:
     :
00000000
00000000
00000000
00000000
,
00000000
00000000
00000000
00000000
,
00000000
00000000
00000000
00000000
,
00000000
00000000
00000000
00000000
,
00000000
00000000
00000000
00000000
,
00000000
00000000
00000000
00000000
,
00000000
00000000
00000000
00000000
,
00000000
00000000
00000000
00001000
,
00010000
00000000
00010000
00001000
,
00000000
00000000
00001000
00000000
00010000
00000000
00000000
00100000
,
00000000
01000000
00000000
01000000
,
00100000
00000000
01000000
00100000
,
00000000
00000000
01000000
00000000
00001000
00000000
00000000
00010000
,
00000000
00001000
00000000
00010000
,
00001000
00000000
00001000
00010000
,
00000000
00000000
00010000
00000000
00001000
00000000
00000000
00000010
,
00000000
00000100
00000000
00000100
,
00000010
00000000
00000010
00000100
,
00001000
00000100
00020000
00000000
,
00000000
00000000
00000000
00000000
,
00030000
00000000
00010000
00001000
,
00000000
00001000
01000000
00000000
,
01000000
00000000
00010000
00000000
00000000
00100000
00000000
00000000
,
00010000
00000000
00010000
10000000
,
00000000
00010000
10000000
00000000
,
10000000
00000000
01000000
00000000
00000000
00100000
00000000
00000000
,
00010000
00000000
00100000
00001000
,
00000000
00001000
00010000
00000000
,
00010000
00000000
00000010
00000000
00000000
00001000
00000000
00000000
,
00000010
00000000
00000010
00000100
,
00000000
00000100
00000001
00001000
,
00000001
00002000
00000000
00000000
,
00000000
00000000
00003000
00001001
,
00000000
00000000
00000110
00000000
,
00000000
00000001
00000100
00000010
,
00001000
00000010
00010000
00002000
,
00000000
00000000
00000000
00000000
,
00003000
00020000
00000000
00000000
,
00000000
00000000
00030000
00011000
,
00000000
00000000
00011000
00000000
,
00000000
00001000
00010000
00010000
,
00001000
01000000
00010000
02000000
,
00000000
00000000
00000000
00000000
,
03000000
00200000
00000000
00000000
,
00000000
00000000
00300000
00100000
,
10000000
00010000
01000000
00000000
,
00000000
00010000
10000000
01000000
,
00100000
00000000
00000000
00100000
,
00000000
00100000
00001000
00000000
,
00001000
00010000
00000100
00001000
,
00000100
00000000
00000000
00000020
,
00000000
00000000
00000030
00000000
,
00000000
00000002
00000000
00000000
,
00000003
00000000
00000000
00002000
,
00000000
00000000
00003000
00000000
,
00000000
00000200
00000000
00000000
,
00000300
00000000
00000000
00020000
,
00000000
00000000
00000000
00000000
,
00000000
00030000
00000000
00000000
,
00000000
00000000
00000000
00001000
,
00010000
00100000
10000000
00000000
,
00000000
00000000
00010000
00000000
00000000
10000000
00000000
00000000
,
00010000
00000000
00010000
10000000
,
10000000
00010000
10000000
10000000
,
00100000
00000000
01000000
00000000
00000000
00001000
00000000
00000000
,
00010000
00000000
00000000
00011000
,
00000000
00010000
00001000
00000000
,
00001000
00000010
00000000
00000010
,
00000001
00000000
00000000
00001001
,
00000000
00000000
00000110
00000000
,
00000000
00000001
00000100
00001000
,
00010000
00000000
00001000
00010000
,
00010000
00001000
00010000
00010000
,
00001000
00000000
00100000
00000000
00000000
00010000
00000000
00000000
,
01000000
00000000
00100000
10000000
,
01000000
00100000
01000000
10000000
,
00100000
00000000
01000000
00000000
00000000
00001000
00000000
00000000
,
00010000
00000000
00001000
00010000
,
00000000
00010000
00000100
00001000
,
00000100
00000010
00000000
00000001
,
00000100
00000010
00010000
00001000
,
00000000
00000000
00010000
00000000
,
00000000
00022000
00000000
00000000
,
00000000
00000000
00000000
00000000
00033000
00000000
00000000
00011000
,
00000000
00000000
00000000
00000000
;
#NOTES:
     dance-double:
     :
     Medium:
     9:
     :
00000000
00000000
00000000
00000000
,
00000000
00000000
00000000
00000000
,
00000000
00000000
00000000
00000000
,
00000000
00000000
00000000
00000000
,
00000000
00000000
00000000
00000000
,
00000000
00000000
00000000
00000000
,
00000000
00000000
00000000
00000000
,
00000000
00000000
00000000
00001000
,
00010000
00001000
01000000
00100000
,
01000000
00000000
00010000
00000000
00110000
00000000
00000000
01100000
,
00000000
11000000
00000000
10000000
,
01000000
01000000
00010000
00001000
,
00001000
00000000
00010000
00000000
00100000
01000000
00000000
00001000
,
00000000
00001000
00010000
00000000
00000000
00000000
00010000
00000000
,
00001000
00010000
00000100
00000010
,
00000100
00000000
00001000
00000000
00001010
00000000
00000000
00000110
,
00000000
00000101
00000000
00000001
,
00000100
00000000
00000100
00001000
,
00010000
00010000
00002000
00000000
,
00000000
00000000
00000000
00000000
,
00003000
00000000
00001000
00010000
,
00010000
01000000
10000000
10000000
,
00010000
00000000
01000000
00000000
00000000
01100000
00000000
00000000
,
10100000
00000000
10000000
00100000
,
00100000
00010000
00001000
00001000
,
00000100
00000000
00000101
00000000
00000000
00000011
00000000
00000000
,
00001001
00000000
00001000
00000001
,
00000001
00000010
00001000
00001000
,
00010000
00000000
01000000
00100000
00000000
01000000
00000000
01000000
,
10000000
00000000
10000000
00100000
,
00000000
00100000
01000000
00001000
,
00010000
00002000
00000000
00000000
,
00000000
00000000
00003000
00001000
,
00000000
00001000
00010000
00000000
,
00010000
00000100
00001000
00000100
,
00000010
00000001
00000010
00000002
,
00000000
00000000
00002003
00000000
,
00000000
00000000
00003100
00000000
00010000
00000000
00000000
00001000
,
00010000
00000000
00000000
00000000
00000000
00001000
02000000
00000000
,
00000000
00000000
03020000
00000000
,
00000000
10030000
00100000
00010000
,
00001000
00010000
00010000
00002000
,
00000000
00000000
00003020
00000000
,
00000000
00000031
00000100
00000010
,
00001000
00000000
00000000
00001001
00000000
00000000
00000002
00000000
,
00000000
00000000
00000023
00000000
,
00000000
00001030
00010000
01000000
,
00100000
00010000
00100000
00010000
,
00000000
10010000
00000000
10000000
,
01000000
00010000
00001000
00010000
,
00001000
00000000
00001000
00020000
,
00000000
00000000
00030000
00000000
,
00010000
00001000
00000000
00001000
,
00000010
00000000
00000010
00000002
,
00001000
00001000
00001003
00000000
,
00000001
00000200
00000000
00002300
,
00000000
00003000
00010000
00011000
,
00000000
00000000
00000000
00000000
,
00000000
00000000
00000000
00000000
,
00000000
00000000
00000000
00000000
00000000
00000000
00001000
00010000
,
00001000
00010000
01000000
00000000
,
00000000
00000000
10000000
00000000
00000000
00100000
00000000
01000000
,
00100000
10000000
00010000
00100000
,
00001000
00001000
00010000
00000010
,
00000010
00000000
00001000
00000010
00000000
00000100
00000000
00000001
,
00000100
00000000
00000000
00000000
00000001
00001000
00000001
00000000
,
00000000
00000001
00000010
00001000
,
00010000
00002000
00000000
00013000
,
00001000
00100000
00010000
00100000
,
00000000
01100000
00000000
00000000
10000000
01000000
00100000
00000000
,
00001000
00000000
00010000
00000100
00000000
00001000
00000000
00000100
,
00000010
00000000
00000001
00000100
,
00000100
00001000
00000100
00000100
,
00000001
00000000
00000010
00000100
00000000
00001000
00000000
00000100
,
00010000
00000000
00001000
00010000
,
00010000
00100000
00010000
00010000
,
00001000
00000000
00010000
01000000
00000000
00100000
00000000
00010000
,
10000000
00000000
00000000
00000000
10000000
00010000
10000000
00000000
,
00000000
10000000
01000000
00010000
,
00010000
00001000
00000000
00001000
,
00010000
00000010
00000010
00001000
,
00000000
00000000
00000001
00000000
,
00000000
00000000
00000001
00000100
00001000
00000000
00010000
00000000
,
00001000
00010000
00100000
00000000
10000000
00010000
00000000
10000000
,
00000000
00000000
00000000
00000000
;
#NOTES:
     dance-double:
     :
     Hard:
     12:
     :
00000000
00000000
00000000
00000000
,
00000000
00000000
00000000
00000000
,
00000000
00000000
00000000
00000000
,
00000000
00000000
00000000
00000000
,
00000000
00000000
00000000
00000000
,
00000000
00000000
00000000
00000000
,
00000000
00000000
00000000
00000000
,
00000000
00000000
00000000
00001000
,
00010000
00010000
01000000
10000000
,
10000000
00000000
00010000
00000000
10000000
00100000
00000000
00010000
,
00000000
00001000
00010000
00000000
00000000
00000000
00010000
00000000
,
00001000
00001000
00000100
00000001
,
00000001
00000000
00001000
00000000
00000001
00000010
00000000
00001000
,
00000000
00010000
00001000
00000000
00000000
00000000
00001000
00000000
,
00010000
01010000
01000000
10000000
,
10100000
00000000
00100000
01000000
00100000
00010000
00000000
00001000
,
00000000
00001000
00010000
00000000
00000000
00000000
00010000
00001000
,
00000010
00000000
00000010
00000001
,
00000100
00001000
00000200
00000000
,
00000000
00000000
00000000
00000000
,
00000300
00000000
00000100
00000001
,
00000010
00001000
00000001
00000100
,
00001000
00000000
00000001
00000100
00000000
00001000
00000000
00010000
,
00100000
00000000
00000000
00000000
10000000
01000000
00100000
00000000
,
00110000
00000000
00010000
01000000
00100000
00000000
10100000
00000000
,
10000000
00000000
00100000
00010000
00000000
00001000
00000000
00000100
,
00000001
00000000
00000000
00000000
00000001
00000010
00001000
00000000
,
00000010
00000000
00000001
00000100
00001000
00000000
00000100
00000000
,
00000001
00000100
00000010
00001000
00000000
00010000
00000000
01000000
,
00100000
00000000
00000000
00000000
10000000
01000000
00010000
00000000
,
00000000
00010000
01000000
10000000
,
00100000
00020000
00000000
00000000
,
00000000
00000000
00030000
00012000
,
00003200
00000000
00000302
00000000
00000023
00000000
00001030
00010000
,
00001000
00000010
00001000
00000000
00010000
00001000
00010000
00000000
,
01000000
10000000
00010000
00000000
10000000
01000000
00010000
00000000
,
00001000
00010000
00100000
01000000
,
00001000
00000000
00010000
00000000
01000000
00000000
00000000
01000000
,
00020000
00000000
00000000
00000000
00030000
00010000
00002000
00000000
,
00003020
00000000
00000230
00000000
00020300
00000000
01030000
00100000
,
00010000
01000000
00100000
00000000
10000000
00000000
00100000
00010000
,
00001000
00000000
00000010
00000001
00000010
00000000
00000011
00000000
,
00000001
00000100
00001000
00000000
00010000
00100000
10000000
00000000
,
00000000
10000000
01000000
00100000
00010000
00001000
00000100
00000000
,
00000010
00000000
00000000
00001001
00000000
00000000
00000002
00000000
,
00000013
00001000
00010000
00000000
01000000
10000000
00010000
01000000
,
00100000
00000000
10000000
00000000
00100000
01000000
00100000
00000000
,
00010000
00001000
00010000
00000000
00011000
00000000
00002000
00000000
,
00000000
00023000
00000000
00030020
,
00002030
00000000
00003100
00000010
00000001
00000000
00000101
00000000
,
00001001
00000000
00001000
00001001
,
00000001
00000100
00000010
00001000
00000010
00000000
00010000
00001000
,
00010000
00000000
00001000
00000000
00010000
00100000
10000000
00000000
,
00010000
00000000
01000000
10000000
01000000
00000000
00002000
00000000
,
00013000
00000100
00001000
00000000
00000001
00000100
00000010
00000000
,
00000001
00000010
00001000
00000000
00000010
00010000
00001000
01000000
,
00010000
00000000
02000000
00000000
03100000
10000000
00020000
00000000
,
00000000
00000000
00000000
00000000
,
00000000
00030000
00000000
00000000
,
00000000
00000000
00000000
00000000
00000000
00000000
10000000
01000000
,
00010000
00000000
00001000
00000010
00000001
00000000
00000000
00000000
,
00000000
00000000
00000011
00000000
00000000
00001100
00000000
00000000
,
00002002
00000000
00003003
00000000
00000001
00000010
00000100
00000000
,
00001001
00000000
00001000
00000010
00000100
00000000
00001001
00000000
,
00000001
00000010
00001000
00010000
00000000
00011000
00000000
00010000
,
01000000
00000000
00000000
00000000
10000000
00010000
10000000
00000000
,
00000000
10000000
00100000
00010000
,
00001000
00020000
00000000
00031000
,
00002000
00023000
00030020
00001030
,
00000000
00001010
00000000
00000000
00001100
00000000
00000100
00000010
,
00000001
00000100
00001000
00010000
00000000
00100000
00000000
10000000
,
00010000
10000000
01000000
00010000
01000000
00100000
00001000
00000000
,
00011000
00000000
00010000
00000010
00000100
00000000
00000110
00000000
,
00000010
00000100
00001000
00000001
00000000
00000010
00000000
00010000
,
00001000
00000000
00001000
00010000
01000000
10000000
00010000
00000000
,
00110000
00000000
00100000
01000000
10000000
00000000
10100000
00000000
,
00100000
00010000
00001000
00000100
00000000
00000001
00000000
00000010
,
00000100
00000000
00000110
00000000
00000010
00000001
00001000
00000000
,
00001000
00000010
00010000
00000000
00001000
00010000
00001000
00000000
,
00001000
01000000
00010000
00000000
01000000
10000000
01000000
00010000
,
02000000
03200000
20300000
30020000
,
00000000
00000000
20030000
00000000
,
00000000
00000000
30010000
10000000
01000000
00010000
00001000
00000100
,
00000001
00000000
00000010
00001000
00010000
00100000
00000000
01100000
,
00000000
00000000
00000000
00000000
;
