
//----- song ID: rmrm2 -----//
#TITLE:リメンバーリメンバー;
#ARTIST:covered by 轟はじめ(ReGLOSS);
#TITLETRANSLIT:Remember remember;
#ARTISTTRANSLIT:covered by Todoroki Hajime (ReGLOSS);
#BANNER:Remember remember (cover).png;
#BACKGROUND:Remember remember (cover)-bg.png;
#CDTITLE:./CDTitles/DDR WORLD.png;
#MUSIC:Remember remember (cover).ogg;
#SAMPLESTART:81.001;
#SAMPLELENGTH:15;
#BPMS:0=182;
#BGSTAGE:3;
#NOTES:
     dance-single:
     :
     Beginner:
     2:
     :
0000
0000
0000
0000
,
0000
0000
0000
0000
,
0000
0000
0000
0000
,
0000
0000
0000
0000
,
0000
0000
0000
0000
,
0000
0000
0000
0000
,
0000
0000
0000
0000
,
1000
0000
0000
0000
,
0000
0000
0010
0000
,
0000
0000
0000
0000
,
0010
0000
0000
0000
,
0000
0000
0001
0000
,
0000
0000
0000
0000
,
0001
0000
0000
0000
,
0000
0000
0010
0000
,
0000
0000
0000
0000
,
0010
0000
0000
0000
,
0000
0000
1000
0000
,
0000
0000
0000
0000
,
0000
0000
0000
1000
,
0000
0000
1000
0000
,
0000
0010
0000
0000
,
0000
0000
0000
1000
,
0000
0000
0000
0000
,
0000
0010
0000
0000
,
0000
0000
0000
0001
,
0000
0000
0001
0000
,
0000
0010
0000
0000
,
0000
0000
0000
0001
,
0000
0000
0000
0000
,
0000
0010
0000
0000
,
0000
0000
0000
0002
,
0000
0000
0000
0000
,
0000
0003
0000
0000
,
0000
0000
0000
0001
,
0000
0000
0000
0000
,
0000
0010
0000
0000
,
0000
0000
0000
2000
,
0000
0000
0000
0000
,
0000
3000
0000
0000
,
0000
0000
0000
1000
,
0000
0000
0000
0000
,
0000
0010
0000
0000
,
0000
0000
0000
1000
,
0000
0000
1000
0000
,
0000
0100
0000
0000
,
0000
0000
0000
0010
,
0000
0000
0000
0000
,
0000
0010
0000
0000
,
0000
0000
0000
0002
,
0000
0000
0003
0000
,
0000
0001
0000
0000
,
0000
0000
0000
0020
,
0000
0000
0030
0000
,
0000
0010
0000
0000
,
0000
0000
0000
1000
,
0000
0000
0000
0000
,
0000
0000
0000
0000
,
0000
0000
0000
1001
,
0000
0000
0000
0000
,
0000
1001
0000
0000
,
0000
0000
0000
0001
,
0000
0000
0001
0000
,
0000
0100
0000
0000
,
0000
0000
0000
0001
,
0000
0000
0000
0000
,
0000
0010
0000
0000
,
0000
0000
0000
1000
,
0000
0000
1000
0000
,
0000
0100
0000
0000
,
0000
0000
0000
1000
,
0000
0000
0000
0000
,
0000
0010
0000
0000
,
0000
0000
0000
0001
,
0000
0000
0010
0000
,
0000
0001
0000
0000
,
0000
0000
0000
0010
,
0000
0000
0000
0000
,
0000
1000
0000
0000
,
0000
0000
0000
0020
,
0000
0000
0000
0000
,
0000
0030
0000
0000
,
0000
0000
0000
0000
0000
0000
0000
1001
,
0000
0000
0000
0000
;
#NOTES:
     dance-single:
     :
     Easy:
     7:
     :
0000
0000
0000
0000
,
0000
0000
0000
0000
,
0000
0000
0000
0000
,
0000
0000
0000
0000
,
0000
0000
0000
0000
,
0000
0000
0000
0000
,
0000
0000
0000
1000
,
0010
0000
0010
1000
,
0000
0000
1000
0000
0001
0000
0000
1000
,
0000
0001
0000
0001
,
0010
0000
0001
0010
,
0000
0000
0001
0000
1000
0000
0000
0001
,
0000
1000
0000
1000
,
0100
0000
0100
1000
,
0000
0000
1000
0000
0001
0000
0000
1000
,
0000
0001
0000
0001
,
0100
0000
0001
1000
,
0010
0100
0020
0000
,
0000
0000
0000
0000
,
0030
0000
1000
0001
,
0000
0001
0100
0000
,
0100
0000
0010
0000
0000
1000
0000
0000
,
0100
0000
1000
0001
,
0000
1000
0001
0000
,
0010
0000
0100
0000
0000
0010
0000
0000
,
0110
0000
1000
0001
,
0000
0001
1000
0000
,
0100
0000
0010
0000
0000
0001
0000
0000
,
0010
0000
0001
1000
,
0000
1000
0010
0100
,
0001
0200
0000
0000
,
0000
0000
0300
0110
,
0000
0000
1001
0000
,
0000
0001
0010
0001
,
1000
0100
1000
0002
,
0000
0000
1000
0000
,
0003
2000
0000
0000
,
0001
0000
3000
1001
,
0000
0000
0110
0000
,
0000
1000
0010
0010
,
0100
0001
0100
0002
,
0000
0000
0010
0000
,
0003
2000
0000
0000
,
0100
0000
3000
1000
,
0010
0100
0001
0000
,
0000
0001
0010
0100
,
1000
0000
0000
1000
,
0010
1000
0010
0000
,
0010
0100
0001
0100
,
0001
0000
1000
0002
,
0000
0000
0003
0000
,
0000
2000
0000
0000
,
3000
0000
0000
0200
,
0000
0000
0300
0000
,
0000
0020
0000
0000
,
0030
0000
0000
0110
,
0000
0000
0000
0000
,
0000
0000
0000
0000
,
0000
0000
0000
0001
,
0010
0100
1000
0000
,
0000
0000
1000
0000
0000
0010
0000
0000
,
0100
0000
0001
0100
,
0100
0001
0010
0010
,
0100
0000
1000
0000
0000
0001
0000
0000
,
1000
0000
0000
1001
,
0000
1000
0010
1000
,
0010
0100
0000
0100
,
0001
1000
0001
1000
,
0000
0000
0110
0000
,
0000
0001
0010
0100
,
1000
0000
0001
1000
,
0010
1000
0001
0010
,
0001
0000
0010
0000
0000
0100
0000
0000
,
0110
0000
1000
0001
,
0100
0010
1000
0100
,
0010
0000
0001
0000
0000
0100
0000
0000
,
0110
0000
0001
1000
,
0000
1000
0010
0100
,
0010
0100
0000
0100
,
0001
1000
0001
1000
,
0000
0000
0001
0000
,
0000
0220
0000
0000
,
0000
0000
0000
0000
0330
0000
0000
1001
,
0000
0000
0000
0000
;
#NOTES:
     dance-single:
     :
     Medium:
     10:
     :
0000
0000
0000
0000
,
0000
0000
0000
0000
,
0000
0000
0000
0000
,
0000
0000
0000
0000
,
0000
0000
0000
0000
,
0000
0000
0000
0000
,
0000
0000
0000
1000
,
0001
1000
0010
0100
,
0010
0000
1000
0000
1100
0000
0000
0110
,
0000
0011
0000
0001
,
1000
0001
0010
0100
,
0010
0000
0001
0000
0101
0000
0000
0110
,
0000
1010
0000
1000
,
0001
0010
0001
1000
,
0100
0000
0010
0000
0100
0000
0000
1100
,
0000
1001
0000
1000
,
0010
0000
0010
0100
,
0001
1000
0020
0000
,
0000
0000
0000
0000
,
0030
0000
1000
0001
,
0100
0001
1000
0100
,
1000
0000
0010
0000
0000
0110
0000
0000
,
0101
0000
0001
0100
,
0110
1000
0100
0110
,
0001
0000
1000
0000
0000
0110
0000
0000
,
1001
0000
0001
1000
,
0010
1000
0001
0010
,
0001
0000
0100
0000
0000
0110
0000
0000
,
1010
0000
0000
0000
1000
0001
1000
0000
,
0000
0001
0100
0010
,
1000
0020
0000
0000
,
0000
0000
0030
0010
,
1000
1000
0010
0100
,
0100
0010
1000
0100
,
0010
0001
1000
0200
,
0000
0000
0320
0000
,
0000
0000
0031
0000
1000
0000
0000
0001
,
0010
0000
0000
0000
0000
0001
1000
0000
,
0010
1000
0010
0100
,
0010
0100
0001
0001
,
0010
0001
0001
0200
,
0000
0000
0320
0000
,
0000
1030
0001
1000
,
0010
0000
0000
0110
0000
0000
0002
0000
,
0000
0000
2003
0000
,
0000
3001
0010
0100
,
1000
0010
0100
0001
,
0000
1000
0010
0100
,
0010
0100
0001
1000
,
0001
0000
0001
2000
,
0000
0000
3000
0000
,
1000
0001
0000
0011
,
0000
0001
1000
0200
,
1000
1000
1300
0100
,
1000
0002
0000
0203
,
0000
0310
0100
0110
,
0000
0000
0000
0000
,
0000
0000
0000
0000
,
0000
0000
0000
0000
0000
0000
1000
0010
,
0100
0001
0100
0000
,
0000
0000
0001
0000
0010
0100
0000
1000
,
0010
0000
0100
0000
0001
0000
0010
0001
,
0010
0000
0001
0000
1000
0010
1000
0000
,
0001
0000
0010
0100
0000
0010
0000
0100
,
0010
0000
0000
0000
0001
1000
0001
0000
,
0000
0001
1000
0010
,
0010
0200
0000
0301
,
0001
0100
0010
1000
,
0000
1001
0000
0000
0001
0010
0100
1000
,
0001
0000
1000
0100
0000
0010
0000
0100
,
0000
1000
0001
0000
1000
0000
0100
0010
,
0001
0000
1000
0000
0001
0100
0010
0000
,
1000
0000
0100
0010
0000
0100
0000
0010
,
0001
0000
0000
0000
0001
0000
0010
0100
,
0010
0000
0001
0000
0100
0010
0100
0000
,
0001
0000
1000
0100
0000
0010
0000
0001
,
0010
0000
0000
0000
0001
0100
0001
0000
,
0000
0001
2000
0100
,
3100
1000
0000
1000
,
0002
0100
0103
0001
,
0000
0000
0010
0000
,
0000
0000
0001
0010
0100
1000
0001
0000
,
1000
0100
0010
0001
1000
0010
0000
0100
,
0000
0000
0000
0000
;
#NOTES:
     dance-single:
     :
     Hard:
     12:
     :
0000
0000
0000
0000
,
0000
0000
0000
0000
,
0000
0000
0000
0000
,
0000
0000
0000
0000
,
0000
0000
0000
0000
,
0000
0000
0000
0000
,
0000
0000
0000
1000
,
0001
0010
0001
0000
0100
0000
0010
1000
,
0010
0000
0100
0000
0001
0010
0000
0110
,
0000
0100
1000
0000
0000
0000
1000
0100
,
1000
0000
1100
0000
1000
0001
0100
0000
,
0101
0000
0100
0001
0100
0001
0000
0010
,
0000
0100
0010
0000
0000
0000
0001
0000
,
1000
0010
1000
0000
0100
0000
1000
0010
,
1000
0000
0100
0000
0010
0001
0000
1000
,
0000
0010
0100
0000
0000
0000
0001
0100
,
0001
0000
0001
0011
,
0110
1100
2000
0000
,
0000
0000
0000
0000
,
3000
0000
0000
0000
1000
0000
0010
0100
,
0010
0000
1000
0000
0100
0010
0100
0000
,
1000
0000
0010
0100
0000
0110
0000
0100
,
0001
0000
0000
0000
0001
1000
0010
0000
,
1010
0000
1000
0001
0010
0000
0011
0000
,
0010
0100
1000
0001
0000
1001
0000
1000
,
0100
0000
0000
0000
0100
0000
1000
0010
,
0100
0000
0001
0000
1000
0100
0010
0000
,
0001
1000
0001
0010
0000
0110
0000
0100
,
1000
0000
0000
0000
1000
0001
1000
0000
,
0000
0001
0100
0010
,
1000
0002
0000
0000
,
0000
0000
0003
0001
,
0010
0100
1000
0001
0010
0100
1000
0001
,
0010
0100
1000
0000
0010
1000
0010
0000
,
0100
0101
1001
0001
,
1000
0010
1000
0000
0100
0010
0001
0010
,
0100
0000
1000
0010
0100
0000
0000
0001
,
0020
0001
0031
0002
,
0100
0100
2003
0100
,
3100
0010
0001
0000
0100
0000
0110
0000
,
1000
0100
0110
0001
,
0010
0100
0010
0000
0100
1000
0100
0000
,
1000
0010
0100
0001
0100
0001
1000
0001
,
1000
0000
0000
1001
0000
0000
2000
0000
,
0010
0010
3002
0010
,
0010
1003
0010
0110
,
0001
0010
0110
2000
,
0100
3001
0002
0010
,
1003
0010
1010
0110
,
0101
0000
0001
1000
0001
0000
0010
0000
,
0100
1000
0001
0000
0100
0000
0010
1000
,
0001
0000
0010
0000
0100
0010
0100
0000
,
1000
0100
0010
0001
1000
0000
0002
0000
,
0103
0101
0200
0310
,
0110
0020
1030
1010
,
1000
0000
0001
0010
0100
0000
2000
0000
,
0000
0000
0000
0000
,
0000
3000
0000
0000
,
0000
0000
0000
0000
0000
0000
1000
0100
,
0001
0100
1000
0001
0010
0000
0100
0000
,
1000
0000
1010
0000
0000
0110
0000
0000
,
1001
0000
0000
0000
0001
1000
0100
0000
,
1100
0000
1000
0001
0100
0000
0101
0000
,
1000
0010
0100
0001
0000
0010
0000
0001
,
0100
0000
0000
0000
0100
0010
1000
0000
,
0000
1000
1010
0110
,
0101
2000
0000
3001
,
0002
0000
0023
0000
0230
0000
1300
0001
,
0010
0100
1000
0010
0100
0001
0010
0100
,
1000
0000
0010
0100
0000
0110
0000
1010
,
0000
1000
0100
0010
0100
0000
0010
0000
,
0011
0000
0001
1000
0010
0000
1010
0000
,
0001
0100
0010
1000
0000
1100
0000
1000
,
0001
0100
0010
1000
0100
0000
1000
0010
,
0100
0000
0110
0000
0001
0010
0100
0000
,
0110
0000
0010
0001
0000
1001
0000
1000
,
0010
0100
0010
0100
0001
0000
0020
0000
,
0100
0130
2000
0001
,
3001
0000
1000
0010
0100
0010
1000
0001
,
0010
0100
1000
0100
0001
0100
0020
0000
,
0000
0000
0032
0000
,
0000
0000
1003
0100
1000
0010
1000
0100
,
0010
0001
0100
0001
0010
0100
0000
1001
,
0000
0000
0000
0000
;
#NOTES:
     dance-double:
     :
     Easy:
     7:
     :
00000000
00000000
00000000
00000000
,
00000000
00000000
00000000
00000000
,
00000000
00000000
00000000
00000000
,
00000000
00000000
00000000
00000000
,
00000000
00000000
00000000
00000000
,
00000000
00000000
00000000
00000000
,
00000000
00000000
00000000
00010000
,
00001000
00000000
00001000
00010000
,
00000000
00000000
00010000
00000000
00001000
00000000
00000000
00000100
,
00000000
00000010
00000000
00000010
,
00000100
00000000
00000010
00000100
,
00000000
00000000
00000010
00000000
00010000
00000000
00000000
00001000
,
00000000
00010000
00000000
00001000
,
00010000
00000000
00010000
00001000
,
00000000
00000000
00001000
00000000
00010000
00000000
00000000
01000000
,
00000000
00100000
00000000
00100000
,
01000000
00000000
01000000
00100000
,
00010000
00100000
00002000
00000000
,
00000000
00000000
00000000
00000000
,
00003000
00000000
00001000
00010000
,
00001000
00010000
00000010
00010000
,
00000010
00000000
00001000
00000000
00000000
00000100
00000000
00000000
,
00001000
00000000
00001000
00000001
,
00000010
00000001
00001000
00000010
,
00001000
00000000
00000100
00000000
00000000
00010000
00000000
00000000
,
00001000
00000000
00001000
00010000
,
00000100
00010000
00001000
01000000
,
00001000
00000000
01000000
00000000
00000000
00010000
00000000
00000000
,
01000000
00000000
01000000
00100000
,
00000000
00100000
10000000
00010000
,
10000000
00020000
00000000
00000000
,
00000000
00000000
00030000
10010000
,
00000000
00000000
01100000
00000000
,
00000000
10000000
00100000
01000000
,
00010000
01000000
00001000
00020000
,
00000000
00000000
00001000
00000000
,
00030000
00002000
00000000
00000000
,
00010000
00000000
00003000
00011000
,
00000000
00000000
00011000
00000000
,
00000000
00010000
00001000
00001000
,
00010000
00000010
00001000
00000020
,
00000000
00000000
00000100
00000000
,
00000030
00000200
00000000
00000000
,
00000010
00000000
00000300
00000100
,
00000001
00001000
00000010
00000100
,
00000010
00001000
00000001
00000010
,
00000100
00001000
00000100
00010000
,
00001000
00010000
00001000
00010000
,
00001000
00100000
00010000
00100000
,
01000000
00000000
10000000
02000000
,
00000000
00000000
03000000
00000000
,
01000000
20000000
00000000
00000000
,
30000000
00000000
10000000
00020000
,
00000000
00000000
00030000
00000000
,
00010000
00200000
00000000
00000000
,
00300000
00000000
00100000
00002000
,
00000000
00000000
00000000
00000000
,
00000000
00003000
00000000
00000000
,
00000000
00000000
00000000
00010000
,
00001000
00000100
00000001
00000000
,
00000000
00000000
00001000
00000000
00000000
00000001
00000000
00000000
,
00001000
00000000
00001000
00000001
,
00000010
00000001
00001000
00000010
,
00000100
00000000
00000010
00000000
00000000
00010000
00000000
00000000
,
00001000
00000000
00010000
00001000
,
00000000
00001000
00010000
00001000
,
00010000
01000000
00000000
01000000
,
10000000
00100000
01000000
00010000
,
00000000
00000000
01100000
00000000
,
00000000
10000000
00100000
00010000
,
00001000
00000000
00010000
00001000
,
00001000
00010000
00001000
00001000
,
00010000
00000000
00000100
00000000
00000000
00001000
00000000
00000000
,
00000010
00000000
00000100
00000001
,
00000010
00000100
00000010
00000001
,
00000100
00000000
00000010
00000000
00000000
00010000
00000000
00000000
,
00001000
00000000
00010000
00001000
,
00000000
00001000
00100000
00010000
,
00100000
01000000
00000000
10000000
,
00100000
01000000
00001000
00010000
,
00000000
00000000
00001000
00000000
,
00000000
00022000
00000000
00000000
,
00000000
00000000
00000000
00000000
00033000
00000000
00000000
00011000
,
00000000
00000000
00000000
00000000
;
#NOTES:
     dance-double:
     :
     Medium:
     10:
     :
00000000
00000000
00000000
00000000
,
00000000
00000000
00000000
00000000
,
00000000
00000000
00000000
00000000
,
00000000
00000000
00000000
00000000
,
00000000
00000000
00000000
00000000
,
00000000
00000000
00000000
00000000
,
00000000
00000000
00000000
00010000
,
00001000
00010000
00000010
00000100
,
00000010
00000000
00001000
00000000
00001100
00000000
00000000
00000110
,
00000000
00000011
00000000
00000001
,
00000010
00000001
00000010
00000000
00001000
00000000
00010000
00001000
,
00010000
00000000
00001000
00000000
00000100
00000010
00000000
00010000
,
00000000
00010000
00001000
00000000
00000000
00000000
00001000
00000000
,
00010000
00001000
00100000
01000000
,
00100000
00000000
00010000
00000000
01010000
00000000
00000000
01100000
,
00000000
00000000
10100000
00000000
00000000
00000000
10000000
00100000
,
01000000
00000000
01000000
00100000
,
00010000
00001000
00020000
00000000
,
00000000
00000000
00000000
00000000
,
00030000
00000000
00000000
00000000
00010000
00000000
00001000
00010000
,
00001000
00000000
00000010
00000000
00000001
00000010
00000001
00000000
,
00001000
00000000
00000010
00000000
00000000
00000110
00000000
00000000
,
00000101
00000000
00000000
00000000
00000001
00000000
00000100
00000001
,
00000100
00000000
00001000
00000000
00010000
00001000
00010000
00000000
,
00100000
00000000
10100000
00000000
00000000
11000000
00000000
00000000
,
10010000
00000000
00000000
00000000
00010000
00000000
10000000
01000000
,
10000000
00000000
01000000
00000000
00010000
01000000
00010000
00000000
,
00001000
00000000
00000010
00000100
00000000
00000010
00000000
00000010
,
00000001
00000000
00000000
00000000
00000001
00000100
00000001
00000000
,
00000000
00000100
00000010
00010000
,
00001000
00020000
00000000
00000000
,
00000000
00000000
00030000
00010000
,
00001000
00001000
00100000
00001000
,
00001000
00000000
00100000
00000000
00010000
00100000
00010000
00000000
,
10000000
00000000
01000000
10000000
01000000
00000000
20000000
00000000
,
00000000
00000000
30020000
00000000
,
00000000
00000000
00130000
00000000
00001000
00000000
00000000
00010000
,
00001000
00000000
00000000
00000000
00000000
00010000
00000020
00000000
,
00000000
00000000
00002030
00000000
,
00000000
00003001
00000100
00001000
,
00010000
00000000
00001000
00000000
00010000
00001000
00020000
00000000
,
00000000
00000000
02030000
00000000
,
00000000
00000000
13000000
00100000
01000000
00000000
00100000
01000000
,
00010000
00000000
00000000
10010000
00000000
00000000
20000000
00000000
,
00000000
00000000
32000000
00000000
,
00000000
03010000
00001000
00000010
,
00000100
00001000
00000100
00001000
,
00000010
00000100
00000001
00000010
,
00000100
00010000
00001000
00010000
,
00011000
00000000
00010000
00002000
,
00000000
00000000
00003000
00000000
,
00001000
00010000
00000000
00011000
,
00000000
00010000
01000000
20000000
,
00010000
00010000
30010000
00000000
,
10000000
00200000
00000000
00320000
,
00000000
00030000
00001000
00011000
,
00000000
00000000
00000000
00000000
,
00000000
00000000
00000000
00000000
,
00000000
00000000
00000000
00000000
00000000
00000000
00010000
00001000
,
00010000
00000100
00001000
00000010
00000100
00000000
00000000
00000000
,
00000000
00000000
00000001
00000000
00000000
00000100
00000000
00000010
,
00000100
00000000
00000001
00000000
00001000
00000000
00000100
00010000
,
00000100
00000000
00010000
00000000
00001000
01000000
00001000
00000000
,
01000000
00000000
00010000
01000000
00000000
00100000
00000000
10000000
,
00100000
00000000
00000000
00000000
10000000
00010000
10000000
00000000
,
00000000
10000000
01000000
00010000
,
00001000
00020000
00000000
00031000
,
00010000
00000100
00001000
00000100
,
00000000
00000110
00000000
00000000
00000001
00000010
00000100
00010000
,
00001000
00000000
00010000
00001000
00000000
00100000
00000000
00010000
,
00000000
01000000
00100000
00000000
10000000
00000000
00100000
01000000
,
00100000
00000000
10000000
00000000
01000000
00100000
01000000
00000000
,
10000000
00000000
01000000
00100000
00000000
00010000
00000000
00100000
,
00001000
00000000
00000000
00000000
00010000
00000000
00001000
00010000
,
00001000
00000000
00100000
00000000
00001000
00010000
00001000
00000000
,
01000000
00000000
00001000
00010000
00000000
00000100
00000000
00001000
,
00000001
00000000
00000000
00000000
00000001
00001000
00000001
00000000
,
00000000
00000001
00000010
00001000
,
00010000
00011000
00000000
00010000
,
00001000
01000000
00010000
10000000
,
00000000
00000000
01100000
00000000
,
00000000
00000000
10000000
01000000
00100000
00001000
00010000
00000000
,
00001000
00010000
00000100
00001000
00000001
00000010
00000000
00000001
,
00000000
00000000
00000000
00000000
;
#NOTES:
     dance-double:
     :
     Hard:
     13:
     :
00000000
00000000
00000000
00000000
,
00000000
00000000
00000000
00000000
,
00000000
00000000
00000000
00000000
,
00000000
00000000
00000000
00000000
,
00000000
00000000
00000000
00000000
,
00000000
00000000
00000000
00000000
,
00000000
00000000
00000000
00010000
,
00001000
00010000
00001000
00000000
00000010
00000000
00000001
00001000
,
00000001
00000000
00001000
00000000
00000001
00000100
00000000
00001000
,
00000000
00010000
00001000
00000000
00000000
00000000
00001000
00010000
,
00100000
00000000
10000000
00000000
00010000
01000000
00100000
00000000
,
10000000
00000000
00010000
00000000
10000000
01000000
00000000
00010000
,
00000000
00001000
00010000
00000000
00000000
00000000
00010000
00001000
,
00000010
00000000
00000011
00000000
00000010
00000001
00000100
00000000
,
00000101
00000000
00000100
00000010
00000100
00001000
00000000
00010000
,
00000000
00010000
00001000
00000000
00000000
00000000
00001000
00010000
,
01000000
00000000
01000000
10000000
,
00100000
00010000
00200000
00000000
,
00000000
02000000
00000000
00000000
,
03300000
00000000
00000000
00000000
00100000
10000000
01000000
00000000
,
01100000
00000000
00100000
00010000
01000000
00000000
01100000
00000000
,
00100000
00000000
10000000
00100000
00000000
00010000
00000000
00001000
,
00000100
00000000
00000000
00000000
00000001
00000010
00000100
00000000
,
00001100
00000000
00001000
00000010
00000100
00000000
00000101
00000000
,
00000001
00000100
00001000
00010000
00000000
00100000
00000000
10000000
,
00010000
00000000
00000000
00000000
10000000
01000000
00100000
00010000
,
00100000
00000000
00010000
01000000
00100000
10000000
00100000
00000000
,
10000000
00100000
01000000
00001000
00000000
00010000
00000000
00000010
,
00000100
00000000
00000000
00000000
00000001
00000010
00001000
00000000
,
00000000
00001000
00000010
00000011
,
00001001
00002000
00000000
00000000
,
00003200
00000000
00000000
00000000
00000000
00000000
00010300
00001000
,
00100000
00010000
01000000
00000000
00100000
10000000
01000000
00100000
,
00010000
00100000
00001000
00000000
00010000
00001000
00000010
00000000
,
00000001
00001000
00000100
00001000
00000001
00000010
00001000
00000000
,
00010000
00001000
00000100
00000010
,
00010000
00000000
00001000
00000000
00000010
00000000
00000000
00000010
,
00002000
00000000
00000000
00000000
00003000
00001000
00010000
01000000
,
00100000
00010000
01000000
00000000
00100000
01000000
00010000
00100000
,
00001000
00010000
00000100
00000000
00000010
00000001
00000100
00000000
,
00001000
00010000
00100000
10000000
00100000
00000000
10100000
00000000
,
10000000
00100000
00010000
00000000
00001000
00000100
00000001
00000000
,
00001000
00000001
00000010
00000100
00010000
00001000
00100000
01000000
,
10000000
00000000
00000000
10010000
00000000
00000000
20000000
00000000
,
31000000
00010000
00001000
00000010
00000001
00001000
00000100
00000001
,
00000100
00000010
00000001
00000000
00000100
00000010
00000100
00000000
,
00001000
00010000
00001000
00000000
00011000
00000000
00020000
00000000
,
00001000
00032000
01000000
02003000
,
03020000
00000000
00130000
01000000
10000000
00100000
10000000
00000000
,
10010000
00000000
00000000
00000000
00010000
10000000
00010000
00000000
,
10000000
00100000
01000000
00010000
01000000
00000000
00010000
00100000
,
00001000
00010000
00001000
00000000
00010000
00001000
00000100
00000000
,
00000001
00001000
00000001
00000010
00000100
00000000
00020000
00000000
,
00031000
00100000
00010000
00000000
10000000
00100000
01000000
00000000
,
00100000
10000000
01000000
00000000
00010000
00001000
00000010
00000001
,
00001000
00000020
00000130
00002002
,
00000000
00000000
00000000
00000000
,
00000000
00003003
00000000
00000000
,
00000000
00000000
00000000
00000000
00000000
00000000
00000001
00000010
,
00001000
00010000
01000000
10000000
00010000
00000000
00000000
00000000
,
00000000
00000000
11000000
00000000
00000000
00110000
00000000
00000000
,
20020000
00000000
30030000
00000000
10000000
01000000
00100000
00000000
,
10010000
00000000
00010000
01000000
00100000
00000000
10010000
00000000
,
10000000
01000000
00010000
00001000
00000000
00011000
00000000
00001000
,
00000010
00000000
00000000
00000000
00000001
00001000
00000001
00000000
,
00000000
00000001
00000100
00001000
,
00010000
00002000
00000000
00013000
,
00011000
01001000
01010000
01100000
,
00000000
10010000
00000000
00000000
10000000
01000000
00100000
01000000
,
00010000
00001000
00010000
00000100
00000000
00001100
00000000
00001000
,
00000100
00000010
00000100
00001000
00000001
00000100
00000010
00010000
,
00001000
00000000
00001000
01000000
00010000
00100000
01000000
00000000
,
01000000
00100000
00010000
10000000
00000000
01000000
00000000
00010000
,
00001000
00000010
00000001
00001000
00000100
00000010
00000001
00001000
,
00000001
00000000
00000010
00000100
00001000
00000001
00000100
00000000
,
00000100
00001000
00010000
00100000
00000000
10000000
00000000
01000000
,
00100000
00000000
01100000
00000000
01000000
10000000
00010000
00000000
,
00010000
01000000
00100000
00010000
00001000
00000000
00010000
00001000
,
00010000
00000010
00001000
00000000
00000010
00001000
00000010
00000001
,
00000020
00000230
00000302
00002003
,
00000000
00000000
00003002
00000000
,
00000000
00000000
00001003
00000001
00000010
00001000
00010000
00100000
,
10000000
01000000
00010000
00001000
00000100
00000010
00000000
00000110
,
00000000
00000000
00000000
00000000
;
