
//----- song ID: redf -----//
#TITLE:Red. by Full Metal Jacket;
#ARTIST:DJ Mass MAD Izm*;
#MUSIC:Red. by Full Metal Jacket.ogg;
#BANNER:Red. by Full Metal Jacket.png;
#BACKGROUND:Red. by Full Metal Jacket-bg.png;
#CDTITLE:./CDTitles/bm IIDX 17 SIRIUS.png;
#SAMPLESTART:35.886;
#SAMPLELENGTH:15;
#BPMS:0=158;
#NOTES:
     dance-single:
     :
     Beginner:
     3:
     :
0000
0000
0000
0000
,
0000
0000
0000
0000
,
0000
0000
0000
0000
,
0001
0000
0000
0000
,
1000
0000
0000
0000
,
0001
0000
0000
0000
,
1000
0000
0000
0000
,
0010
0000
0000
0000
,
0100
0000
0000
0000
,
0010
0000
0000
0000
,
0100
0000
0000
0000
,
0001
0000
0000
0000
,
1000
0000
0000
0000
,
1001
0000
0000
0000
,
0000
0000
0000
0000
,
0001
0000
0000
0000
,
0100
0000
0000
0000
,
0010
0000
0000
0000
,
1000
0000
0000
0000
,
0010
0000
0000
0000
,
0100
0000
0000
0000
,
0001
0000
0000
0000
,
2002
0000
0000
0000
,
0000
0000
0000
0000
0000
3003
0000
0000
,
1000
0000
1000
0000
,
1000
0000
0000
0000
,
0001
0000
0001
0000
,
0001
0000
0000
0000
,
0100
0000
0100
0000
,
0100
0000
0000
0000
,
0010
0000
0010
0000
,
0010
0000
0000
0000
,
1000
0000
0001
0000
,
1000
0000
0000
0000
,
0001
0000
0100
0000
,
0001
0000
0000
0000
,
1000
0000
0001
0000
,
1000
0000
0000
0000
,
0010
0000
1000
0000
,
0020
0000
0000
0000
,
0000
0000
0000
0030
,
1000
1000
0000
0000
,
0000
0000
0000
0000
,
0001
0001
0000
0000
,
0000
0000
0000
0000
,
1000
1000
0000
0000
,
0001
0001
0000
0000
,
1000
1000
0000
0000
,
0001
0001
0001
0000
,
1000
0000
1000
0000
,
0001
0000
0000
0000
,
0100
0000
0100
0000
,
0010
0000
0000
0000
,
1000
0000
1000
0000
,
0001
0000
0000
0000
,
0100
0000
0100
0000
,
0010
0000
0000
0000
,
1000
0000
0001
0000
,
0100
0000
0000
0000
,
0001
0000
1000
0000
,
0010
0000
0000
0000
,
1000
0000
0001
0000
,
0100
0000
0000
0000
,
0010
0000
0000
0000
,
0010
0000
0000
0000
,
0010
0000
0000
0000
,
0010
0000
0000
0000
,
0100
0000
0001
0000
,
1000
0000
0000
0000
,
0010
0000
0100
0000
,
0001
0000
0000
0000
,
1000
0000
0100
0000
,
0010
0000
0000
0000
,
0001
0000
1000
0000
,
0010
0000
0000
0000
,
1000
0000
1000
0000
,
0001
0000
0000
0000
,
0001
0000
1000
0000
,
0010
0000
0010
0000
,
0000
0000
0000
0000
;
#NOTES:
     dance-single:
     :
     Easy:
     6:
     :
0000
0000
0000
0000
,
0000
0000
0000
0000
,
0000
0000
0000
0000
,
0001
0000
1000
0010
,
0100
0000
0100
0010
,
1000
0000
1000
0001
,
0100
1000
1000
0100
,
0001
0000
0001
0010
,
0100
0000
0100
0010
,
0001
0000
0001
1000
,
0010
0001
0001
0010
,
1000
0000
1000
0100
,
0010
0000
0010
0001
,
1000
1100
0010
0110
,
0001
0011
1000
1100
,
0001
0000
1000
0010
,
0200
0000
0301
0000
,
1000
0000
0010
0100
,
0002
0000
0013
0000
,
0100
0000
1000
0001
,
0200
0000
1300
0000
,
0100
0000
0010
0000
,
1010
0001
1010
0100
,
2002
0000
0000
0000
0000
3003
0000
0000
,
0001
0100
0001
0100
,
0010
1000
0010
1000
,
0100
0001
0100
0001
,
0100
1000
0100
1000
,
0010
0001
0010
0001
,
0010
1000
0010
1000
,
0100
0001
0100
1000
,
0010
0100
0002
0003
,
1001
1000
0100
0010
,
0001
1000
0010
0100
,
0010
1000
0001
0010
,
0100
1000
1000
1000
,
0001
0100
0001
0010
,
0100
1000
0010
0100
,
0001
1000
0100
0010
,
2002
0000
0000
0000
,
0000
0000
0000
3003
,
0010
0020
0000
0000
,
0000
0000
0000
0000
,
1000
1000
0000
0000
,
0000
0000
0000
0000
,
0001
0001
0000
0000
,
1000
1000
0000
0000
,
0001
0001
0000
0000
,
1000
0001
1000
0030
,
0110
0001
0110
1000
,
0001
0010
0001
1000
,
0010
0100
0001
1010
,
0001
0010
0100
1000
,
0110
0001
0110
1000
,
0001
0100
0001
1000
,
0100
0010
0001
1100
,
0001
0100
0010
1001
,
0001
0001
0100
1000
,
1000
0100
0001
0001
,
0010
1000
1000
0010
,
0001
0100
0010
1000
,
1000
0100
0001
0001
,
0100
1000
1000
0010
,
0200
0300
0002
0003
,
2000
3000
0200
0300
,
2000
3000
0002
0003
,
2000
3000
0002
0003
,
1000
0010
0100
0001
,
0011
0110
1100
0000
,
0001
1000
0010
1000
,
0001
0000
0100
0000
0000
0110
0000
0000
,
0001
0001
1000
0010
,
0100
0001
0011
0000
,
1100
1000
0001
0100
,
0001
0010
0110
0000
,
1001
0100
0110
0000
,
0001
0000
1000
0000
0000
0110
0000
0000
,
1001
1000
0010
0000
,
0100
0000
0001
0000
1000
0000
0000
1001
,
0000
0000
0000
0000
;
#NOTES:
     dance-single:
     :
     Medium:
     10:
     :
0000
0000
0000
0000
,
0000
0000
0000
0000
,
0000
0000
0000
0000
,
0001
0001
0000
1000
1000
0000
0010
0000
,
0100
0001
0000
0100
0001
0000
1000
0000
,
0010
0010
0000
0100
0100
0000
0001
0000
,
1000
0100
1000
0100
0010
0000
0001
0000
,
1000
1000
0000
0010
0010
0000
0100
0000
,
0001
1000
0000
0001
1000
0000
0100
0000
,
0010
0010
0000
0001
0001
0000
0100
0000
,
0010
1000
0010
1000
0001
0000
0010
0000
,
0001
0001
0000
1000
0010
0000
0100
0000
,
0010
0010
0000
1000
0001
0000
0000
0000
,
1000
0000
0000
1000
0000
0000
1000
0000
0001
0000
0000
0001
0000
0000
0001
0000
,
0100
0000
0000
0100
0000
0000
0100
0000
0010
0000
0000
0010
0000
0000
0010
0000
,
1000
0001
0100
0001
,
1000
0100
0010
0011
,
0001
1000
0010
0100
,
0001
0010
0100
1100
,
1000
0001
0100
0001
,
0010
0100
1000
0010
,
1000
0001
0010
0001
,
0100
0000
0000
0100
0000
0000
0100
0000
0010
0000
0000
0010
0000
0000
0010
0000
,
0220
0000
0000
0000
0000
0330
0000
0000
,
1000
0000
0001
0000
2000
0000
0000
0100
,
0000
0000
3010
0000
0002
0000
0000
0010
,
0000
0103
0001
0010
,
0100
0000
2000
0000
0100
0000
0000
3010
,
0000
1000
0001
0200
,
0000
0000
0000
1000
0000
0010
0000
0301
,
1000
0000
0100
0000
0020
0000
0000
1000
,
0000
0000
0031
0000
1000
0000
0000
0000
0010
0000
0000
0010
0000
0000
0010
0000
,
0100
0000
0001
0000
1000
0100
0010
0000
,
0001
0000
1000
0000
0010
1000
0010
0100
,
0001
0000
0010
0100
1000
0000
0001
0000
,
0100
0100
0001
1000
0100
0000
0010
0000
,
0001
0001
1000
0000
0010
0010
0100
0001
,
1000
0000
0100
0100
0010
0001
1000
0000
,
0001
0000
0100
0010
0100
0000
0001
0000
,
1000
0001
0100
0220
,
0000
0000
0000
0330
,
0001
0001
0001
0000
0000
0000
0000
0000
,
0000
0000
0000
0000
,
1000
1000
1000
0000
0000
0000
0000
0000
,
0000
0000
0000
0000
,
0001
0001
0001
0000
0000
0000
0000
0000
,
1000
1000
1000
0000
0000
0000
0000
0000
,
0001
0001
0001
0000
0000
0000
0000
0000
,
1000
0100
0001
0100
1000
0000
1001
0000
,
0001
0100
0010
0000
1000
0001
0010
0000
,
0100
0000
1000
0001
0100
0100
0100
0000
,
0001
1000
0100
0000
1000
0010
0100
0000
,
0001
0000
1000
0100
0010
0010
0010
0000
,
0001
0000
0100
0000
0001
0001
0001
0000
,
0010
0000
0100
0000
1000
1000
1000
0000
,
0001
0000
0100
0000
0010
0010
0010
0000
,
1000
0000
0001
0000
0100
0100
0100
0000
,
0001
0010
0100
0000
1000
0001
0100
0000
,
0010
1000
0001
0000
0100
0010
1000
0000
,
0001
0100
1000
0100
0001
0000
0010
0000
,
0100
1000
0100
1000
0010
0000
0100
0000
,
0001
1000
0100
0000
0010
0001
1000
0000
,
0001
0001
0010
0100
1000
0001
0200
0000
,
0300
0000
0001
0000
,
2000
0100
3010
0000
,
0002
0100
0013
0000
,
2000
0100
3010
0000
,
0001
1000
0010
0100
,
0001
0000
1000
0000
0001
0000
1000
0000
0010
0000
0000
0010
0000
0000
0010
0000
,
0100
0000
0001
0000
1000
0100
0010
0000
,
0001
0000
0100
0010
0000
1001
0000
0000
,
0001
1000
1000
0000
0010
0010
0000
0000
,
0100
0000
0000
0000
0001
0000
1000
0000
0010
0000
0000
0010
0000
0000
0010
0000
,
0100
0001
0001
0000
1000
1000
0000
0000
,
0100
0000
1000
0000
0100
0000
0010
0000
0001
0000
0000
0001
0000
0000
0001
0000
,
0100
0000
0000
0000
0010
0000
0000
0000
0100
0000
0000
0100
0000
0000
0100
0000
,
0001
1000
0100
0010
0000
0011
0000
0000
,
0010
0000
0100
0000
1000
0000
0000
0000
0001
0000
0000
0100
0000
0000
0010
0000
,
0010
0000
1000
0000
0001
0000
0000
0000
0010
0000
0000
0001
0000
0000
1001
0000
,
0000
0000
0000
0000
;
#NOTES:
     dance-single:
     :
     Hard:
     14:
     :
0000
0000
0000
0000
,
0000
0000
0000
0000
,
0000
0000
0000
0000
,
0001
1000
0000
1000
0010
0100
0001
0000
,
0001
0010
0000
0010
0001
1000
1000
0001
,
0001
1000
0000
1000
0001
0100
0020
0000
,
0130
0100
0100
0010
1000
0001
1000
0000
,
1000
0001
0000
0001
0010
0100
1000
0000
,
1000
0000
0010
0000
0000
0000
0010
0000
1000
0000
0001
1000
0001
0000
0010
0000
,
0100
1000
0000
1000
0001
0100
0020
0000
,
0130
0100
0100
0010
1000
0001
0020
0000
,
0031
1000
0000
1000
0100
1000
0010
0010
,
0100
0001
0000
0001
0100
0001
0010
0010
,
0100
0000
0000
1100
0000
0000
1000
0000
0001
0000
0000
0101
0000
0000
0100
0000
,
0010
0000
0000
1010
0000
0000
1001
0000
0011
0000
0000
0110
0000
0000
1100
0000
,
2002
0000
0000
0000
3003
0000
0000
1000
0100
0000
0010
0000
0001
0000
1000
0000
,
2020
0000
0000
0000
3030
0000
0000
1000
0001
0000
0100
0000
0010
0000
0000
0000
,
0202
0000
0000
0000
0303
0000
0000
1000
0001
0000
0010
0000
0001
0000
0100
0000
,
0220
0000
0000
0000
0330
0000
0000
1000
0001
0000
0010
0000
0100
0000
0000
0000
,
2002
0000
0000
0000
3003
0000
0000
0001
0100
0000
0010
0000
1000
0000
0001
0000
,
0022
0000
0000
0000
0033
0000
0000
0001
1000
0000
0100
0000
0010
0000
0000
0000
,
2200
0000
0000
0000
3300
0000
0000
0001
1000
0000
0010
0000
0100
0000
0001
0000
,
0101
0000
0000
0001
0000
0000
1000
0000
1100
0000
0000
1000
0000
0000
0001
0000
,
0220
0000
0000
0000
0000
0330
0000
0000
,
0001
0000
1000
0100
1000
0000
0001
0000
0100
0000
0010
1000
0010
0000
0100
0000
,
0001
1000
0100
1000
0010
0100
0001
0000
,
1000
0001
1000
0001
1000
0000
0001
1000
0100
0000
0010
0000
0100
0000
1000
0000
,
0001
0001
1000
1000
0001
0010
1000
0010
,
0001
1000
0010
1000
0100
0010
0001
0000
,
1000
1000
0001
0001
1000
0010
0001
0010
,
1000
0001
0010
0100
1000
0010
0100
0000
,
0001
0010
0001
0000
1000
0100
1000
0000
0010
0000
0000
0010
0000
0000
0010
0000
,
0110
0000
0000
0000
1000
0000
0001
0010
0001
0000
1000
0000
0010
0000
0100
0000
,
1000
0100
0001
0100
0010
1000
0001
0000
,
1000
0000
0001
0010
0001
0000
1000
0000
0001
0000
0100
0000
0000
0000
0110
0000
,
0001
0001
1000
1000
0001
0100
0010
0000
,
1000
0001
0010
0001
1000
0010
0100
1000
,
0001
0010
0100
0001
0010
0100
1000
0000
,
0001
0000
1000
0100
1000
0000
0010
0000
1000
0000
0001
0100
0001
0000
0010
0000
,
0100
0000
1000
0000
0001
2000
0020
0000
,
0000
0000
0000
3030
,
0001
0000
0001
1000
0010
0000
0000
0000
0000
0000
0000
0000
0000
0000
0000
0000
,
0000
0000
0000
0000
,
1000
0000
1000
0001
0010
0000
0000
0000
0000
0000
0000
0000
0000
0000
0000
0000
,
0000
0000
0000
0000
,
0001
1000
0100
0000
0010
0000
0000
0000
0100
0000
0000
0000
0100
0000
0000
0000
,
1000
0001
0100
0000
0010
0000
0000
0000
0100
0000
0000
0000
0100
0000
0000
0000
,
0010
0100
0010
0100
0010
0000
0000
0000
1000
0000
0000
0000
0001
0000
0000
0000
,
0010
0010
0100
0100
0010
0001
1000
0000
,
1001
0000
1000
0010
0000
0010
0100
1000
,
0100
0001
0010
1000
0000
1000
0010
0001
,
1000
0010
0100
0001
0000
0001
0100
0001
,
0010
0100
0010
1000
0010
0001
0000
0001
,
0100
0010
1000
0100
0010
1000
0010
0001
,
0100
1000
0100
0010
0100
0001
0000
0001
,
0010
0000
0100
0000
1000
0000
0001
1000
0001
0000
0100
0000
0010
0000
1000
0001
,
1000
0000
0100
0000
0010
0000
0001
1000
0010
0000
1000
0000
1001
0000
0000
0000
,
0001
1000
0001
0000
0010
0000
0100
0000
1000
0001
1000
0000
0010
0000
0000
0000
,
1000
0000
1000
0000
0001
0000
0001
0000
0100
0000
0010
1000
0001
0000
0000
0000
,
1000
0100
1000
0000
0001
0000
1000
0000
0010
0000
0100
0001
1000
0000
0000
0000
,
0001
1000
0010
0010
0100
0001
1000
0000
,
0100
0000
0010
0001
1000
0000
0001
0000
0100
0001
1000
0000
0100
0000
0000
0000
,
0010
0000
0001
1000
0010
0000
1000
0000
0100
1000
0001
0000
0010
0000
0000
0000
,
2100
0000
0000
0000
3010
0000
0000
0000
0011
0000
0000
1000
0000
0000
0001
0000
,
0102
0000
0000
0000
0013
0000
0000
0000
1010
0000
0000
1000
0000
0000
0001
0000
,
0201
0000
0000
0000
0310
0000
0000
0000
1001
0000
0000
1000
0000
0000
0100
0000
,
0210
0001
1300
0110
,
0001
1000
0100
0000
1000
0001
0100
0000
,
0001
1000
0001
1000
0001
0000
1000
0000
0100
0000
0000
0010
0000
0000
0100
0000
,
1000
0000
0001
0000
1000
0001
0100
0000
,
1000
0100
0001
1000
0000
1001
0000
0000
,
0001
0100
0001
0000
1000
0100
1000
0000
,
0100
0000
1000
0000
0001
0000
1000
0000
0010
0000
0000
0100
0000
0000
0010
0000
,
1000
0001
0010
0000
0001
1000
0100
0000
,
0010
0000
0001
0000
1000
0000
0001
0000
0100
0000
0000
0010
0000
0000
0100
0000
,
0001
1000
0001
1000
0001
0000
1000
0000
0100
0000
0000
0010
0000
0000
0100
0000
,
0001
0100
1000
0001
0000
1001
0000
0000
,
1000
0000
0010
1000
0001
0000
0100
0000
0001
0000
0000
0011
0000
0000
1000
0000
,
0001
0000
0010
0001
1000
0000
0010
0000
1000
0000
0000
1010
0000
0000
0101
0000
,
0000
0000
0000
0000
;
#NOTES:
     dance-single:
     :
     Challenge:
     17:
     :
0000
0000
0000
0000
,
0000
0000
0000
0000
,
0000
0000
0000
0000
,
0001
0000
1000
0100
1000
0000
0100
0000
0010
0000
0001
0000
1000
0000
0000
0000
,
0010
0000
0100
0001
0100
0000
0001
0000
0010
0000
0100
0000
1000
0000
0000
0000
,
0001
0000
0100
0010
0100
0000
0001
0000
1000
0000
0100
0000
0010
0000
0000
0000
,
0001
1000
0001
1000
0001
0000
0010
0000
0100
0000
1000
0000
1001
0000
0000
0000
,
0001
0000
0100
0010
1000
0000
0001
0000
0010
0000
0001
0000
1001
0000
0000
0000
,
1000
0000
0010
1000
0001
0000
0010
0000
0100
0000
1000
0000
1001
0000
0000
0000
,
0001
0000
0100
0001
1000
0000
0100
0000
1000
0000
0010
0000
0200
0000
0000
0000
,
0301
1000
0001
0010
0100
0000
1000
0000
0001
0000
0100
0000
0110
0000
0000
0000
,
0010
0000
1000
0001
0010
0000
0100
0000
1000
0000
0010
0000
0110
0000
0000
0000
,
0100
0000
0001
0010
0100
0000
1000
0000
0001
0000
0200
0000
0010
0000
0301
0000
,
0101
0000
0000
0011
0000
0000
0100
0000
1100
0000
0000
1010
0000
0000
0001
0000
,
1001
0000
0000
0011
0000
0000
0110
0000
1100
0000
0000
1010
0000
0000
1001
0000
,
0002
1003
0100
1000
0001
0020
0031
0200
,
0320
1030
0001
0010
0100
1000
0010
1000
,
0002
0013
0100
1000
0010
0200
0301
0020
,
0230
1300
0001
1000
0100
0010
0002
0000
,
2003
3100
1000
0001
0100
0020
2030
3200
,
0320
0031
1000
0010
0100
0001
0010
0002
,
2003
3010
0100
0001
1000
0200
1300
0010
,
0110
0000
0000
0001
0000
0000
1000
0000
0110
0000
0000
0001
0000
0000
1000
0000
,
2002
0000
0000
0000
3003
0110
0000
0000
,
0001
0000
0000
1000
0000
0001
0010
0100
1000
0000
0001
1000
0010
0100
0001
0000
,
1000
0100
1000
0001
0100
0000
0010
1000
0100
1000
0001
0100
0010
0000
1000
0000
,
0100
1000
0100
0010
0001
0000
0100
0001
1000
0001
0010
0100
1000
0001
0100
0001
,
0010
0100
1000
0010
1000
0001
0010
0100
1000
0000
0010
0100
0001
1000
0100
0000
,
0010
0000
0000
0000
0001
0000
0000
0000
1000
0000
0000
0000
0200
0300
0000
0000
0000
0000
0000
0000
0200
0300
0000
0000
0001
0000
0000
0000
1000
0000
0000
0000
0100
0000
0000
0000
1000
0000
0000
0000
0001
0000
0000
0000
0100
0000
0000
0000
0010
0000
0000
0000
0100
0000
0000
0000
0001
0000
0000
0000
1000
0000
0000
0000
,
0001
0000
1000
0000
0100
0100
0100
0000
1000
0000
0001
0000
0100
0000
0010
0000
,
1000
0001
1000
0001
0100
0010
1000
0001
0100
0010
1000
0001
0010
0100
1000
0000
,
0100
0100
0100
0000
1000
0100
0010
0001
0100
0000
0000
0100
0000
0000
0100
0000
,
1001
0000
0000
0000
1000
0000
0100
0100
0100
0000
1000
0000
0001
0000
1000
0000
,
0001
0000
0100
0100
0100
0000
0001
0010
0100
1000
0010
0000
0100
0000
0001
0000
,
1000
0000
0000
0000
0200
0300
0000
0000
0000
0000
0000
0000
0200
0300
0000
0000
0001
0000
0000
0000
0000
0000
0000
0000
0010
0000
0000
0000
0000
0000
0000
0000
0100
0000
0000
0000
0000
0000
0000
0000
1000
0000
0000
0000
0000
0000
0000
0000
0000
0000
0000
0000
0000
0000
0000
0000
0001
0000
0000
0000
0000
0000
0000
0000
,
0010
0001
1000
0010
0100
0001
1000
0000
0100
0100
0100
0000
1000
0000
0001
0000
,
0100
0000
0001
0000
0010
0000
0100
1000
0100
0010
0001
1000
0010
0100
0010
1000
,
0001
0010
0001
1000
0010
0100
0001
0010
0100
1000
0001
0100
0010
0000
1000
0000
,
0001
0000
1000
0100
0010
0001
0010
0000
0001
0000
0100
0000
0001
0000
1000
0000
,
0020
0000
0100
0100
0230
0000
0302
0000
,
0000
0000
0000
1003
,
0100
0000
0100
0100
0100
0000
0001
0000
0010
0000
0001
0000
1000
0000
0010
0000
,
0001
0010
1000
0100
0010
0001
1000
0010
,
0100
0100
0100
0000
0100
0000
1000
0000
0010
0000
1000
0000
0001
0000
0010
0000
,
1000
0010
0001
0100
0010
1000
0001
0010
,
0100
0100
0100
1000
0010
1000
0001
0010
,
0100
0100
0100
0100
0100
0000
1000
0000
0001
0000
0010
0000
1000
0000
0001
0000
,
0100
0100
0100
1000
0010
0001
0010
1000
,
0100
0000
0100
0100
0100
0000
0100
0100
0100
0000
0100
0100
0100
0000
0000
0000
,
0100
0100
0100
0100
0000
0100
0100
0100
,
0100
0000
0100
0100
0100
0000
0100
0000
0100
0000
0100
0000
0100
0000
0100
0100
,
0100
0000
0100
0000
0100
0000
0100
0000
0100
0000
0100
0000
0100
0000
0000
0100
,
0100
0100
0100
0100
0100
0100
0100
0100
,
0100
0100
0100
0100
0100
0000
0100
0000
0100
0000
0100
0000
0100
0100
0100
0100
,
0100
0000
0100
0000
0100
0000
0100
0100
0100
0100
0100
0000
0000
0000
0100
0000
,
0100
0000
0100
0000
0100
0000
0100
0100
0100
0100
0100
0000
0100
0000
0100
0100
,
0100
0100
0100
0000
0100
0000
0100
0100
0100
0100
0100
0000
1001
0000
0000
0000
,
0001
1000
0001
0010
0100
0000
1000
0100
1000
0001
0100
0000
0010
0100
0001
0000
,
0010
0000
0100
1000
0001
0000
0100
0001
1000
0100
1000
0001
0100
0001
0010
0000
,
0100
1000
0001
1000
0010
0100
0001
0000
0010
0000
0001
1000
0010
0100
0001
0000
,
1000
0001
0000
0100
0000
0001
0010
0100
1000
0100
1000
0001
0100
0010
1000
0000
,
0100
0000
0010
0001
0010
0100
1000
0001
0100
0001
1000
0001
0010
0100
1000
0000
,
0001
0100
0001
1000
0100
1000
0010
0100
0001
0010
0100
1000
0002
0000
0000
0000
,
1003
0000
0000
0000
1000
0000
0000
0000
0010
0000
0000
1000
0000
0000
0001
0000
,
1000
0000
0000
0000
0001
0000
0000
0000
0010
0000
0000
0001
0000
0000
1000
0000
,
0100
0000
0000
0000
1000
0000
0000
0000
0001
0000
0000
1000
0000
0000
0010
0000
,
0100
0000
0000
0000
0001
0000
0000
0000
1000
0000
0000
0100
0010
0000
0100
0000
,
0010
0001
0010
0001
0100
0010
1000
0001
,
1000
0100
1000
0100
1000
0000
0010
0000
0110
0000
0000
0101
0000
0000
0011
0000
,
0010
0100
1000
0001
0100
0010
1000
0001
,
1000
0000
0000
0000
0000
0000
0000
0000
0000
0000
0000
0000
0200
0300
0000
0000
0000
0000
0000
0000
0200
0300
0000
0000
0001
0000
0000
0000
0010
0000
0000
0000
0000
0000
0000
0000
0000
0000
0000
0000
1001
0000
0000
0000
0000
0000
0000
0000
0000
0000
0000
0000
0000
0000
0000
0000
0000
0000
0000
0000
0000
0000
0000
0000
,
1000
0010
0010
1000
0001
0001
0010
0100
,
1000
0000
0001
0100
0001
1000
0100
0010
0000
0001
0000
0010
0100
1000
0001
0100
,
0010
1000
1000
0001
0010
0010
0001
1000
,
0010
0000
0100
0001
0010
0000
0001
0000
1001
0000
0000
0110
0000
0000
1001
0000
,
1000
0100
0010
0100
1000
0000
0010
0000
0110
0000
0000
1010
0000
0000
1001
0000
,
0001
0000
0000
0010
0000
0001
0100
1000
0000
0000
0110
0000
0000
0000
0000
0000
,
0001
0000
1000
0100
0010
0001
1000
0010
0100
0000
0000
0101
0000
0000
1010
0000
,
1000
0000
0100
0010
0001
0000
0100
0000
0110
0000
0000
1010
0000
0000
1001
0000
,
0000
0000
0000
0000
;
#NOTES:
     dance-double:
     :
     Easy:
     6:
     :
00000000
00000000
00000000
00000000
,
00000000
00000000
00000000
00000000
,
00000000
00000000
00000000
00000000
,
00010000
00000000
00010000
00001000
,
00100000
00000000
00100000
00010000
,
10000000
00000000
10000000
01000000
,
00100000
00100000
00100000
01000000
,
10000000
00000000
10000000
00010000
,
01000000
00000000
01000000
00001000
,
00010000
00000000
00010000
00001000
,
00000010
00000010
00000010
00001000
,
00010000
00000000
00010000
00000100
,
00000010
00000000
00000010
00000100
,
00001000
00001100
00010000
00011000
,
00100000
00110000
10000000
10100000
,
00010000
00000000
10000000
01000000
,
00020000
00000000
00031000
00000000
,
00010000
00000000
00001000
00000010
,
00000002
00000000
00001003
00000000
,
00000001
00000000
00000001
00000100
,
00002000
00000000
00013000
00000000
,
00001000
00000000
00010000
00000000
,
00011000
00000010
00011000
00100000
,
00022000
00000000
00000000
00000000
00000000
00033000
00000000
00000000
,
00001000
00010000
00001000
00010000
,
00100000
10000000
00100000
10000000
,
01000000
00010000
01000000
00010000
,
00001000
00000010
00001000
00000010
,
00000001
00000100
00000001
00000100
,
00001000
00010000
00001000
00010000
,
00100000
10000000
00100000
10000000
,
01000000
00100000
00002000
00003000
,
00010000
00000100
00001000
00000010
,
00000100
00000001
00000010
00000001
,
00000100
00001000
00010000
00001000
,
00010000
01000000
10000000
00100000
,
01000000
00010000
10000000
01000000
,
00010000
00001000
00010000
00001000
,
00000100
00000010
00010000
00001000
,
00020000
00000000
00000000
00030000
,
00000000
00000000
00000000
00000000
,
00001000
00002000
00000000
00000000
,
00000000
00000000
00000000
00000000
,
00100000
00100000
00000000
00000000
,
00000000
00000000
00000000
00000000
,
00000010
00000010
00000000
00000000
,
00100000
00100000
00000000
00000000
,
00000010
00000010
00000000
00000000
,
00010000
00010000
00013000
00011000
,
00001000
00100000
00010000
10000000
,
00010000
01000000
00001000
00010000
,
00000010
00001000
00000001
00001000
,
00000100
00010000
00001000
00010000
,
00000010
00001000
00000100
00010000
,
00001000
00100000
00010000
01000000
,
00001000
00001000
00010000
00001000
,
00000010
00001000
00010000
00011000
,
00001000
00010000
00100000
01000000
,
00001000
00010000
01000000
10000000
,
00100000
00010000
00001000
00100000
,
01000000
00010000
00001000
00000100
,
00000010
00010000
00001000
00000010
,
00000001
00000100
00000010
00001010
,
00020000
00030000
00002000
00003000
,
00200000
00300000
00020000
00030000
,
02000000
03000000
00200000
00300000
,
20000000
30000000
00020000
00030000
,
10000000
10000000
01000000
00100000
,
00010000
01000000
01100000
00000000
,
00011000
00010000
00000100
00000010
,
00000001
00000000
00001000
00000000
00000000
00001001
00000000
00000000
,
00000001
00000001
00000100
00000010
,
00001000
00000100
00000110
00000000
,
00011000
00001000
01000000
00100000
,
10000000
01000000
11000000
00000000
,
00110000
00100000
00001000
00000000
,
00010000
00000000
00001000
00000000
00000000
00011000
00000000
00000000
,
00000100
00001000
00000010
00000000
,
00001000
00000000
00000100
00000000
00000001
00000000
00000000
00001001
,
00000000
00000000
00000000
00000000
;
#NOTES:
     dance-double:
     :
     Medium:
     10:
     :
00000000
00000000
00000000
00000000
,
00000000
00000000
00000000
00000000
,
00000000
00000000
00000000
00000000
,
00001000
00001000
00000000
00010000
00010000
00000000
00000100
00000000
,
00001000
00000100
00000000
00000010
00000001
00000000
00001000
00000000
,
00000010
00000010
00000000
00010000
00010000
00000000
00001000
00000000
,
00100000
00010000
00100000
00010000
00100000
00000000
00010000
00000000
,
10000000
10000000
00000000
00010000
00010000
00000000
01000000
00000000
,
00001000
00010000
00000000
00001000
00010000
00000000
00000100
00000000
,
00001000
00001000
00000000
00000010
00000010
00000000
00000100
00000000
,
00000001
00001000
00000001
00001000
00000001
00000000
00000010
00000000
,
00000001
00000001
00000000
00000100
00000100
00000000
00000010
00000000
,
00001000
00001000
00000000
00000100
00000100
00000000
00010000
00000000
,
00001000
00000000
00000000
00001000
00000000
00000000
00001000
00000000
00010000
00000000
00000000
00010000
00000000
00000000
00010000
00000000
,
00001000
00000000
00000000
00001000
00000000
00000000
00001000
00000000
00010000
00000000
00000000
00010000
00000000
00000000
00010000
00000000
,
00001000
00010000
01000000
10000000
,
00100000
01000000
00010000
00110000
,
00100000
01000000
10000000
00100000
,
00010000
00001000
00010000
00011000
,
00001000
00010000
00000010
00001000
,
00000100
00000010
00000100
00001100
,
00010000
00001000
01000000
00010000
,
00100000
00000000
00000000
00100000
00000000
00000000
00100000
00000000
00001000
00000000
00000000
00001000
00000000
00000000
00001000
00000000
,
00022000
00000000
00000000
00000000
00000000
00033000
00000000
00000000
,
00010000
00000000
00000100
00000000
00002000
00000000
00000000
00000010
,
00000000
00000000
00003100
00000000
00000002
00000000
00000000
00000100
,
00000000
00000013
00000100
00001000
,
00000010
00000000
00020000
00000000
00001000
00000000
00000000
00030100
,
00000000
00010000
00001000
02000000
,
00000000
00000000
00000000
00010000
00000000
00100000
00000000
03010000
,
00000000
00000000
00002000
00000000
00100000
00000000
00000000
00010000
,
00000000
00000000
00103000
00000000
00000000
00000000
00000000
00000000
00010000
00000000
00000000
00010000
00000000
00000000
00010000
00000000
,
00001000
00000000
00010000
00000000
00000010
00001000
00000001
00000000
,
00001000
00000000
00000100
00000000
00000010
00000001
00000010
00000100
,
00001000
00000000
00000100
00010000
00001000
00000000
00010000
00000000
,
00001000
00001000
01000000
00010000
01000000
00000000
00100000
00000000
,
10000000
01000000
10000000
00000000
00010000
00010000
00100000
00001000
,
00010000
00000000
00001000
00001000
00010000
00000100
00001000
00000000
,
00000001
00000000
00000100
00000010
00000100
00000000
00000001
00000000
,
00001000
00000100
00010000
00022000
,
00000000
00000000
00000000
00033000
,
00001000
00001000
00001000
00000000
00000000
00000000
00000000
00000000
,
00000000
00000000
00000000
00000000
,
00010000
00010000
00010000
00000000
00000000
00000000
00000000
00000000
,
00000000
00000000
00000000
00000000
,
00001000
00001000
00001000
00000000
00000000
00000000
00000000
00000000
,
00010000
00010000
00010000
00000000
00000000
00000000
00000000
00000000
,
00001000
00001000
00001000
00000000
00000000
00000000
00000000
00000000
,
00011000
00110000
02200000
03300000
,
00010000
10000000
01000000
00000000
00100000
00010000
10000000
00000000
,
00100000
00000000
01000000
00001000
00010000
00010000
00010000
00000000
,
00000100
00001000
00000010
00000000
00000100
00000001
00001000
00000000
,
00000001
00000000
00001000
00000010
00000100
00000100
00000100
00000000
,
00000001
00000000
00000010
00000000
00001000
00001000
00001000
00000000
,
00010000
00000000
00100000
00000000
10000000
10000000
10000000
00000000
,
10000000
00000000
01000000
00000000
00010000
00010000
00010000
00000000
,
00001000
00000000
00000100
00000000
00000001
00000001
00000001
00000000
,
00000010
00000100
00001000
00000000
00000010
00010000
00001000
00000000
,
01000000
00010000
00100000
00000000
01000000
10000000
01000000
00000000
,
00100000
00010000
01000000
00000000
00001000
00010000
00001000
00000000
,
00000100
00000010
00000100
00000000
00000001
00000010
00000001
00000000
,
00001000
00000010
00010000
00000000
00001000
01000000
00010000
00000000
,
10000000
01000000
00100000
00010000
01000000
00000000
00200000
00000000
,
00300000
00000000
01000000
00000000
,
00002000
00010000
00103000
00000000
,
00020000
00001000
00030010
00000000
,
00000020
00000100
00001030
00000000
,
00000001
00000100
00001000
00010000
,
01000000
00000000
10000000
00000000
00100000
00000000
01000000
00000000
00010000
00000000
00000000
00010000
00000000
00000000
00010000
00000000
,
10000000
01000000
00010000
00001000
,
00000100
00000000
00000001
00000010
00000000
00000110
00000000
00000000
,
00010000
00001000
00001000
00000000
00010000
00010000
00000000
00000000
,
00001000
00000000
00000000
00000000
00001000
00000000
01000000
00000000
00010000
00000000
00000000
00100000
00000000
00000000
01000000
00000000
,
10000000
00100000
00100000
00000000
01000000
01000000
00000000
00000000
,
00010000
00000000
00000000
00000000
00100000
00000000
00001000
00000000
00010000
00000000
00000000
00010000
00000000
00000000
00010000
00000000
,
00000100
00000000
00000000
00000000
00001000
00000000
00000000
00000000
00000001
00000000
00000000
00000001
00000000
00000000
00000001
00000000
,
00000010
00000001
00000100
00001000
00000000
00011000
00000000
00000000
,
00010000
00000000
00001000
00000000
01000000
00000000
00000000
00000000
01000000
00000000
00000000
00010000
00000000
00000000
00100000
00000000
,
00001000
00000000
00010000
00000000
00000100
00000000
00000000
00000000
00000100
00000000
00000000
00001000
00000000
00000000
00001010
00000000
,
00000000
00000000
00000000
00000000
;
#NOTES:
     dance-double:
     :
     Hard:
     14:
     :
00000000
00000000
00000000
00000000
,
00000000
00000000
00000000
00000000
,
00000000
00000000
00000000
00000000
,
00001000
00001000
00000000
00010000
00000100
00001000
00000010
00000000
,
00001000
00001000
00000000
00000001
00000010
00000100
00001000
00000000
,
00000010
00000010
00000000
00010000
00001000
00010000
00000200
00000000
,
00000310
00001000
00010000
01000000
10000000
00100000
01000000
00000000
,
00001000
00001000
00000000
00010000
00001000
00100000
00010000
00000000
,
01000000
01000000
00000000
00001000
00010000
00100000
01000000
00000000
,
00010000
00010000
00000000
00100000
00001000
00010000
02000000
00000000
,
13000000
00100000
00010000
00001000
00000100
00000010
00002000
00000000
,
00003001
00000001
00000000
00001000
00000100
00000010
00001000
00000000
,
00010000
00010000
00000000
00001000
00000100
00000001
00000010
00000000
,
00000100
00000000
00000000
00001000
00000000
00000000
00001010
00000000
00010000
00000000
00000000
00001000
00000000
00000000
00011000
00000000
,
01000000
00000000
00000000
00010000
00000000
00000000
00110000
00000000
00001000
00000000
00000000
00010000
00000000
00000000
00001000
00000000
,
00020000
00000000
00030010
00001000
00000200
00000010
00000000
00000301
,
00000100
00001000
00000010
00000000
00010000
00000000
00011000
00000000
,
00002000
00000000
01003000
00010000
00200000
01000000
00000000
10300000
,
00100000
00010000
01000000
00000000
00001000
00000000
00011000
00000000
,
00020000
00000000
00030100
00001000
00000020
00000001
00000000
00000130
,
00000010
00001000
00000100
00000000
00010000
00000000
00011000
00000000
,
00002000
00000000
01003000
00010000
00200000
01000000
00000000
10300000
,
00100000
00000000
00000000
00001000
00000000
00000000
00010000
00000000
00000100
00000000
00000000
00010000
00000000
00000000
00001000
00000000
,
00022000
00000000
00000000
00000000
00000000
00033000
00000000
00000000
,
00010000
00000000
00001000
00010000
00001000
00000000
00010000
00000000
00000100
00000000
00000010
00000000
00001000
00000000
00000010
00000000
,
00000100
00010000
00001000
00000100
00000001
00000100
00001000
00010000
,
00100000
01000000
00001000
00010000
01000000
10000000
00100000
00010000
,
00100000
01000000
00010000
00100000
10000000
00100000
00010000
00001000
,
00000100
00000000
00000010
00000001
00000000
00000001
00000100
00000000
00001000
00000000
00010000
00000000
00100000
00000000
00010000
00000000
,
00001000
00000000
00100000
00000000
00001000
00010000
00001000
00000000
00010000
00000000
01000000
00000000
00100000
00000000
00010000
00000000
,
01000000
00100000
00010000
00001000
00010000
01000000
00100000
00010000
,
00100000
00010000
00100000
00000000
00001000
00000000
00010000
00000000
01000000
00000000
00000000
10000000
00000000
00000000
00100000
00000000
,
01100000
00000000
00010000
10000000
10000000
00100000
01000000
00010000
,
00100000
00000000
00001000
00010000
00001000
00000000
00010000
00000000
00000100
00000000
00001000
00000000
00000010
00000000
00000100
00000000
,
00000001
00000010
00000000
00000100
00001000
00000000
00000010
00000000
00000100
00000000
00000001
00000000
00000000
00000000
00000010
00000000
,
00001000
00000000
00010000
00000000
00001000
00000000
01000000
00000000
00010000
00100000
00010000
00000000
00100000
00000000
01000000
00000000
,
10000000
00100000
00010000
00001000
00010000
00000100
00000010
00001000
,
00000010
00000001
00000100
00001000
00010000
00100000
01000000
00010000
,
10000000
00100000
00100000
00100000
01000000
00001000
00010000
00000100
,
00000020
00000000
00000031
00000100
00001000
00000000
00022000
00000000
,
00000000
00000000
00000000
00033000
,
00010000
01000000
00100000
00000000
00000000
00000000
00000000
00000000
,
00000000
00000000
00000000
00000000
,
00001000
00000100
00000010
00000000
00000000
00000000
00000000
00000000
,
00000000
00000000
00000000
00000000
,
00010000
00100000
01000000
00000000
00000000
00000000
00000000
00000000
,
00001000
00000010
00000100
00000000
00000000
00000000
00000000
00000000
,
00010000
00001000
00011000
00000000
00000000
00000000
00000000
00000000
,
00001000
00100000
00010000
00001000
00000100
00010000
00011000
00000000
,
00010000
00001000
00000100
00000010
00000000
00010000
00001000
00000010
,
00000100
00000000
00001000
00000100
00001000
00000000
00000010
00000000
00010000
00000000
00010000
00000000
00010000
00000000
00001000
00000000
,
00001000
00000100
00000100
00000100
00001000
00010000
00100000
01000000
,
01000000
00010000
00100000
00100000
00100000
01000000
00010000
00001000
,
00010000
00000000
00010000
00001000
00010000
00000000
00000100
00000000
00001000
00000000
00000010
00000000
00001000
00000001
00001000
00000001
,
00001000
00000100
00010000
00001000
00001000
00001000
00100000
00010000
,
01000000
00000000
00100000
00000000
10000000
00000000
00010000
00000000
00010000
00000000
00010000
00000000
00100000
00000000
01000000
10000000
,
01000000
10000000
01000000
00000000
00100000
00000000
00010000
00000000
00010000
00000000
00010000
00000000
00101000
00000000
00000000
00000000
,
00001000
00001000
00010000
00010000
00001000
00001000
00000100
00000100
,
00000001
00000001
00000010
00000010
00001000
00001000
00010000
00010000
,
00100000
00100000
01000000
01000000
00010000
00010000
00100000
00100000
,
01000000
01000000
10000000
10000000
01000000
01000000
00010000
00010000
,
00001000
00001000
00000010
00000010
00000001
00000001
00000100
00000100
,
00001000
00001000
00010000
00010000
00001000
00001000
00010000
00000000
,
00000200
00000320
00002030
02003000
,
03200000
00320000
00030200
00000320
,
00002030
02003000
03200000
00320000
,
00030200
00000320
00002030
00023000
,
00031000
00100000
00001000
00100000
00010000
01000000
00010000
01000000
,
00100000
00000000
10000000
00000000
01000000
00000000
00010000
00000000
00001000
00000000
00000000
00000010
00000000
00000000
00000001
00000000
,
00000010
00000100
00001000
00000010
00010000
00001000
00000100
00001000
,
00010000
00000000
00000000
00001000
00000000
00010000
00001000
00010000
00000000
00000000
00011000
00000000
00000000
00000000
00000000
00000000
,
00010000
01000000
01000000
10000000
00010000
00010000
01000000
00100000
,
10000000
00000000
01000000
00100000
01000000
00000000
00010000
00000000
00001000
00000000
00000000
00000100
00000000
00000000
00000110
00000000
,
00000001
00001000
00001000
00000010
00000100
00000100
00000001
00001000
,
00000100
00000000
00000010
00000100
00000010
00000000
00001000
00000000
00010000
00000000
00000000
00100000
00000000
00000000
01100000
00000000
,
00010000
00000000
00010000
00000000
00010000
00000000
00100000
00000000
00110000
00000000
00000000
01100000
00000000
00000000
11000000
00000000
,
00010000
00000000
00000000
01000000
00000000
00001000
00010000
00001000
00000000
00000000
00011000
00000000
00000000
00000000
00000000
00000000
,
00001000
00000000
00000010
00000000
00000001
00000000
00000000
00000000
00001001
00000000
00000000
00011000
00000000
00000000
10010000
00000000
,
00000000
00000000
00000000
00000000
01000000
00000000
00000000
00000000
01100000
00000000
00000000
00011000
00000000
00000000
00000110
00000000
,
00000000
00000000
00000000
00000000
;
#NOTES:
     dance-double:
     :
     Challenge:
     17:
     :
00000000
00000000
00000000
00000000
,
00000000
00000000
00000000
00000000
,
00000000
00000000
00000000
00000000
,
00001000
00000000
00010000
00001000
00010000
00000000
00000100
00000000
00000010
00000000
00001000
00000000
00010000
00000000
00000000
00000000
,
00001000
00000000
00010000
00001000
00010000
00000000
00001000
00000000
01000000
00000000
00100000
00000000
00010000
00000000
00000000
00000000
,
00001000
00000000
00010000
00001000
00010000
00000000
00000100
00000000
00000010
00000000
00000001
00000000
00001001
00000000
00000000
00000000
,
00000001
00001000
00000001
00001000
00000001
00000000
00000100
00000000
00001000
00000000
00010000
00000000
01000000
00000000
00000000
00000000
,
10000000
00000000
01000000
00100000
00010000
00000000
01000000
00000000
00100000
00000000
00010000
00000000
00001000
00000000
00000000
00000000
,
00000010
00000000
00000001
00000010
00000100
00000000
00001000
00000000
00000100
00000000
00010000
00000000
00001000
00000000
00000000
00000000
,
00000100
00000000
00000010
00001000
00000010
00000000
00010000
00000000
00001000
00000000
00010000
00000000
02000000
00000000
00000000
00000000
,
13000000
01000000
10000000
01000000
10000000
00000000
01000000
00000000
00010000
00000000
00001000
00000000
00000010
00000000
00000000
00000000
,
00000001
00000000
00000010
00000100
00001000
00000000
00000010
00000000
00010000
00000000
00001000
00000000
00011000
00000000
00000000
00000000
,
00001000
00000000
01000000
00010000
00100000
00000000
10000000
00000000
00100000
00000000
00010000
00000000
00110000
00000000
00000000
00000000
,
11000000
00000000
00000000
00100000
00000000
00000000
00001000
00000000
00011000
00000000
00000000
00000010
00000000
00000000
00000100
00000000
,
00001010
00000000
00000000
00010010
00000000
00000000
00011000
00000000
01001000
00000000
00000000
01100000
00000000
00000000
10010000
00000000
,
00020000
00130000
01000000
10000000
00100000
00020000
00031000
00200000
,
00320000
00031000
00000100
00010000
00001000
00000100
00000001
00000001
,
00000020
00000130
00001000
00000001
00000100
00002000
00013000
00000200
,
00020300
01030000
00100000
00001000
00010000
00100000
20000000
00000000
,
32000000
03100000
00010000
01000000
00100000
00020000
00032000
00203000
,
00302000
00003010
00000100
00010000
00001000
00000100
00000001
00000002
,
00000023
00000130
00001000
00000010
00010000
00002000
01003000
00010000
,
00100000
00000000
00000000
00001000
00000000
00000000
00010000
00000000
00000100
00000000
00000000
00001000
00000000
00000000
00000001
00000000
,
00002002
00000000
00000000
00000000
00003003
00000110
00000000
00000000
,
00000001
00000000
00000000
00000100
00000000
00000001
00000010
00000100
00001000
00000000
00000100
00010000
00001000
00010000
00001000
00000000
,
01000000
00010000
01000000
00010000
01000000
00000000
00010000
10000000
01000000
10000000
01000000
00100000
00010000
00000000
00100000
00000000
,
00001000
00010000
00001000
00010000
00000100
00000000
00001000
00000100
00000010
00000001
00001000
00000001
00001000
00000010
00001000
00000010
,
00010000
00001000
00010000
00001000
00010000
00001000
00010000
00001000
01000000
00000000
00010000
01000000
00010000
01000000
00010000
00000000
,
10000000
00000000
00000000
00000000
00000000
00000000
00000000
00000000
00100000
00000000
00000000
00000000
02000000
03000000
00000000
00000000
00000000
00000000
00000000
00000000
02000000
03000000
00000000
00000000
10000000
00000000
00000000
00000000
00010000
00000000
00000000
00000000
00100000
00000000
00000000
00000000
00001000
00000000
00000000
00000000
00010000
00000000
00000000
00000000
00100000
00000000
00000000
00000000
00010000
00000000
00000000
00000000
00001000
00000000
00000000
00000000
00010000
00000000
00000000
00000000
00000010
00000000
00000000
00000000
,
00010000
00000100
00000010
00000001
00000100
00001000
00010000
01000000
,
10000000
01000000
10000000
01000000
00100000
00010000
10000000
00010000
01000000
00100000
10000000
00010000
00100000
01000000
10000000
00000000
,
01000000
01000000
01000000
00000000
00010000
00001000
00010000
00001000
00010000
00000000
00000000
00001000
00000000
00000000
00000010
00000000
,
00001001
00000000
00000000
00000000
00001000
00000000
00000100
00000100
00000100
00000000
00010000
00000000
00001000
00000000
00100000
00000000
,
00010000
00000000
01000000
01000000
01000000
00000000
00010000
10000000
00010000
10000000
00010000
00000000
01000000
00000000
00001000
00000000
,
00010000
00000000
00000000
00000000
00002000
00003000
00000000
00000000
00000000
00000000
00000000
00000000
00002000
00003000
00000000
00000000
00000100
00000000
00000000
00000000
00000000
00000000
00000000
00000000
00000010
00000000
00000000
00000000
00000000
00000000
00000000
00000000
00000100
00000000
00000000
00000000
00000000
00000000
00000000
00000000
00001100
00000000
00000000
00000000
00000000
00000000
00000000
00000000
00000000
00000000
00000000
00000000
00000000
00000000
00000000
00000000
00010000
00000000
00000000
00000000
00000000
00000000
00000000
00000000
,
00001000
00010000
00001000
00010000
00001000
00010000
00001000
00000000
01000000
00010000
00100000
00000000
00010000
00000000
01000000
00000000
,
00001000
00000000
00010000
00000000
00001000
00000000
00010000
00001000
00100000
00010000
00100000
00001000
00010000
00001000
00010000
00000010
,
00001000
00000010
00010000
00001000
00010000
00001000
00100000
00010000
00100000
00001000
00010000
00001000
00010000
00000000
00001000
00000000
,
00010000
00000000
00001000
00000010
00001000
00000010
00000001
00000000
00000001
00000000
00000100
00000000
00001000
00000000
00010000
00000000
,
00000200
00000000
00010000
00010000
00010000
00000000
00002300
00000000
,
00000000
00000000
00000000
00003010
,
00001000
00000000
00001000
00001000
00001000
00000000
00010000
00000000
00000010
00000000
00010000
00000000
00001000
00000000
00010000
00000000
,
00100000
10000000
01000000
00010000
00001000
00000100
00000001
00001000
,
00000100
00000100
00000100
00000000
00000100
00000000
00000001
00000000
00001000
00000000
00000010
00000000
00001000
00000000
00000001
00000000
,
00000100
00001000
00010000
01000000
10000000
00100000
01000000
00001000
,
00010000
00010000
00010000
00001000
00100000
00001000
00010000
00100000
,
01000000
01000000
01000000
01000000
01000000
00000000
00100000
00000000
00010000
00000000
00001000
00000000
00010000
00000000
00000010
00000000
,
00001000
00001000
00001000
00000010
00010000
00001000
00100000
00001000
,
00010000
00000000
00010000
00010000
00010000
00000000
00010000
00010000
00010000
00000000
00001000
00001000
00001000
00000000
00000000
00000000
,
00010000
00010000
00001000
00001000
00000000
00010000
00001000
00010000
,
00001000
00000000
00001000
00001000
00001000
00000000
00010000
00000000
00010000
00000000
00001000
00000000
00010000
00000000
00001000
00001000
,
00001000
00000000
00010000
00000000
00001000
00000000
00010000
00000000
00001000
00000000
00010000
00000000
00001000
00000000
00000000
00001000
,
00001000
00010000
00001000
00010000
00001000
00001000
00010000
00010000
,
00001000
00001000
00001000
00001000
00001000
00000000
00001000
00000000
00010000
00000000
00010000
00000000
00010000
00010000
00010000
00010000
,
00010000
00000000
00010000
00000000
00001000
00000000
00001000
00001000
00001000
00001000
00001000
00000000
00000000
00000000
00010000
00000000
,
00001000
00000000
00010000
00000000
00001000
00000000
00010000
00010000
00010000
00010000
00010000
00000000
00001000
00000000
00010000
00010000
,
00010000
00010000
00010000
00000000
00010000
00000000
00001000
00001000
00001000
00001000
00001000
00000000
00011000
00000000
00001000
00000000
,
00010000
00001000
00010000
00001000
00010000
00000000
00000100
00001000
00000100
00001000
00000100
00000000
00000010
00000001
00001000
00000000
,
00000001
00000000
00000010
00000100
00001000
00000000
00000100
00001000
00000100
00010000
00001000
00010000
00000010
00001000
00000010
00000000
,
00010000
00001000
00010000
00001000
00100000
00010000
00100000
00000000
01000000
00000000
10000000
00010000
10000000
00010000
01000000
00000000
,
00001000
00010000
00000000
00001000
00000000
00010000
00001000
00010000
00000010
00001000
00000001
00001000
00000001
00000010
00000100
00000000
,
00010000
00000000
00001000
00010000
00001000
00010000
00001000
01000000
00010000
01000000
00010000
10000000
00010000
00100000
01000000
00000000
,
10000000
01000000
10000000
00100000
01000000
00010000
00100000
00001000
00010000
00000100
00001000
00000001
00000020
00000000
00000000
00000000
,
00000031
00000000
00000000
00000000
00001000
00000000
00000000
00000000
00000010
00000000
00000000
00001000
00000000
00000000
00000100
00000000
,
00010000
00000000
00000000
00000000
00001000
00000000
00000000
00000000
00000100
00000000
00000000
00000001
00000000
00000000
00000010
00000000
,
00000100
00000000
00000000
00000000
00010000
00000000
00000000
00000000
00001000
00000000
00000000
00100000
00000000
00000000
01000000
00000000
,
10000000
00000000
00000000
00000000
00010000
00000000
00000000
00000000
01000000
00000000
00000000
00001000
00100000
00000000
00001000
00000000
,
00010000
00001000
00010000
00001000
00000010
00000001
00000010
00000001
,
00000010
00000100
00001000
00000100
00001000
00000000
00000010
00000000
00011000
00000000
00000000
01000000
00000000
00000000
01100000
00000000
,
00001000
00010000
00001000
00010000
00100000
10000000
00100000
10000000
,
00010000
00000000
00000000
00000000
00000000
00000000
00000000
00000000
00000000
00000000
00000000
00000000
02000000
03000000
00000000
00000000
00000000
00000000
00000000
00000000
02000000
03000000
00000000
00000000
10000000
00000000
00000000
00000000
00100000
00000000
00000000
00000000
00000000
00000000
00000000
00000000
00000000
00000000
00000000
00000000
10010000
00000000
00000000
00000000
00000000
00000000
00000000
00000000
00000000
00000000
00000000
00000000
00000000
00000000
00000000
00000000
00000000
00000000
00000000
00000000
00000000
00000000
00000000
00000000
,
10000000
00100000
00010000
00001000
00000010
00000001
00000100
00001000
,
00010000
00000000
00001000
00010000
00001000
00100000
00010000
00100000
00000000
10000000
00000000
00100000
00010000
00100000
01000000
10000000
,
00010000
01000000
00100000
00010000
00001000
00000100
00000010
00010000
,
00001000
00000000
00010000
00001000
00000010
00000000
00000001
00000000
00001001
00000000
00000000
00000110
00000000
00000000
00001001
00000000
,
00001000
00000010
00001000
00000010
00001000
00000000
00000001
00000000
00000010
00000000
00000000
00000100
00000000
00000000
00010000
00000000
,
00011000
00000000
00000000
00001000
00000000
00010000
00100000
10000000
00000000
00000000
10010000
00000000
00000000
00000000
00000000
00000000
,
00010000
00000000
10000000
01000000
00100000
00010000
10000000
00100000
01000000
00000000
00000000
00001000
00000000
00000000
00011000
00000000
,
00010000
00000000
00001000
00000010
00000001
00000000
00000001
00000000
00000100
00001000
00000000
00010000
00100000
00000000
10000000
00000000
,
00000000
00000000
00000000
00000000
;
