
//----- song ID: reci -----//
#TITLE:レシピのリドル;
#ARTIST:音戯探偵ひなビタ♫;
#TITLETRANSLIT:Recipe no riddle;
#ARTISTTRANSLIT:Otogi tantei HinaBitter;
#BANNER:Recipe no riddle.png;
#BACKGROUND:Recipe no riddle-bg.png;
#CDTITLE:./CDTitles/DDR WORLD.png;
#MUSIC:Recipe no riddle.ogg;
#SAMPLESTART:59.756;
#SAMPLELENGTH:15;
#BPMS:0=245;
#BGSTAGE:;
#NOTES:
     dance-single:
     :
     Beginner:
     3:
     :
0000
0000
0000
0000
,
0000
0000
0000
0000
,
0000
0000
0000
0000
,
0000
0000
0000
0000
,
0000
0000
0000
0000
,
0000
0000
0000
0000
,
0001
0000
0000
0000
,
0001
0000
0000
0000
,
0010
0000
0000
0000
,
0000
0000
0000
0000
,
1001
0000
0000
0000
,
0000
0000
0000
0000
,
1001
0000
0000
0000
,
0000
0000
0000
0000
,
1001
0000
0000
0000
,
0000
0000
0000
0000
,
1000
0000
1000
0000
,
1000
0000
0000
0000
,
1000
0000
0000
0000
,
1000
0000
0000
0000
,
0010
0000
0000
0000
,
0000
0000
0000
0000
,
0010
0000
0000
0000
,
0010
0000
0000
0000
,
0001
0000
0000
0000
,
0000
0000
0000
0000
,
1001
0000
0000
0000
,
0000
0000
0000
0000
,
0001
0000
0000
0000
,
0001
0000
0000
0000
,
0010
0000
0000
0000
,
0000
0000
0000
0000
,
0010
0000
0000
0000
,
0010
0000
0000
0000
,
1000
0000
0000
0000
,
0000
0000
0000
0000
,
0100
0000
0000
0000
,
0000
0000
0000
0000
,
0010
0000
0000
0000
,
0000
0000
0000
0000
,
0001
0000
0000
0000
,
0000
0000
0000
0000
,
0002
0000
0000
0000
,
0003
0000
0000
0000
,
0001
0000
0000
0000
,
0010
0000
0000
0000
,
0020
0000
0000
0000
,
0030
0000
0000
0000
,
0010
0000
0000
0000
,
1000
0000
0000
0000
,
1000
0000
0000
0000
,
0000
0000
0000
0000
,
1001
0000
0000
0000
,
0000
0000
0000
0000
,
0001
0000
0001
0000
,
0010
0000
0000
0000
,
0010
0000
0010
0000
,
1000
0000
0000
0000
,
0000
0000
0000
0000
,
1001
0000
0000
0000
,
0000
0000
0000
0000
,
1000
0000
1000
0000
,
0100
0000
0000
0000
,
0010
0000
0000
0000
,
0000
0000
0000
0000
,
0001
0000
0001
0000
,
0100
0000
0000
0000
,
0010
0000
0000
0000
,
0000
0000
0000
0000
,
2000
0000
0000
0000
,
3000
0000
0000
0000
,
0020
0000
0000
0000
,
0030
0000
0000
0000
,
0002
0000
0000
0000
,
0003
0000
0000
0000
,
1001
0000
0000
0000
,
0000
0000
0000
0000
,
0001
0000
0001
0000
,
0010
0000
0000
0000
,
0100
0000
0000
0000
,
0000
0000
0000
0000
,
1000
0000
1000
0000
,
0010
0000
0000
0000
,
0100
0000
0000
0000
,
0000
0000
0000
0000
,
0002
0000
0000
0000
,
0003
0000
0000
0000
,
0200
0000
0000
0000
,
0300
0000
0000
0000
,
2000
0000
0000
0000
,
3000
0000
0000
0000
,
1001
0000
0000
0000
,
0000
0000
0000
0000
,
1000
0000
0000
0000
,
0010
0000
0000
0000
,
0001
0000
0000
0000
,
0000
0000
0000
0000
,
0001
0000
0000
0000
,
0010
0000
0000
0000
,
1000
0000
0000
0000
,
0000
0000
0000
0000
,
1000
0000
0000
0000
,
0100
0000
0000
0000
,
0001
0000
0000
0000
,
0000
0000
0000
0000
,
0001
0000
0000
0000
,
0100
0000
0000
0000
,
1000
0000
0000
0000
,
0000
0000
0000
0000
,
0010
0000
0000
0000
,
0000
0000
0000
0000
,
0100
0000
0000
0000
,
0000
0000
0000
0000
,
0001
0000
0000
0000
,
0000
0000
0000
0000
,
1001
0000
0000
0000
,
0000
0000
0000
0000
,
1001
0000
0000
0000
,
0000
0000
0000
0000
,
0001
0000
0001
0000
,
0010
0000
0000
0000
,
0020
0000
0000
0000
,
0030
0000
0000
0000
,
0010
0000
0010
0000
,
1000
0000
0000
0000
,
2000
0000
0000
0000
,
3000
0000
0000
0000
,
0000
0000
0000
0000
,
1001
0000
0000
0000
,
0000
0000
0000
0000
,
1001
0000
0000
0000
,
0000
0000
0000
0000
,
0000
0000
0000
0000
,
0000
0000
0000
0000
,
1001
0000
0000
0000
,
0000
0000
0000
0000
;
#NOTES:
     dance-single:
     :
     Easy:
     8:
     :
0000
0000
0000
0000
,
0000
0000
0000
0000
,
0000
0000
0000
0000
,
0000
0000
0000
0000
,
0000
0000
0000
0000
,
0000
0000
0000
0000
,
0001
0000
0001
0000
,
1000
0000
1000
0000
,
0010
0100
0010
0000
,
0100
0000
0100
0000
,
0110
0000
0000
0000
,
0000
0000
0000
0000
,
1001
0000
0000
0000
,
0000
0000
0000
0000
,
0110
0000
0000
0000
,
0000
0000
0000
0000
,
1001
0000
0000
0000
,
0000
0000
0000
0000
,
0001
1000
0001
0000
,
0100
0000
0010
0000
,
1000
0001
1000
0000
,
0100
0000
0010
0000
,
0002
0000
0000
0000
,
0003
0000
0000
0000
,
2000
0000
0000
0000
,
3000
0000
0000
0000
,
0001
0100
0001
0000
,
1000
0000
0010
0000
,
1000
0100
1000
0000
,
0001
0000
0010
0000
,
0001
1000
0001
0000
,
1000
0000
0010
0000
,
0200
0000
0000
0000
,
0310
0010
0000
0000
,
1000
0000
0010
0000
,
0100
0001
0100
0000
,
0001
0000
0010
0000
,
0100
1000
0100
0000
,
1000
0000
0001
0000
,
0100
0000
0010
0000
,
1001
0000
0000
0000
,
0000
0000
0000
0000
,
2000
0000
0000
0000
,
3000
0000
0000
0000
,
0020
0000
0000
0000
,
0030
0000
0000
0000
,
0200
0000
0000
0000
,
0300
0000
0000
0000
,
0002
0000
0000
0000
,
0003
0000
0000
0000
,
1001
0000
0000
0000
,
0000
0000
0000
0000
,
0110
0000
0000
0000
,
0000
0000
0000
0000
,
1000
0010
1000
0000
,
0001
0100
0001
0000
,
1000
0000
0001
0000
,
1001
0000
0000
0000
,
0000
0000
0000
0000
,
0010
0000
0000
0000
,
0100
0000
0000
0000
,
0110
0000
0000
0000
,
1001
0000
0000
0000
,
1000
0000
0010
0000
,
0100
0000
0000
0000
,
0110
0000
0000
0000
,
1001
0000
0000
0000
,
0001
0000
0010
0000
,
0100
0000
0000
0000
,
2000
0000
0000
0000
,
3000
0000
0000
0000
,
0002
0000
0000
0000
,
0003
0000
0000
0000
,
0200
0000
0000
0000
,
0300
0000
0000
0000
,
0010
0000
0010
0000
,
0010
0000
0000
0000
,
1000
0001
1000
0000
,
0100
0000
0100
0000
,
1000
0001
1000
0000
,
0010
0000
0100
0000
,
0001
1000
0001
0000
,
0010
0000
0010
0000
,
0001
1000
0001
0000
,
0100
0000
0000
0000
,
0002
0000
0000
0000
,
0003
0000
0000
0000
,
0020
0000
0000
0000
,
0030
0000
0000
0000
,
0200
0000
0000
0000
,
0300
0000
0000
0000
,
2000
0000
0000
0000
,
3000
0000
0000
0000
,
0001
0001
0000
0000
,
1000
1000
0000
0000
,
0010
0010
0000
0000
,
0100
0100
0000
0000
,
0001
0000
1000
0000
,
0001
1000
0001
0000
,
0100
0000
0010
0000
,
0100
0010
0100
0000
,
0001
0010
0100
0000
,
1000
0000
0000
0000
,
1000
0010
0100
0000
,
0001
0000
0000
0000
,
1000
0000
1000
0000
,
0001
0000
0001
0000
,
2002
0000
0000
0000
,
3003
0000
0000
0000
,
0220
0000
0000
0000
,
0330
0000
0000
0000
,
1000
0000
0100
0000
,
0001
0000
0000
0000
,
0100
0000
0000
0000
,
1000
0000
0000
0000
,
1000
0001
1000
0000
,
0001
0000
0010
0000
,
0100
0010
0100
0000
,
0010
0000
0000
0000
,
0001
0000
0001
0100
,
0010
0000
0000
0000
,
1000
0000
1000
0100
,
0010
0000
0000
0000
,
0001
0010
0100
0000
,
2000
0000
0000
0000
,
0000
0000
0000
0000
,
3000
0000
0000
0000
,
0002
0000
0000
0000
,
1003
0000
1000
0000
,
0010
0010
0010
0000
,
0100
0000
0001
0000
,
0010
0010
0010
0000
,
0000
0000
0000
0000
,
0000
0000
0000
0000
,
1001
0000
0000
0000
,
0000
0000
0000
0000
;
#NOTES:
     dance-single:
     :
     Medium:
     10:
     :
0000
0000
0000
0000
,
0000
0000
0000
0000
,
0000
0000
0000
0000
,
0000
0000
0000
0000
,
0000
0000
0000
0000
,
0000
0000
0000
0000
,
0001
1000
0001
1000
,
0100
0000
0010
0000
0000
0100
0000
0000
0010
0000
0000
0000
,
0000
0000
0110
0000
0000
0000
1000
0000
0000
0001
0000
0000
,
1000
0000
0000
0010
0000
0000
0100
0000
0001
0000
0000
0000
,
1000
0000
0000
0000
,
0000
0000
0000
0000
,
0001
0000
0000
0000
,
0000
0000
0000
0000
,
0010
0000
0000
0000
,
0100
0000
0010
0000
0000
0100
0000
0000
0010
0000
0000
0000
,
0200
0000
0000
0000
,
0300
0000
0000
0000
,
1000
0100
0001
0100
,
1000
0100
0010
0000
,
0001
0100
1000
0100
,
0001
0100
0010
0000
,
1010
0000
0000
0000
,
1000
0000
0000
0001
0000
0100
0000
0000
0001
0000
0000
0000
,
0011
0000
0000
0000
,
0001
1000
0000
0000
,
0001
0100
0010
1000
,
0001
0000
1000
0000
0000
0001
0000
0000
0000
1001
0000
0000
,
0000
0000
0000
1000
0000
0000
0100
0000
0000
0010
0000
0001
,
0000
0000
1000
0001
0000
0000
0100
0000
0000
0010
0000
0000
,
0000
1000
0010
0100
,
0001
0000
1000
0000
0000
0001
0000
0000
0000
1000
0000
0000
,
0200
0000
0010
0000
,
0310
0110
0000
0000
,
0001
0010
1000
0010
,
0001
0000
0000
0000
0000
0001
0000
0000
0000
0000
0000
0000
,
1000
0010
0001
0010
,
1000
0000
0000
0000
0000
1000
0000
0000
0000
0000
0000
0000
,
0001
0000
0100
0000
0000
0000
1000
0000
0000
0100
0000
0000
,
0001
0000
1000
0000
,
0100
0000
0000
0000
0000
0100
0000
0000
0000
0100
0000
0000
,
0000
0000
0000
0000
,
1000
0000
0000
0100
0000
0000
0010
0000
0001
0000
0000
1000
,
0002
0000
0000
0003
,
0001
0000
0000
0100
0000
0000
0010
0000
1000
0000
0000
0001
,
2000
0000
0000
3000
,
0001
0000
0000
0010
0000
0000
0100
0000
1000
0000
0000
0001
,
2000
0000
0000
3000
,
0001
0000
0000
0000
0000
1000
0000
0000
0000
0002
0000
0000
,
0000
0000
0000
0003
,
1001
0000
0000
0000
,
0000
0000
0000
0000
,
0110
0000
0000
0000
,
0000
0000
0000
0000
,
0001
0100
1000
0100
,
0001
0010
1000
0010
,
0001
0000
1000
0000
0000
0001
0000
0000
1000
0001
0000
0000
,
2000
0000
0000
0000
,
0000
0000
0000
0000
,
3001
0000
0000
0000
0000
0001
0000
0000
0000
1000
0000
0000
,
1000
0000
0000
0000
,
0001
0000
0000
0000
0000
0000
0100
0000
0000
0000
0000
0110
,
0000
0010
1000
0010
,
0001
0000
0000
0000
0000
0000
0010
0000
0000
0000
0000
1010
,
0000
1000
0001
0100
,
0000
0001
0010
1000
,
0010
0000
0000
0001
0000
1000
0000
0000
0100
0000
0000
0000
,
0010
0000
0000
0000
0001
1000
,
0002
0000
1003
0000
,
0002
0000
0010
0000
,
1000
0000
0103
0000
,
2000
0000
0010
0000
,
0001
0000
3100
0000
,
1100
0000
0000
0011
,
0000
0000
0101
0000
,
2010
0000
0100
0000
,
3001
0001
0000
0000
,
1000
0000
0000
0000
0000
0000
0010
0000
0000
0000
0000
0110
,
0000
0100
0001
0100
,
1000
0000
0000
0000
0000
0000
0100
0000
0000
0000
0000
0101
,
0000
0001
1000
0010
,
0000
1000
0100
0001
,
0100
0000
0000
1000
0000
0001
0000
0000
0010
0000
0000
0000
,
0100
0000
0000
0000
0000
0000
1000
0000
0000
0000
0000
1001
,
0000
0001
1000
0001
,
2000
0000
0100
0000
,
0001
0000
3010
0000
,
0002
0000
0100
0000
,
1000
0000
0013
0000
,
0011
0000
0001
0000
,
1100
0000
1000
0000
,
2002
0000
0000
0000
,
3003
0000
0000
0000
,
1000
0100
1000
0000
,
0001
0100
0001
0000
,
1000
0010
1000
0001
,
0010
0001
0010
0000
,
0001
0010
1000
0000
,
0010
0000
0001
0000
,
1000
0100
0001
0000
,
0100
0000
1000
0000
,
0001
0100
0001
0100
,
0010
1000
0010
0000
,
1000
0100
1000
0100
,
0010
0001
0010
0000
,
0001
0000
1000
0000
0000
0000
0010
0000
0000
0100
0000
0000
,
0002
0000
0000
0000
,
1003
0000
0000
0000
,
1010
0000
0000
0000
,
0001
0000
0000
0000
,
0101
0000
0000
0000
,
1000
0000
0000
0000
,
1100
0000
0000
0000
,
0001
0000
0000
0000
0000
0000
0000
0000
0000
0000
0000
1001
,
0000
0000
0000
0000
,
1000
0010
0100
0001
,
1000
0000
0000
0010
0000
0000
0100
0000
0001
0000
0000
0000
,
1000
0000
0000
0000
0000
0000
0100
0000
0000
0000
0000
0110
,
0000
0000
0000
0001
,
0010
0100
0010
0100
,
2000
0000
3002
0000
,
1003
0010
0100
0010
,
0200
0000
0302
0000
,
1003
0100
0010
0001
,
2000
0000
0010
0000
,
0001
0000
0100
0000
,
3020
0000
0000
0000
,
0001
0000
0000
0000
,
1030
0000
1010
0000
,
1000
0100
0010
0000
,
0001
0000
0011
0000
,
0001
0100
0010
0000
,
0000
0000
0000
0000
,
0000
0000
0000
0000
0000
0000
1000
0000
0000
0000
0000
1001
,
0000
0000
0000
0000
;
#NOTES:
     dance-single:
     :
     Hard:
     14:
     :
0000
0000
0000
0000
,
0000
0000
0000
0000
,
0000
0000
0000
0000
,
0000
0000
0000
0000
,
0000
0000
0000
0000
,
0000
0000
0000
0000
,
0001
0010
1000
0010
,
0001
0000
1000
0000
0000
0001
0000
0000
1000
0001
0000
0000
,
0000
0000
1001
0000
0000
0000
1000
0000
0000
0100
0000
0000
,
0010
0000
0000
0001
0000
0000
1000
0000
0001
0000
0000
0000
,
1001
0000
0000
0000
,
0000
1000
1000
1000
,
0110
0000
0000
0000
0000
0000
0000
0000
0000
0000
0000
0001
,
0000
0000
0010
0001
0000
0010
0100
0000
1000
0100
0000
0000
,
1001
0000
0000
0000
,
0001
0000
0010
0000
0000
1000
0000
0000
0010
0001
0000
0000
,
0012
0000
0100
0000
,
1003
1000
0100
0010
,
0001
0000
0000
0100
0000
0010
0000
0000
1000
0100
0000
0010
,
0000
0000
0001
0010
0000
0000
0100
0000
0000
1100
0000
0000
,
1000
0000
0000
0001
0000
0100
0000
0000
1000
0100
0000
0001
,
0000
0000
0000
1000
0000
0000
0010
0000
0100
0010
0000
0000
,
0110
0000
0000
0000
,
1000
0000
0010
0100
0000
0001
0000
0000
1000
0001
0000
0000
,
1001
0000
0000
0000
,
1001
0110
0000
0000
,
0001
0010
1000
0010
,
0001
0000
1000
0001
0000
1000
0010
0000
0100
0010
0000
0000
,
1000
0000
0000
0100
0000
0000
0001
0000
0000
0100
0000
1000
,
0000
0000
0001
1000
0000
0100
1000
0000
0100
0010
0000
0000
,
0001
0010
0100
1000
,
0001
0000
0100
0000
0000
1000
0000
0000
0100
0001
0000
0000
,
2000
0000
0010
0000
,
3100
0110
0000
0000
,
0001
0010
0100
1000
,
0001
0000
0100
0010
0000
0100
0000
0000
0010
1000
0000
0000
,
0100
0010
0001
0010
,
0100
0000
1000
0001
0000
1000
0000
0000
0010
0100
0000
0000
,
0001
0000
0010
0000
0000
0000
0011
0000
0000
1100
0000
0000
,
1001
0000
0110
0000
,
1000
0000
0000
0000
0000
0001
0000
0000
0000
1001
0000
0000
,
0000
0000
0000
0000
,
1000
0000
0000
0100
0000
0000
1000
0000
0100
0000
0000
1000
,
0100
0000
0100
1000
0000
0100
0000
0000
1100
0000
0000
0000
,
0001
0000
0000
0100
0000
0000
0001
0000
0100
0000
0000
0001
,
0100
0000
0000
0001
0000
0100
0000
0000
0101
0000
0000
0000
,
1000
0000
0000
0010
0000
0000
1000
0000
0010
0000
0000
1000
,
0010
0001
0010
1000
,
0001
0000
0000
0000
0000
0011
0000
0000
0000
1001
0000
0000
,
1000
0000
0100
0010
0000
0000
0001
0000
0100
0010
0000
0000
,
1010
0000
0000
0000
,
1000
0000
1000
0000
0000
0001
0000
0000
0100
0010
0000
0000
,
0110
0000
0000
0000
,
0001
0000
0001
0000
0000
1000
0000
0000
0100
0010
0000
0000
,
0110
0100
1100
1000
,
1001
0001
0101
0100
,
0110
0000
0010
0000
0000
1000
0000
0000
0001
1000
0000
0000
,
1001
0100
1001
0100
,
1001
0100
1001
0100
,
1001
0000
0000
0000
0000
0011
0000
0000
0000
1100
0000
0000
,
1001
0000
0000
0000
,
1000
0010
0001
0010
,
1000
0000
0000
0100
0000
0000
0010
0000
0001
0010
0000
0000
,
0001
0010
1000
0010
,
0001
0000
0000
0100
0000
0000
0010
0000
1000
0010
0000
0000
,
1000
1100
0001
0101
,
1000
1010
0001
0011
,
1000
0000
0000
0100
0000
0000
0010
0000
0001
0000
1000
0000
,
0020
0000
0230
0000
,
0301
0000
1000
0000
0000
0000
1010
0000
0000
0110
0000
0000
,
0101
0000
0000
1001
0000
0000
1000
0000
0001
0000
0000
0000
,
0010
0000
0100
0000
0000
0000
1100
0000
0000
1001
0000
0000
,
0101
0000
0000
0110
0000
0000
0010
0000
1000
0000
0000
0000
,
0001
0000
0100
0000
0000
1000
0100
0000
0001
0010
0000
1000
,
0000
0000
0010
0001
0000
1000
0100
0000
0010
0001
0000
0000
,
2000
0010
0000
0100
,
3001
1001
0000
1000
,
0001
0000
0010
0100
0000
0000
1000
0000
0010
0100
0000
0001
,
0000
0000
0001
1000
0000
0000
1010
0000
0000
0101
0000
0000
,
1000
0000
0010
0100
0000
0000
0001
0000
0010
0100
0000
1000
,
0000
0000
1000
0001
0000
0000
0011
0000
0000
1100
0000
0000
,
0000
0000
0000
1000
0000
0010
0001
0000
0010
1000
0000
0010
,
0001
0000
0010
1000
0000
0001
0000
0000
0100
0010
0000
0000
,
1010
0000
0000
1000
0000
0000
0101
0000
0001
1000
0000
1001
,
0000
0000
1000
0001
0000
0010
0001
0000
0010
0100
0000
0000
,
1000
0000
0100
0000
0000
0001
0100
0000
1000
0100
0000
0010
,
0001
0000
0000
0010
0000
0000
0100
0000
1000
0000
0000
0000
,
0001
0000
0100
0010
0000
0000
1000
0000
0001
1000
0000
0001
,
0000
0000
0001
1000
0000
0000
0010
0000
0000
0100
0000
0000
,
0001
0010
0100
1000
,
1100
0000
0011
0000
,
2002
0000
0000
0000
,
3003
0000
0000
0000
,
1000
0000
0000
0100
0000
0000
0001
0000
0000
0100
0000
1000
,
0000
0000
0001
0100
0000
0010
0100
0000
0010
1000
0000
0001
,
1000
0000
0100
0000
0000
0110
0000
0000
0010
0001
0000
0010
,
0001
0000
0000
1000
0000
0100
0000
0000
0110
0000
0000
0001
,
1000
0000
0000
0100
0000
0000
0001
0000
0100
0000
0000
1000
,
0001
0000
0100
0001
0000
0000
1000
0000
0000
0100
0000
0000
,
0010
0000
0001
0000
0000
1000
0001
0000
1000
0001
0000
0000
,
0010
0000
0001
0000
0000
0100
0000
0000
0010
1000
0000
0000
,
0002
0100
1000
0100
,
2003
0100
0001
0100
,
3002
0010
1000
0010
,
2003
0010
0001
0010
,
3001
0000
0100
0000
0000
0000
0110
0000
0000
1010
0000
0000
,
1000
0100
0010
0001
0000
0000
,
2000
0000
0000
0000
,
3200
0000
0000
0000
,
0320
0000
0000
0000
,
0032
0000
0000
0000
,
0203
0000
0000
0000
,
0320
0000
0000
0000
,
0130
0000
0000
0000
0000
0000
0000
0000
0000
0000
0000
1001
,
0000
0000
1000
0001
0000
1000
0001
0000
1000
0001
0000
0000
,
1000
0000
0010
0000
0000
0100
0010
0000
0100
0001
0000
0000
,
1000
0000
0000
0100
0000
0000
0001
0000
0100
0000
0000
0000
,
1000
0000
0000
0100
0000
0000
0010
0000
0000
0001
0000
1000
,
0000
0000
0000
1000
,
0001
0010
1000
0010
,
0002
0000
2003
0000
,
3001
0100
1000
0100
,
0002
0000
2003
0000
,
3100
0010
0001
0100
,
0010
0000
0000
1000
0000
0000
0001
0000
0100
0000
0000
0001
,
1000
0000
0100
0010
0000
0001
0000
0000
1000
0001
0000
0000
,
0200
0000
0000
0000
,
1000
0000
0000
0000
,
0301
0000
0010
0000
0000
0100
1000
0000
0000
0100
0000
0000
,
1100
0000
0000
0110
0000
0000
0000
0000
0011
0000
0000
0000
,
1000
0000
0010
0000
0000
0100
0001
0000
0000
0100
0000
0000
,
0101
0000
0000
0110
0000
0000
0000
0000
1010
0000
0000
0000
,
0000
0000
0000
0000
,
0000
0000
0000
0000
0000
0000
0110
0000
0000
0000
0000
1001
,
0000
0000
0000
0000
;
#NOTES:
     dance-double:
     :
     Easy:
     8:
     :
00000000
00000000
00000000
00000000
,
00000000
00000000
00000000
00000000
,
00000000
00000000
00000000
00000000
,
00000000
00000000
00000000
00000000
,
00000000
00000000
00000000
00000000
,
00000000
00000000
00000000
00000000
,
00001000
00000000
00001000
00000000
,
00010000
00000000
00010000
00000000
,
00001000
01000000
00001000
00000000
,
01000000
00000000
00100000
00000000
,
01100000
00000000
00000000
00000000
,
00000000
00000000
00000000
00000000
,
10010000
00000000
00000000
00000000
,
00000000
00000000
00000000
00000000
,
10000000
00000000
01000000
00000000
,
00010000
00000000
00001000
00000000
,
00020000
00000000
00000000
00000000
,
00030000
00000000
00000000
00000000
,
00010000
00001000
00010000
00000000
,
00000010
00000000
00001000
00000000
,
00000010
00000100
00000010
00000000
,
00001000
00000000
00000001
00000000
,
00001001
00000000
00000000
00000000
,
00000000
00000000
00000000
00000000
,
00002002
00000000
00000000
00000000
,
00003003
00000000
00000000
00000000
,
00000001
00000010
00000100
00000000
,
00001000
00000000
00000100
00000000
,
00010000
00001000
00010000
00000000
,
00001000
00000000
00100000
00000000
,
00010000
01000000
00010000
00000000
,
01000000
00000000
00100000
00000000
,
20000000
00000000
00000000
00000000
,
30000000
00000000
00000000
00000000
,
10000000
00000000
01000000
00000000
,
00100000
00010000
01000000
00000000
,
00100000
00000000
01000000
00000000
,
00010000
01000000
00001000
00000000
,
00010000
00000000
00000100
00000000
,
00001000
00000000
00000010
00000000
,
00000110
00000000
00000000
00000000
,
00000000
00000000
00000000
00000000
,
00000002
00000000
00000000
00000000
,
00000003
00000000
00000000
00000000
,
00002000
00000000
00000000
00000000
,
00003000
00000000
00000000
00000000
,
00000200
00000000
00000000
00000000
,
00000300
00000000
00000000
00000000
,
00020000
00000000
00000000
00000000
,
00030000
00000000
00000000
00000000
,
00011000
00000000
00000000
00000000
,
00000000
00000000
00000000
00000000
,
00011000
00000000
00000000
00000000
,
00000000
00000000
00000000
00000000
,
00001000
00000000
00010000
00000000
,
00100000
00000000
10000000
00000000
,
00010000
10000000
00010000
00000000
,
10010000
00000000
00000000
00000000
,
00000000
00000000
00000000
00000000
,
10000000
00000000
01000000
00000000
,
00100000
00000000
00000000
00000000
,
00100000
00000000
00001000
00000000
,
00010000
00001000
00010000
00000000
,
00000100
00000000
00010000
00000000
,
00000100
00000000
00000000
00000000
,
00000100
00000000
00000010
00000000
,
00000001
00001000
00000001
00000000
,
00000110
00000000
00000000
00000000
,
00001001
00000000
00000000
00000000
,
00000002
00000000
00000000
00000000
,
00000003
00000000
00000000
00000000
,
00002000
00000000
00000000
00000000
,
00003000
00000000
00000000
00000000
,
00000010
00000000
00000000
00000000
,
00010000
00000000
00000000
00000000
,
00022000
00000000
00000000
00000000
,
00033000
00000000
00000000
00000000
,
00001000
00010000
00001000
00000000
,
00010000
00000000
01000000
00000000
,
10000000
00010000
10000000
00000000
,
00010000
00000000
00000000
00000000
,
10000000
00000000
00100000
00000000
,
00010000
00001000
00010000
00000000
,
00001000
00000000
00000100
00000000
,
00000001
00000000
00000000
00000000
,
00000002
00000000
00000000
00000000
,
00000003
00000000
00000000
00000000
,
00002000
00000000
00000000
00000000
,
00003000
00000000
00000000
00000000
,
00000010
00000000
00010000
00000000
,
00001000
00000000
00000000
00000000
,
00011000
00000000
00000000
00000000
,
00000000
00000000
00000000
00000000
,
00001000
00000000
00010000
00000000
,
00001000
00000000
00010000
00000000
,
00001000
00000000
00100000
00000000
,
00010000
00000000
00000000
00000000
,
00100000
00000000
00010000
00000000
,
01000000
00000000
00010000
00000000
,
10000000
00000000
00010000
00000000
,
10000000
00000000
00000000
00000000
,
10010000
00000000
00000000
00000000
,
10000000
01000000
00100000
00000000
,
00010000
00000000
00100000
00000000
,
00001000
00000000
00000000
00000000
,
00010000
00000000
00001000
00000000
,
00010000
00000010
00001000
00000000
,
00000002
00000000
00000000
00000000
,
00000003
00000000
00000000
00000000
,
00000020
00000000
00000000
00000000
,
00000030
00000000
00000000
00000000
,
00002000
00000000
00000000
00000000
,
00003000
00000000
00000000
00000000
,
00010000
00000000
00000000
00000000
,
00011000
00000000
00000000
00000000
,
00001000
00010000
00001000
00000000
,
01000000
00000000
00010000
00000000
,
00100000
01000000
00100000
00000000
,
00010000
00000000
10000000
00000000
,
01000000
00000000
00010000
00000000
,
00001000
00000000
00000010
00000000
,
00000001
00000000
00000100
00000000
,
00001000
00000000
00010000
00000000
,
00100000
01000000
00100000
00000000
,
20000000
00000000
00000000
00000000
,
30020000
00000000
00000000
00000000
,
02030000
00000000
00000000
00000000
,
03002000
00000000
00000000
00000000
,
00013000
00000000
00011000
00000000
,
00001000
00010000
00000100
00000000
,
00000010
00000000
00000110
00000000
,
00000010
00000001
00001000
00000000
,
00000000
00000000
00000000
00000000
,
00000000
00000000
00000000
00000000
,
00001001
00000000
00000000
00000000
,
00000000
00000000
00000000
00000000
;
#NOTES:
     dance-double:
     :
     Medium:
     10:
     :
00000000
00000000
00000000
00000000
,
00000000
00000000
00000000
00000000
,
00000000
00000000
00000000
00000000
,
00000000
00000000
00000000
00000000
,
00000000
00000000
00000000
00000000
,
00000000
00000000
00000000
00000000
,
00001000
00010000
00001000
00100000
,
00010000
00000000
00100000
00000000
00000000
01000000
00000000
00000000
00100000
00000000
00000000
00000000
,
00000000
00000000
00010000
00000000
00000000
00000000
10000000
00000000
00000000
00100000
00000000
00000000
,
01000000
00000000
00000000
00010000
00000000
00000000
01000000
00000000
00001000
00000000
00000000
00000000
,
00010000
00000000
00000000
00000000
,
00000000
00000000
00000000
00000000
,
00011000
00000000
00000000
00000000
,
00000000
00000000
00000000
00000000
,
00000110
00000000
00000000
00000000
,
00000000
00000000
00000000
00000000
,
00002002
00000000
00000000
00000000
,
00003003
00000000
00000000
00000000
,
00000001
00000100
00000010
00000100
,
00000001
00001000
00000100
00000000
,
00001000
00000100
00010000
00001000
,
00100000
00010000
10000000
00000000
,
10010000
00000000
00000000
00000000
,
10000000
00000000
00000000
01000000
00000000
00100000
00000000
00000000
00010000
00000000
00000000
00000000
,
00110000
00000000
00000000
00000000
,
00100000
00001000
00000000
00000000
,
00001000
00010000
00001000
00000010
,
00001000
00010000
00001000
00000000
,
00010000
00001000
00010000
00100000
,
00010000
00001000
00010000
00000000
,
00001000
00010000
00001000
00000100
,
00001000
00010000
00001000
00000000
,
00010000
00001000
00010000
01000000
,
00010000
00001000
00010000
00000000
,
00001000
00010000
00001000
00000010
,
00000001
00000000
00000000
00000000
00000000
00000001
00000000
00000000
00000000
00000000
00000000
00000000
,
00000001
00000100
00001000
00010000
,
00001000
00000000
00000000
00000000
00000000
00001000
00000000
00000000
00000000
00000000
00000000
00000000
,
00001000
00000000
00010000
00000000
00000000
00000000
00100000
00000000
00000000
10000000
00000000
00000000
,
01000000
00100000
00010000
00000000
,
10000000
00000000
00000000
00000000
00000000
10000000
00000000
00000000
00000000
10000000
00000000
00000000
,
00000000
00000000
00000000
00000000
,
10000000
00000000
00000000
01000000
00000000
00000000
00010000
00000000
00001000
00000000
00000000
00000010
,
00000002
00000000
00000000
00000003
,
00000001
00000000
00000000
00000100
00000000
00000000
00001000
00000000
00010000
00000000
00000000
00100000
,
20000000
00000000
00000000
30000000
,
10000000
00000000
00000000
01000000
00000000
00000000
00010000
00000000
00001000
00000000
00000000
00000010
,
00000002
00000000
00000000
00000003
,
00001000
00000000
00000000
00000000
00000000
00000001
00000000
00000000
00000000
00002002
00000000
00000000
,
00000000
00000000
00000000
00003003
,
00001001
00000000
00000000
00000000
,
00000001
00000100
00000010
00010000
,
00011000
00000000
00000000
00000000
,
00010000
00001000
00100000
00010000
,
10010000
00000000
01100000
00000000
,
10000000
01000000
00010000
00001000
,
00010000
00000000
00000000
00000000
00000000
00001000
00000000
00000000
00010000
00001000
00000000
00000000
,
00020000
00000000
00000000
00000000
,
00000000
00000000
00000000
00000000
,
00031000
00000000
00000000
00000000
00000000
00010000
00000000
00000000
00000000
00001000
00000000
00000000
,
00010000
00000000
00000000
00000000
,
00001000
00010000
00000010
00000000
,
00000100
00000001
00000010
00000000
,
00000100
00001000
00000100
00010000
,
00001000
00010000
00001000
00000000
,
00011000
00000000
00011000
00000000
,
00001000
00010000
00100000
00000000
,
01100000
00000000
00000000
00000000
10000000
00010000
,
20000000
00000000
30010000
00000000
,
20000000
00000000
00100000
00000000
,
30020000
00000000
00130000
00000000
,
00002000
00000000
00023000
00000000
,
00030200
00000000
00000310
00000000
,
00000011
00000000
00000000
00001100
,
00000000
00000000
00001001
00000000
,
00000001
00000100
00001000
00010000
,
00001000
00001000
00000000
00000000
,
00010000
00001000
00100000
00000000
,
01000000
10000000
00100000
00000000
,
01000000
00010000
01000000
00001000
,
00010000
00001000
00010000
00000000
,
00011000
00000000
00011000
00000000
,
00010000
00001000
00000010
00000000
,
00000110
00000000
00000000
00000000
00000000
00000000
00000001
00000000
00000000
00000000
00000000
00002002
,
00000000
00000000
00003003
00000000
,
00000002
00000000
00000010
00000000
,
00002003
00000000
00003010
00000000
,
00020000
00000000
00032000
00000000
,
02003000
00000000
03100000
00000000
,
10000000
00100000
01000000
00000000
,
00010000
01000000
00001000
00000000
,
00022000
00000000
00000000
00000000
,
00033000
00000000
00000000
00000000
,
00001000
00000000
00010000
00000000
,
00000100
00001000
00000100
00000000
,
00000010
00000000
00000001
00000000
,
00001000
00000001
00001000
00000000
,
00000100
00000000
00001000
00000000
,
00000100
00010000
00000100
00000000
,
00010000
00000000
00001000
00000000
,
01000000
00010000
01000000
00000000
,
00010000
00100000
01000000
00000000
,
10000000
00100000
01000000
00000000
,
00010000
01000000
00001000
00000000
,
00010000
00000010
00001000
00000000
,
00000100
00000000
00000110
00000000
,
00002002
00000000
00000000
00003003
,
00000001
00000000
00000100
00000000
,
00001000
00010000
00001000
00000000
,
00010000
00000000
00100000
00000000
,
10000000
00000000
00000000
00000000
,
10010000
00000000
00000000
00000000
,
01100000
00000000
00000000
00000000
,
10010000
00000000
00000000
00000000
00000000
00000000
00000000
00000000
00000000
00000000
00000000
10010000
,
00000000
00000000
00000000
00000000
,
10000000
01000000
00100000
00000000
,
00001000
00000000
00011000
00000000
,
00010000
00000000
00000000
00001000
00000000
00000000
00000010
00000000
00000000
00000000
00000000
00000001
,
00000000
00000000
00000000
00000000
,
00000001
00000100
00000001
00000000
,
00002000
00000000
00003200
00000000
,
00010300
00001000
00010000
00000000
,
00002000
00000000
00203000
00000000
,
00310000
10000000
00100000
00000000
,
02000000
00000000
03020000
00000000
,
00230000
00000000
00302000
00000000
,
00023000
00000000
00000000
00000000
,
00031000
00000000
00000000
00000000
,
00011000
00000000
00010000
00001000
,
00000010
00000000
00000001
00000000
,
00001001
00000000
00000001
00000100
,
00001000
00000000
00010000
00000000
,
00000000
00000000
00000000
00000000
,
00000000
00000000
00000000
00000000
00000000
00000000
00001000
00000000
00000000
00000000
00000000
00011000
,
00000000
00000000
00000000
00000000
;
#NOTES:
     dance-double:
     :
     Hard:
     14:
     :
00000000
00000000
00000000
00000000
,
00000000
00000000
00000000
00000000
,
00000000
00000000
00000000
00000000
,
00000000
00000000
00000000
00000000
,
00000000
00000000
00000000
00000000
,
00000000
00000000
00000000
00000000
,
00001000
00010000
00001000
00000000
,
00001000
00000000
00010000
00000000
00000000
00100000
00000000
00000000
10000000
00000000
00000000
00000000
,
00000000
00000000
10010000
00000000
00000000
00000000
10000000
00000000
00000000
01000000
00000000
00000000
,
00100000
00000000
00000000
00001000
00000000
00000000
00010000
00000000
00001000
00000000
00000000
00000000
,
00011000
00000000
00000000
00000000
,
00000000
00010000
00001000
00000010
,
00000110
00000000
00000000
00000000
00000000
00000000
00000000
00000000
00000000
00000000
00000000
00000001
,
00000000
00000000
00001000
00000001
00000000
00001000
00000100
00000000
00010000
00000100
00000000
00000000
,
00010100
00000000
00000000
00000000
,
00000100
00000000
00010000
00000000
00000000
01000000
00000000
00000000
00000000
10000000
00000000
00000000
,
00020000
00000000
00100000
00000000
,
01030000
01100000
00000000
00000000
,
00100000
00000000
00000000
10000000
00000000
00100000
00000000
00000000
01000000
00010000
00000000
01000000
,
00000000
00000000
00001000
00010000
00000000
00000000
00011000
00000000
00000000
00000000
00000000
00000000
,
00010000
00000000
00000000
00001000
00000000
00000010
00000000
00000000
00000001
00001000
00000000
00000001
,
00000000
00000000
00000000
00000100
00000000
00000000
00000010
00000000
00000100
00000010
00000000
00000000
,
00000110
00000000
00000000
00000000
,
00000001
00000000
00000100
00000010
00000000
00001000
00000000
00000000
00000010
00010000
00000000
00000000
,
00011000
00000000
00000000
00000000
,
00011000
00011000
00000000
00000000
,
00001000
00010000
01000000
10000000
,
00010000
00000000
00100000
01000000
00000000
00100000
00010000
00000000
00100000
00001000
00000000
00000000
,
00010000
00000000
00000000
00000100
00000000
00000000
00001000
00000000
00000000
00000010
00000000
00000100
,
00000000
00000000
00000001
00000100
00000000
00000010
00001000
00000000
00000001
00000100
00000000
00000000
,
00000001
00000010
00000100
00001000
,
00000010
00000000
00000100
00000000
00000000
00001000
00000000
00000000
00010000
00100000
00000000
00000000
,
20000000
00000000
00100000
00000000
,
31000000
01100000
00000000
00000000
,
10000000
01000000
00100000
00010000
,
00001000
00000000
00000100
00000010
00000000
00000001
00000000
00000000
00000000
00001001
00000000
00000000
,
00000001
00000100
00000010
00001000
,
00010000
00000000
01000000
00100000
00000000
10000000
00000000
00000000
00000000
10010000
00000000
00000000
,
10000000
00000000
01000000
00100000
00000000
00000000
00101000
00000000
00000000
00001000
00000000
00000000
,
00011000
00010000
00010100
00000100
,
00000110
00000000
00000000
00000000
00000000
00000010
00000000
00000000
00000000
00001001
00000000
00000000
,
00000000
00000000
00000000
00000000
,
00000001
00000000
00000000
00001000
00000000
00000000
00000100
00000000
00010000
00001000
00000000
00010000
,
00000010
00000000
00010000
00001000
00000000
00010000
00000100
00000000
00010000
00001000
00000000
00000000
,
00010000
00000000
00000000
00011000
00000000
00000000
00010000
00000000
00001000
00100000
00000000
00001000
,
00010000
00000000
00001000
01000000
00000000
00001000
00010000
00000000
00001000
00100000
00000000
00000000
,
00010000
00000000
00000000
00100000
00000000
00000000
01000000
00000000
10000000
00000000
00000000
00100000
,
10000000
01000000
00010000
00001000
,
00010000
00000000
00000000
00000000
00000000
00010000
00000000
00000000
00000000
00011000
00000000
00000000
,
00010000
00000000
00000100
00001000
00000000
00000000
00000010
00000000
00000100
00000001
00000000
00000000
,
00000011
00000000
00000000
00000000
,
00000001
00000000
00000010
00000000
00000000
00001000
00000000
00000000
00010000
01000000
00000000
00000000
,
11000000
00000000
00000000
00000000
,
10000000
00000000
00100000
00000000
00000000
00010000
00000000
00000000
00001000
00000100
00000000
00000000
,
00000001
00000100
00001000
00010000
,
00100000
01000000
00001000
00010000
,
01000000
00000000
10000000
00000000
00000000
00100000
00000000
00000000
01000000
00001000
00000000
00000000
,
00020000
01000000
00000000
00000100
,
00000000
01000000
00000000
00030100
,
00010000
00000000
00000000
00000000
00000000
00001000
00000000
00000000
00000000
00000010
00000000
00000000
,
00000110
00000000
00000000
00000000
,
00000001
00000000
00000000
00000010
00000000
00000000
00000100
00000000
00000000
00001000
00000000
00000001
,
00000000
00000000
00000100
00000010
00000000
00000000
00001000
00000000
00000000
00000100
00000000
00000000
,
00010000
00000000
00000000
00001000
00000000
00000000
00010000
00000000
00000000
00100000
00000000
10000000
,
00000000
00000000
00100000
01000000
00000000
00000000
00010000
00000000
00000000
10000000
00000000
00000000
,
00000000
10000000
01000000
00100000
,
00001000
00000000
00000000
00010000
00000000
00000100
00000000
00000000
00001000
00000100
00000000
00000000
,
00000010
00000000
00000000
00000000
00000001
00000010
,
00002000
00000000
00013000
00000000
,
00001000
00000000
00010000
00000000
00000000
00000000
00011000
00000000
00000000
01001000
00000000
00000000
,
01010000
00000000
00000000
00110000
00000000
00000000
00100000
00000000
01000000
00000000
00000000
00000000
,
10000000
00000000
00100000
00000000
00000000
00000000
01100000
00000000
00000000
01001000
00000000
00000000
,
00011000
00000000
00000000
00010100
00000000
00000000
00000100
00000000
00001000
00000000
00000000
00000000
,
00000010
00000000
00000100
00000000
00000000
00000001
00000010
00000000
00000100
00001000
00000000
00000010
,
00000000
00000000
00000100
00001000
00000000
00010000
00100000
00000000
00000000
10000000
00000000
00000000
,
00020000
00000000
00100000
00000000
,
01030000
10010000
00000000
10000000
,
01000000
00000000
00100000
01000000
00000000
00000000
00100000
00000000
00010000
00100000
00000000
00001000
,
00000000
00000000
00010000
00001000
00000000
00000000
00010000
00000000
00000000
00011000
00000000
00000000
,
00001000
00000000
00010000
00000010
00000000
00000000
00001000
00000000
00000010
00000100
00000000
00000001
,
00000000
00000000
00000010
00000100
00000000
00000000
00001000
00000000
00000000
00001001
00000000
00000000
,
00000000
00000000
00000000
00001001
00000000
00000000
00001000
00000000
00000100
00010000
00000000
00000010
,
00001000
00000000
00000100
00010000
00000000
00001000
00000000
00000000
00010000
00001000
00000000
00000000
,
00011000
00000000
00000000
00001000
00000000
00000000
00010000
00000000
00100000
10000000
00000000
00100000
,
00000000
00000000
01000000
00010000
00000000
00000000
01000000
00000000
00000000
01100000
00000000
00000000
,
00100000
00000000
10000000
00100000
00000000
00000000
01000000
00000000
00010000
01000000
00000000
00000000
,
00100000
00000000
00000000
00010000
00000000
00000000
00001000
00000000
00000100
00000000
00000000
00000000
,
00000001
00000000
00001000
00000001
00000000
00000000
00001000
00000000
00000100
00000010
00000000
00000001
,
00000000
00000000
00000100
00000010
00000000
00000000
00001000
00000000
00000000
00000010
00000000
00000000
,
00001000
00000010
00010000
00100000
,
20000000
00000000
30020000
00000000
,
02030000
00000000
00000000
00000000
,
03000000
00000000
00000000
00000000
,
10010000
00000000
00000000
10000000
00000000
00000000
00100000
00000000
00000000
01000000
00000000
00010000
,
00000000
00000000
00100000
00010000
00000000
00000000
01000000
00000000
00000000
00100000
00000000
00000000
,
00010000
00000000
00000000
00001000
00000000
00000000
00000100
00000000
00000000
00000010
00000000
00000100
,
00000000
00000000
00000001
00000100
00000000
00000000
00000001
00000000
00000000
00001001
00000000
00000000
,
00001000
00000000
00000000
00000100
00000000
00000000
00000010
00000000
00000000
00001000
00000000
00010000
,
00000000
00000000
01000000
00100000
00000000
00000000
00001000
00000000
00000000
00010000
00000000
00000000
,
00100000
00000000
00010000
00001000
00000000
00000000
00000010
00000000
00001000
00010000
00000000
00000000
,
00001000
00000000
00010000
00000000
00000000
00001000
00000000
00000000
00010000
00000000
00000000
00000000
,
00002000
01000000
00010000
01000000
,
00023000
00000100
00001000
00000100
,
00032000
00100000
00010000
00100000
,
00023000
00000010
00001000
00000010
,
00031000
00000000
00010000
00000000
00000000
00000000
00001000
00000000
00000000
00010000
00000000
00000000
,
01000000
10000000
00010000
10000000
00000000
00000000
,
00020000
00000000
00000000
00000000
,
02030000
00000000
00000000
00000000
,
03002000
00000000
00000000
00000000
,
00023000
00000000
00000000
00000000
,
00030200
00000000
00000000
00000000
,
00002300
00000000
00000000
00000000
,
00003001
00000000
00000000
00000000
00000000
00000000
00000000
00000000
00000000
00000000
00000000
00001001
,
00000000
00000000
00001000
00000001
00000000
00001000
00000001
00000000
00001000
00000001
00000000
00000000
,
00000010
00000100
00010000
00001000
,
00100000
00000000
00000000
01000000
00000000
00000000
10000000
00000000
00010000
10000000
00000000
00000000
,
00100000
00000000
00000000
01000000
00000000
00000000
00001000
00000000
00000000
00010000
00000000
00000010
,
00000000
00000000
00000000
00000100
00000000
00000000
00000001
00000000
00001000
00000001
00000000
00000000
,
00000100
00001000
00010000
00100000
,
20000000
00000000
30010000
00000000
,
10000000
01000000
00010000
00001000
,
00000020
00000000
00000031
00000000
,
00000001
00000100
00001000
00010000
,
00002000
00000000
00000010
00000000
,
00023000
00000000
00100000
00000000
,
00032000
00000000
00000000
00000000
,
00013000
00000000
00000000
00000000
,
00011000
00000000
00001000
00010000
,
01000000
00010000
00001000
00000000
,
00011000
00000000
00010000
00001000
,
00000100
00001000
00010000
00000000
,
00000000
00000000
00000000
00000000
,
00000000
00000000
00000000
00000000
00000000
00000000
00001000
00000000
00000000
00000000
00000000
00011000
,
00000000
00000000
00000000
00000000
;
