
//----- song ID: rhyz -----//
#TITLE:Re\:RHYZE;
#ARTIST:beatnation RHYZE;
#TITLETRANSLIT:ReRHYZE;
#BANNER:ReRHYZE.png;
#BACKGROUND:ReRHYZE-bg.png;
#CDTITLE:./CDTitles/DDR WORLD.png;
#MUSIC:ReRHYZE.ogg;
#SAMPLESTART:98.376;
#SAMPLELENGTH:15;
#BPMS:0=200;
#NOTES:
     dance-single:
     :
     Beginner:
     4:
     :
0000
0000
0000
0000
,
0000
0000
0000
0000
,
0000
0000
0000
0000
,
0000
0000
0000
0000
,
0000
0000
0000
0000
,
0000
0000
0000
0000
,
0000
0000
0000
0000
,
0000
0000
0000
0000
,
0010
0000
0010
0000
,
0100
0000
0100
0000
,
0001
0000
0001
0000
,
1000
0000
1000
0000
,
2002
0000
0000
0000
,
3003
0000
0000
0000
,
0001
0000
1000
0000
,
0001
0000
0100
0000
,
0010
0000
1000
0000
,
0002
0000
0000
0003
,
1000
0000
0010
0000
,
1000
0000
0010
0000
,
0100
0000
0000
0000
,
0020
0000
0000
0030
,
1000
0000
1000
0000
,
0100
0000
0100
0000
,
0010
0000
0010
0000
,
0110
0000
0000
0000
,
0001
0000
0001
0000
,
0100
0000
0100
0000
,
0010
0000
0010
0000
,
0110
0000
0000
0000
,
1001
0000
0000
0000
,
0000
0000
0000
0000
,
0001
0000
0001
0000
,
1000
0000
1000
0000
,
0010
0000
0010
0000
,
0100
0000
0100
0000
,
0001
0000
0000
0000
,
1000
0000
0000
0000
,
0001
0000
0100
0000
,
0010
0000
1000
0000
,
0001
0000
0010
0000
,
0100
0000
1000
0000
,
2002
0000
0000
0000
0000
3003
0000
0000
,
0220
0000
0000
0000
0000
0330
0000
0000
,
1001
0000
0000
0000
,
0001
0000
1000
0000
,
0010
0000
0000
0000
,
0000
0000
0000
0000
,
1000
0000
0000
0000
,
0000
0000
0000
0000
,
0001
0000
0000
0000
,
0000
0000
0000
0000
,
0100
0000
0000
0000
,
0000
0000
0000
0000
,
0010
0000
0010
0000
,
0010
0000
0000
0000
,
0100
0000
0100
0000
,
0100
0000
0000
0000
,
0001
0000
1000
0000
,
0001
0000
0100
0000
,
0010
0000
0100
0000
,
0001
0000
0001
0000
,
2000
0000
0000
3000
,
0000
0000
0000
0000
,
0000
0000
0000
0000
,
0000
0000
0000
0000
,
0000
0000
0000
0000
,
0001
0000
0001
0000
,
1000
0000
1000
0000
,
0010
0000
0010
0000
,
1001
0000
0000
0000
,
1000
0000
1000
0000
,
0001
0000
0100
0000
,
0010
0000
0010
0000
,
1000
0000
0001
0000
,
0100
0000
0100
0000
,
0010
0000
1000
0000
,
0001
0000
0001
0000
,
0010
0000
0100
0000
,
1000
0000
1000
0000
,
0020
0000
0000
0000
0000
0000
0000
0000
0000
0030
0000
0000
0000
0000
0000
0000
,
0200
0000
0000
0000
0000
0000
0000
0000
0000
0300
0000
0000
0000
0000
0000
0000
,
0000
1001
0000
0000
,
1000
0000
0001
0000
,
0100
0000
0100
0000
,
0010
0000
1000
0000
,
0001
0000
0000
0000
,
1000
0000
0000
0000
,
0001
0000
0010
0000
,
0100
0000
1000
0000
,
1001
0000
0000
0000
,
0110
0000
0000
0000
,
0001
0000
0001
0000
,
0100
0000
0100
0000
,
0010
0000
0010
0000
,
1000
0000
1000
0000
,
1001
0000
0000
0000
,
0110
0000
0000
0000
,
1001
0000
0110
0000
,
1001
0000
0110
0000
,
0001
0000
0001
0000
,
1000
0000
1000
0000
,
0010
0000
0010
0000
,
0100
0000
0100
0000
,
0002
0000
0000
0003
,
1000
0000
0010
0000
,
0200
0000
0000
0000
,
0000
0000
0000
0000
,
0300
0000
0000
0000
,
0000
0000
0000
0000
;
#NOTES:
     dance-single:
     :
     Easy:
     9:
     :
0000
0000
0000
0000
,
0000
0000
0000
0000
,
0000
0000
0000
0000
,
0000
0000
0000
0000
,
0000
0000
0000
0000
,
0000
0000
0000
0000
,
0000
0000
0000
0000
,
0000
0000
0000
0000
,
0001
0101
1000
1100
,
0001
0101
1000
1100
,
0101
1100
0101
1100
,
0002
0203
0320
2030
,
3001
0000
0000
0000
,
0020
0000
0130
0110
,
0001
1000
0100
1000
,
0001
0100
0010
1000
,
0100
1000
0010
0100
,
0001
0000
1000
0000
0001
0000
0000
0010
0000
0000
0100
0000
0000
0000
0000
0000
,
1000
0010
1000
0001
,
0010
0100
0010
0001
,
1001
0000
0000
0110
0000
0000
1001
0000
,
0200
0000
0300
0110
,
1000
0010
0001
0010
,
1000
0100
0001
0100
,
1000
0010
0001
0010
,
0110
0000
0000
1001
0000
0000
0110
0000
,
0001
0100
1000
0100
,
0001
0010
1000
0010
,
0001
1000
0001
0000
0100
0010
0100
0000
,
1001
0000
0000
0000
,
0002
0000
0010
1000
,
0203
0010
0301
1001
,
2000
0000
3020
0000
,
0100
0001
1030
0000
,
0002
0000
0203
0000
,
0010
1000
0301
0000
,
0001
0001
1000
1000
,
0010
0010
0220
0330
,
0001
0000
1000
0000
0010
0100
0010
0000
,
1000
0000
0001
0000
0100
0010
0100
0000
,
0001
1000
0100
0010
,
0001
0000
0000
1001
0000
0000
0000
0000
,
1000
0000
0000
1001
0000
0000
0100
0000
,
0100
0000
0000
0110
0000
0000
0001
0000
,
2000
3200
0320
0032
,
0103
0010
1010
0101
,
2000
3000
0002
0003
,
0200
0300
0020
0030
,
1000
1000
0001
0001
,
1000
0100
0010
0000
,
0002
0103
2000
3100
,
0002
0013
2000
3010
,
0001
0001
0100
0100
,
0010
0010
1000
1000
,
1001
0110
1001
0000
,
1001
0110
1001
0000
,
0001
0000
0100
0000
0001
1000
0001
0000
,
0010
0100
1000
1001
,
0001
0100
0001
1000
,
0100
1000
0010
0100
,
0001
0100
0001
0000
1000
0010
1000
0000
,
0001
1000
0001
1000
0001
1000
0001
0000
,
0200
0000
0000
0310
,
0000
0000
0000
0000
,
0000
0000
0000
0000
,
0000
0000
0000
0000
,
0000
0000
0000
0000
,
1000
1000
0001
0001
,
0100
0100
0010
0010
,
1000
0001
1000
0001
1000
0000
0100
0000
,
0011
1100
1001
0000
,
0001
0101
1000
1100
,
0001
0000
1000
0000
0010
0100
0001
0000
,
1000
1100
0001
0101
,
1000
0000
0001
0000
0100
0010
1000
0000
,
0001
0011
1000
1010
,
0001
0000
1000
0000
0100
0010
0001
0000
,
1000
1010
0001
0011
,
2000
3200
0320
0032
,
2003
3002
0203
0310
,
0220
0000
0000
0000
0000
0000
0030
0000
0000
0300
0000
0000
0000
0000
0000
0000
,
2002
0000
0000
0000
0000
0000
3000
0000
0000
0003
0000
0000
0000
0000
0000
0000
,
0000
1001
1000
0010
,
0100
0001
1000
0000
0100
0000
1000
0000
,
0010
0001
0010
1000
,
0100
0010
0001
1001
,
2000
0010
0001
3100
,
0002
0010
1000
0103
,
1000
0001
0100
0010
,
1000
0100
0010
0000
,
0022
0000
0000
0033
,
0002
0023
0230
2300
,
3010
0010
0100
0100
,
0001
0001
1000
1000
,
0101
0010
0101
0010
,
1100
0010
1100
0010
,
1002
0000
0203
0000
,
0320
0000
2030
0000
,
3001
0011
0110
1100
,
1010
0110
0101
1001
,
0001
0001
1000
1000
,
0010
0010
0100
0100
,
0001
0001
1000
1000
,
0001
0010
0100
1000
,
0020
0000
0000
0030
,
0100
0001
1000
0100
,
0020
0000
0000
0000
,
0000
0000
0000
0000
,
0030
0000
0000
0000
,
0000
0000
0000
0000
;
#NOTES:
     dance-single:
     :
     Medium:
     13:
     :
0000
0000
0000
0000
,
0000
0000
0000
0000
,
0000
0000
0000
0000
,
0000
0000
0000
0000
,
0000
0000
0000
0000
,
0000
0000
0000
0000
,
0000
0000
0000
0000
,
0000
0000
0000
0000
,
1000
0000
0000
1000
0000
0000
1000
0000
0100
0000
0000
0100
0000
0000
0100
0000
,
0010
0000
0000
0010
0000
0000
0010
0000
0001
0000
0000
0001
0000
0000
0001
0000
,
1000
0010
1000
0010
0100
0001
0100
0001
,
1000
0001
0010
0100
1000
0010
0100
0001
,
1001
0000
0000
0000
,
0010
0100
0010
0110
,
1001
0000
1000
0010
0100
0001
1000
0000
,
0100
0000
1000
0010
0100
0001
1000
0000
,
0100
0010
0001
0000
0100
0010
1000
0000
,
0001
0010
0100
1000
0010
0100
0110
0000
,
1001
0000
0001
0100
0010
1000
0001
0000
,
0010
0000
0001
0100
0010
1000
0001
0000
,
0010
0000
0000
0100
0000
0000
1000
0000
0000
0001
0000
0000
0100
0000
0001
0000
,
2000
3100
0020
0031
,
1000
0000
0000
0100
0000
0000
1000
0000
0010
0000
0000
0100
0000
0000
0010
0000
,
1000
0000
0000
0001
0000
0000
1000
0000
0100
0000
0010
0000
0001
0000
0000
0000
,
1000
0000
0000
0010
0000
0000
1000
0000
0001
0000
0000
0010
0000
0000
0001
0000
,
1000
0000
0000
1100
0000
0000
0110
0000
0000
0011
0000
0000
0001
0000
0100
0000
,
0010
0000
0000
1000
0000
0000
0100
0000
1000
0000
0000
0001
0000
0000
0100
0000
,
0010
0000
0000
1000
0000
0000
0001
0000
0010
0000
0100
0000
1000
0000
0000
0000
,
0010
0000
0000
0100
0010
0000
1000
0000
0001
0000
0010
0000
0100
0000
1000
0000
,
0020
0000
0200
0330
,
1001
0000
0000
0000
,
0001
0101
1000
1100
,
1001
0000
0001
0001
0100
0000
0010
0010
,
0100
0100
0001
0001
1000
1000
0010
0000
,
1010
0000
1000
0001
0001
0000
1000
1000
,
0100
0100
1000
1000
0002
0000
2003
0000
,
3010
0000
0100
0001
0000
0001
0010
0000
,
0100
1000
0010
1000
0001
0000
1001
0000
,
1000
0100
1000
0010
0100
0001
0010
0100
,
1000
0001
0100
0001
0010
0100
1000
0010
,
0100
0001
0010
0001
1000
0010
1000
0001
,
0010
0000
0000
0100
0000
0000
1000
0000
0002
0000
0000
0000
0003
0000
0000
0000
,
0011
0000
0000
0101
0000
0000
0110
0000
0000
1010
0000
0000
0000
0000
0000
0000
,
1010
0000
0000
0110
0000
0000
0101
0000
0000
1001
0000
0000
0000
0000
0000
0000
,
2000
0000
0000
3000
,
0010
0100
0001
0010
0100
1000
0010
0100
,
1001
0000
0001
1000
,
0010
0100
0010
1000
,
0002
2003
3002
0023
,
2030
3020
0032
2003
,
3010
0000
0000
0100
0000
0000
0001
0000
1000
0010
0000
0000
,
0100
0000
0000
0001
0000
0000
1000
0000
0100
1000
0000
0000
,
0001
0000
0001
0010
0000
0010
0100
0000
0100
1000
0000
1000
,
0001
0000
0001
0100
0000
0100
0010
0000
0000
1000
0000
0000
,
1001
0000
0000
0000
0101
0000
0000
0000
0001
0000
0000
1000
0000
0000
0010
0000
,
0010
0000
0000
1000
0000
0000
0001
0000
0100
0000
0010
0000
0110
0000
0000
0000
,
0001
0000
0000
0001
0000
0000
1000
0000
0100
0000
0010
0000
0001
0000
0000
0000
,
1000
1000
0001
0100
0010
1000
1001
0000
,
0001
0100
0001
0000
1000
0100
1000
0000
,
0001
0010
0001
0000
1000
0010
1000
0000
,
0001
0100
0001
0010
0001
0100
0001
0010
,
0100
1000
0010
0100
0001
0010
0100
1000
,
0020
0000
0000
0130
,
0000
0000
0000
0000
,
0000
0000
0000
0000
,
0000
0000
0000
0000
,
0000
0000
0000
0000
,
0001
0001
1000
1000
0010
0010
0100
0000
,
0001
0001
1000
1000
0100
0100
0010
0000
,
0001
0010
0100
1000
0001
0100
0010
1000
,
0002
0023
0230
2300
,
3001
0100
0001
0100
0010
1000
0001
0000
,
0010
0100
1000
0010
0001
0010
1000
0000
,
1000
0001
1000
0001
0010
0100
1000
0000
,
0010
0100
0001
0010
1000
0010
0001
0000
,
0001
1000
0010
1000
0001
0010
0100
0000
,
1000
0001
0100
0010
0001
0010
1000
0000
,
0001
0100
0010
0100
0001
0010
0100
0000
,
1000
1000
0001
0001
0100
0010
1000
0000
,
0002
0023
0230
1300
,
0001
0000
0000
0101
0000
0000
1000
0000
0000
1001
0000
0000
0000
0000
0000
0000
,
1000
0000
0000
1100
0000
0000
0001
0000
0000
1001
0000
0000
0000
0000
0000
0000
,
0010
0000
1001
0000
1000
0000
0100
1000
,
0001
0100
0010
0000
1000
0010
0001
0000
,
0010
0100
1000
0100
0010
0100
0001
0000
,
1000
0100
0001
0000
0100
1000
0010
0000
,
0100
0001
1000
0100
,
2000
0010
0001
3100
,
1000
0010
0100
0001
,
1000
0100
0010
0000
0001
0000
1000
0000
,
1100
0101
1100
0101
,
2000
3020
0230
0302
,
1003
1000
1000
0000
0001
0000
0100
0000
,
0010
0010
0010
0000
1000
0000
0001
0000
,
0100
0100
0100
0000
0001
0000
1000
0000
,
0001
0001
0001
0000
0011
0000
1100
0000
,
2000
3020
0032
0023
,
2030
3200
0302
0203
,
1300
0001
0100
0001
1000
0100
,
0010
0001
0010
0000
0100
0000
1000
0010
1000
0000
0001
0000
,
0200
0010
0001
0310
,
0020
1000
0100
1030
,
0002
1000
0010
1003
,
0001
1000
0010
0100
0001
1000
0100
0010
,
0002
0000
0000
0003
,
1000
0001
0100
0000
0001
0010
0100
0000
,
2000
0000
0000
0000
,
0000
0000
0000
0000
,
3000
0000
0000
0000
,
0000
0000
0000
0000
;
#NOTES:
     dance-single:
     :
     Hard:
     16:
     :
0000
0000
0000
0000
,
0000
0000
0000
0000
,
0000
0000
0000
0000
,
0000
0000
0000
0000
,
0000
0000
0000
0000
,
0000
0000
0000
0000
,
0000
0000
0000
0000
,
0000
0000
0000
0000
,
1000
0000
0000
0001
0000
1000
0010
0000
0100
0000
0000
0001
0000
0000
1000
0000
,
0100
0000
0000
1000
0000
0001
0010
0000
0100
0000
0000
1000
0000
0000
0001
0000
,
0010
0000
0100
1000
0100
0000
0010
0001
1000
0000
0010
1000
0010
0000
0100
0001
,
1000
0000
0100
0000
0010
0000
0001
0000
1000
0100
0010
0001
1000
0100
0010
0001
,
1000
0000
0000
0000
,
0001
0001
1000
1000
0001
0000
1001
0000
,
1000
0000
0001
0000
0100
0001
0100
0000
0010
1000
0010
0000
1000
0000
0100
0000
,
0010
0000
0001
0000
1000
0010
1000
0000
0001
0100
0001
0000
0010
0000
0100
0000
,
1000
0000
0000
0010
0000
1000
0001
0000
1000
0001
0100
0000
0001
1000
0100
0000
,
1000
0000
0001
0000
0100
0000
0000
0110
0000
0000
1001
0000
1000
0000
0000
0000
,
0001
0000
1000
0000
0100
1000
0100
0000
0010
0001
0010
0000
0001
0000
0100
0000
,
0010
0000
1000
0000
0001
0010
0001
0000
1000
0100
1000
0000
0010
0000
0100
0000
,
0001
0000
0000
0101
0000
0000
1001
0000
0000
1000
0001
0000
0100
0000
0010
0000
,
1000
0000
0001
1000
0001
1000
0010
0000
1000
0001
1000
0001
0100
0000
0010
0000
,
1000
0000
0000
0100
0000
0000
1000
0000
0010
0000
0000
0100
0000
0000
0001
0000
,
0010
0000
0000
0100
0000
0000
1000
0000
0001
0000
0100
0000
1000
0000
0100
0000
,
0001
0000
0000
1000
0000
0000
0100
0000
1000
0000
0000
0001
0000
0000
0100
0000
,
0001
0000
0000
0011
0000
0000
1000
0000
0000
1010
0000
0000
1000
0000
1000
0000
,
0001
0000
0000
0100
0000
0000
0001
0000
0010
0000
0000
0100
0000
0000
1000
0000
,
0010
0000
0000
0100
0000
0000
0001
0000
1000
0000
0010
0000
0001
0000
0010
0000
,
1000
0000
0000
0001
0000
0000
0100
0000
0001
0000
0000
1000
0000
0000
0100
0000
,
0020
0000
0000
0000
,
0130
0000
0000
0000
0000
0000
1000
0001
0000
0100
0000
0001
0000
1000
0100
0000
,
0010
1001
0220
0330
,
1001
0000
0000
0000
0000
0000
0001
1000
0000
0001
0100
0001
0000
1000
0100
1000
,
0000
0001
0100
0001
0100
0001
0100
0001
0100
0000
0010
0000
1000
0000
0001
0000
,
1001
0000
0000
0000
0000
0000
1000
0001
0000
1000
0100
1000
0000
0001
0100
0001
,
0000
1000
0100
1000
0100
1000
0100
1000
0100
0000
0000
0000
1000
0000
0001
0000
,
1001
0000
1000
1000
0000
0001
0001
0000
,
1000
0000
0100
0000
0010
0000
0001
0000
2000
3000
0020
0030
0200
0300
0002
0003
,
1001
1000
0001
0100
0101
0001
1000
0100
,
1100
1000
0001
0010
0110
0100
1000
0001
,
1001
1000
0010
0100
0101
0001
0010
0100
,
1100
0000
0000
1001
0000
0000
1100
0000
2000
3000
0020
0030
0200
0300
0002
0003
,
1000
0000
0000
1100
0000
0000
1010
0000
0000
1001
0000
0000
0000
0000
0000
0000
,
0001
0000
0000
0011
0000
0000
0101
0000
0000
1001
0000
0000
0000
0000
0000
0000
,
0200
0000
0000
0300
,
2002
0000
0000
3003
,
0001
0000
1000
0100
0000
0000
1000
0000
0001
0100
0000
0000
,
0010
0000
1000
0001
0000
0000
1000
0000
0010
0000
0100
0000
,
0002
1000
0203
0010
,
0302
0010
1003
0001
,
1001
0000
0000
0001
0000
1000
0100
0000
0010
0000
0000
0001
,
1000
0010
0100
0001
,
1002
0013
2001
3100
,
1002
0023
0230
1300
,
1100
0000
0000
0000
0011
0000
0000
0000
1000
0000
0000
0110
0000
0000
0001
0000
,
1000
0000
0000
1010
0000
0000
0101
0000
1000
0000
1000
0000
0001
0000
0000
0000
,
0011
0000
0000
1100
0000
0000
0001
1000
0010
0000
0100
0000
0100
0000
0000
0000
,
0010
0000
1000
0000
0100
0000
0010
0000
0001
0000
1000
0001
0100
0000
0000
0000
,
0010
1000
0100
1000
0010
0100
0001
0010
,
0001
0100
0010
1000
0100
0010
0001
1000
,
0010
0000
0100
0001
0100
0000
0010
1000
0001
0000
0010
0000
0100
1000
0100
0000
,
1000
0000
1000
0000
0001
0000
0001
0000
1000
0001
1000
0001
1000
0001
1000
0001
,
2000
0000
0000
3001
,
0000
0000
0000
0000
,
0000
0000
0000
0000
,
0000
0000
0000
0000
,
0000
0000
0000
0000
,
0001
0001
0010
0010
0100
0100
1000
0001
,
0100
0100
0010
0010
1000
0001
0010
0001
,
0100
0010
1000
0100
0010
0001
0200
0000
,
0310
1001
0110
1001
,
0011
0000
0000
0000
0101
0000
0000
0000
0011
0000
0000
0000
0001
0100
0001
0010
,
0100
1000
0010
0100
0001
0000
1000
0100
,
1100
0000
0000
0000
1010
0000
0000
0000
1100
0000
0000
0000
1000
0010
1000
0100
,
0010
0000
0001
0000
0100
0000
0010
0000
1000
0000
0001
1000
0100
0000
0000
0000
,
1010
0000
0000
0000
1100
0000
0000
0000
1010
0000
0000
0000
1000
0100
1000
0010
,
0100
0001
1000
0100
0010
0000
0001
0100
,
0101
0000
0000
0000
0011
0000
0000
0000
0101
0000
0000
0000
0001
0010
0001
0100
,
0010
1000
0100
1000
0010
0100
0001
0010
,
0001
0000
0001
0000
1000
0000
1000
0000
0001
0010
0100
1000
0001
0010
0100
1000
,
0001
0000
0000
0011
0000
0000
1100
0000
0000
1001
0000
0000
0000
0000
0000
0000
,
1000
0000
0000
1010
0000
0000
0101
0000
0000
1001
0000
0000
0001
0000
1000
0001
,
0100
0000
0000
0000
0110
0000
0000
0000
1001
0000
0000
0000
1000
0000
0010
0100
,
0010
1000
0002
0000
0103
0000
0001
1000
,
0010
0000
0100
0000
0001
0000
0010
0100
0010
0000
0001
0000
0100
0000
0010
0000
,
1000
0001
0010
0000
0001
1000
0010
0000
0100
0000
0010
0000
1001
0000
0000
0000
,
0100
0000
0000
0000
1001
0000
0000
0000
1000
0000
0000
0001
0000
0000
2000
0000
,
0010
0001
3100
1001
,
1000
0100
0010
0001
0100
0010
1000
0100
,
0010
0100
0100
0000
0220
0000
0330
0000
,
1000
0000
0000
1000
0000
0000
0001
0000
0000
0001
0000
0000
1000
0000
0010
0000
1000
0000
0001
0000
0100
0000
0001
0000
,
2000
3200
0320
0032
,
0103
0000
0100
0000
0010
1000
0001
1000
0010
0000
0100
0000
0001
0000
1000
0000
,
0100
0000
0100
0000
0010
0001
1000
0001
0010
0000
0100
0000
1000
0000
0001
0000
,
1000
0000
0010
0100
0001
0000
0010
0000
0001
0000
0100
0010
1000
0000
0100
0000
,
0010
0001
1000
0000
0010
1000
0001
0000
0010
0100
1000
0000
0001
0100
0001
0100
,
0020
2030
3001
0011
,
0020
0032
1003
1010
,
1000
0100
0010
0001
0100
0001
0010
0100
1000
0010
1000
0100
,
0010
0001
0100
0010
1000
0100
1000
0001
0100
0010
1000
0001
,
0020
0031
0020
0130
,
1000
0001
0010
0001
1000
0010
0100
0000
,
0020
1030
0020
0130
,
0001
0000
0001
0000
1000
0000
1000
0000
0001
1000
0001
1000
0100
0010
0001
1000
,
0020
0000
0000
0030
,
1000
0000
0001
1000
0001
1000
0100
0010
0001
1000
0001
1000
0010
0000
0000
0000
,
2002
0000
0000
0000
,
0000
0000
0000
0000
,
3003
0000
0000
0000
,
0000
0000
0000
0000
;
#NOTES:
     dance-double:
     :
     Easy:
     9:
     :
00000000
00000000
00000000
00000000
,
00000000
00000000
00000000
00000000
,
00000000
00000000
00000000
00000000
,
00000000
00000000
00000000
00000000
,
00000000
00000000
00000000
00000000
,
00000000
00000000
00000000
00000000
,
00000000
00000000
00000000
00000000
,
00000000
00000000
00000000
00000000
,
00001000
00011000
00100000
00110000
,
00001000
00011000
00000010
00001010
,
00011000
00101000
00011000
00010010
,
00020000
00032000
00203000
00320000
,
10030000
00000000
00000000
00000000
,
02000000
00000000
03100000
01100000
,
10000000
01000000
00100000
00010000
,
01000000
00001000
00010000
00000100
,
00000010
00000001
00001000
00000010
,
00000100
00000001
00000022
00000033
,
00000010
00000100
00001000
00000010
,
00010000
00001000
01000000
00100000
,
10000000
00000000
00000000
01000000
00000000
00000000
00010000
00000000
,
00002000
00000000
00003000
00011000
,
00001000
00010000
01000000
10000000
,
00100000
00010000
00100000
10000000
,
01000000
00010000
00001000
00000100
,
00000110
00000000
00000000
00001010
00000000
00000000
00010010
00000000
,
00010000
00001000
00000100
00000001
,
00000010
00001000
00000010
00000001
,
00000100
00001000
00010000
01000000
,
10000000
00000000
00100000
00000000
,
02000000
00000000
00100000
00100000
,
00010000
00010000
03001000
00011000
,
00020000
00000000
00000100
00000000
,
00001000
00001000
00030010
00000000
,
00000210
00000000
00000010
00000000
,
00001000
00000001
00000310
00000000
,
00000001
00000000
00000000
00001000
00000000
00000000
00000010
00000000
,
00010000
00001000
00022000
00033000
,
00001000
00010000
00100000
01000000
,
00001000
00010000
01000000
10000000
,
00100000
00010000
00001000
00010000
,
00011000
00000000
00000000
00010100
00000000
00000000
00000000
00000000
,
00000110
00000000
00000000
00000011
00000000
00000000
00001000
00000000
,
00000010
00000000
00000000
00010010
00000000
00000000
00011000
00000000
,
00020000
00230000
02300000
03020000
,
00130000
00110000
01100000
11000000
,
20000000
30000000
02000000
03000000
,
00020000
00030000
00002000
00003000
,
00000020
00000030
00000002
00000003
,
00000100
00000100
00000010
00000010
,
00002000
00003100
00020000
00031000
,
00200000
00310000
02000000
03100000
,
10000000
10000000
01000000
01000000
,
00010000
00010000
00001000
00001000
,
00011000
00101000
00011000
00000000
,
00011000
00010010
00011000
00000000
,
00001001
00000000
00000000
00000000
00000001
00001000
00000001
00000000
,
00000100
00000100
00000001
00000011
,
00000010
00000100
00001000
00000010
,
00010000
00001000
01000000
00010000
,
00100000
00010000
00100000
00000000
01000000
10000000
01000000
00000000
,
10000000
00010000
10000000
00010000
10000000
00010000
10000000
00000000
,
02000000
00000000
00000000
03100000
,
00000000
00000000
00000000
00000000
,
00000000
00000000
00000000
00000000
,
00000000
00000000
00000000
00000000
,
00000000
00000000
00000000
00000000
,
00001000
00001000
00010000
00010000
,
00000010
00000010
00001000
00001000
,
00000100
00000100
00010000
00010000
,
00011000
00101000
00011000
00000000
,
00001000
00011000
00000010
00001010
,
00000001
00000000
00000010
00000000
00000100
00001000
00000100
00000000
,
00010000
00011000
00000010
00001010
,
00000001
00000000
00000010
00000000
00000100
00001000
00000100
00000000
,
00010000
00011000
00100000
00110000
,
10000000
00000000
00100000
00000000
01000000
00010000
01000000
00000000
,
00001000
00011000
00100000
00110000
,
20000000
30200000
02300000
03002000
,
00023000
00032000
00003020
00000031
,
00002002
00000000
00000000
00000000
00000000
00000000
00000003
00000000
00000000
00003000
00000000
00000000
00000000
00000000
00000000
00000000
,
00000220
00000000
00000000
00000000
00000000
00000000
00000030
00000000
00000000
00000300
00000000
00000000
00000000
00000000
00000000
00000000
,
00000000
00001001
00000001
00000010
,
00000100
00000000
00001000
00000001
00001000
00000000
00000010
00000000
,
00010000
00001000
00000100
00001000
,
00010000
00001000
00100000
01000000
,
20000000
00100000
00010000
31000000
,
00020000
01000000
10000000
00130000
,
10000000
01000000
00010000
00001000
,
00000010
00000001
00000100
00000010
,
00002002
00000000
00000000
00003003
,
00000002
00000023
00000230
00020300
,
00031000
00000100
00000001
00000001
,
00000010
00001000
00010000
00100000
,
10000000
10000000
01000000
00010000
,
00001000
00001000
00010000
00010000
,
00000200
00000000
00000320
00000000
,
00002030
00000000
00023000
00000000
,
00031000
01001000
01010000
01100000
,
11000000
01100000
01010000
01001000
,
00001000
00001000
00010000
00010000
,
01000000
01000000
10000000
10000000
,
00100000
00100000
01000000
01000000
,
00001000
00010000
00000100
00000010
,
00000002
00000000
00000000
00000003
,
00000100
00001000
00010000
01000000
,
00200000
00000000
00000000
00000000
,
00000000
00000000
00000000
00000000
,
00300000
00000000
00000000
00000000
,
00000000
00000000
00000000
00000000
;
#NOTES:
     dance-double:
     :
     Medium:
     13:
     :
00000000
00000000
00000000
00000000
,
00000000
00000000
00000000
00000000
,
00000000
00000000
00000000
00000000
,
00000000
00000000
00000000
00000000
,
00000000
00000000
00000000
00000000
,
00000000
00000000
00000000
00000000
,
00000000
00000000
00000000
00000000
,
00000000
00000000
00000000
00000000
,
00001000
00000000
00000000
00001000
00000000
00000000
00001000
00000000
00010000
00000000
00000000
00010000
00000000
00000000
00010000
00000000
,
00000100
00000000
00000000
00000100
00000000
00000000
00000100
00000000
00001000
00000000
00000000
00001000
00000000
00000000
00001000
00000000
,
00000001
00000100
00000001
00000100
00000010
00001000
00000010
00001000
,
00000100
00010000
00001000
00100000
00010000
01000000
00100000
10000000
,
10010000
00000000
00000000
00000000
,
00100000
01000000
00100000
01100000
,
10010000
00000000
10000000
01000000
00100000
00001000
00010000
00000000
,
00001000
00000000
00010000
00000100
00000010
00000001
00001000
00000000
,
00000001
00000100
00000010
00000000
00010000
00001000
01000000
00000000
,
00010000
00100000
01000000
10000000
00100000
01000000
00010000
00000000
,
10010000
00000000
10000000
00100000
01000000
00001000
00010000
00000000
,
00000100
00000000
00000010
00000100
00001000
00000010
00010000
00000000
,
00001000
00000000
00000000
01000000
00000000
00000000
00100000
00000000
00000000
10000000
00000000
00000000
00010000
00000000
10000000
00000000
,
02000000
03100000
00002000
00013000
,
00001000
00000000
00000000
00000010
00000000
00000000
00000001
00000000
00000100
00000000
00000000
00000010
00000000
00000000
00001000
00000000
,
00000001
00000000
00000000
00000100
00000000
00000000
00001000
00000000
00010000
00000000
00100000
00000000
01000000
00000000
00000000
00000000
,
00001000
00000000
00000000
00010000
00000000
00000000
01000000
00000000
10000000
00000000
00000000
00010000
00000000
00000000
01000000
00000000
,
00001000
00000000
00000000
01010000
00000000
00000000
01100000
00000000
00000000
01010000
00000000
00000000
01000000
00000000
00001000
00000000
,
00010000
00000000
00000000
01000000
00000000
00000000
10000000
00000000
00100000
00000000
00000000
01000000
00000000
00000000
00010000
00000000
,
10000000
00000000
00000000
01000000
00000000
00000000
00010000
00000000
00001000
00000000
00000010
00000000
00000100
00000000
00000000
00000000
,
00010000
00000000
00000000
00001000
00000000
00000000
00000100
00000000
00000001
00000000
00000000
00000010
00000000
00000000
00000100
00000000
,
00002000
00000000
00000002
00003003
,
00000110
00000000
00000000
00000000
,
00001001
00011000
02200000
03300000
,
10010000
00000000
00010000
00010000
01000000
00000000
00100000
00010000
,
00001000
00100000
00100000
00010000
00010000
00000000
00110000
00000000
,
00101000
00000000
00001000
00001000
00010000
00000000
00000010
00001000
,
00000100
00000100
00000010
00000010
00000002
00000000
00002003
00000000
,
00003010
00000000
00010000
00001000
00000000
01000000
00010000
00000000
,
10000000
01000000
00100000
00001000
00010000
00000000
00011000
00000000
,
00001000
00000010
00000001
00001000
00000010
00000100
00000001
00000000
,
00000010
00000100
00001000
00000010
00010000
00001000
00010000
00000000
,
01000000
10000000
00010000
01000000
00100000
00010000
00001000
00000000
,
00011000
00000000
00000000
00010000
00000000
00000000
00000100
00000000
00002000
00000000
00000000
00000000
00003000
00000000
00000000
00000000
,
00010100
00000000
00000000
00001001
00000000
00000000
00010010
00000000
00000000
00011000
00000000
00000000
00000000
00000000
00000000
00000000
,
01001000
00000000
00000000
10010000
00000000
00000000
00101000
00000000
00000000
00011000
00000000
00000000
00000000
00000000
00000000
00000000
,
00002000
00000000
00000000
00003000
,
00010000
00001000
00000100
00000010
00010000
00001000
00000010
00000100
,
00010000
00001000
00000100
00000001
,
00000010
00001000
00010000
01000000
,
10000000
00100000
00010000
00001000
,
00010000
00000000
00001000
00010000
00000000
00000000
00001000
00000000
00010000
00001000
00000000
00000000
,
00010000
00000100
00000010
00000001
,
00000100
00001000
00010000
00001000
,
01000000
00000000
01000000
00010000
00000000
00010000
00100000
00000000
00100000
01000000
00000000
01000000
,
10000000
00000000
10000000
00010000
00000000
00010000
01000000
00000000
00000000
00100000
00000000
00000000
,
01010000
00000000
00000000
00000000
01001000
00000000
00000000
00000000
00001000
00000000
00000000
00010000
00000000
00000000
01000000
00000000
,
00010000
00000000
00000000
00001000
00000000
00000000
00010000
00000000
00000010
00000000
00001000
00000000
00000100
00000000
00000000
00000000
,
00000010
00000000
00000000
00001000
00000000
00000000
00010000
00000000
00001000
00000000
01000000
00000000
00010000
00000000
00000000
00000000
,
00100000
00100000
00001000
00001000
00010000
00001000
00011000
00000000
,
00001000
00000100
00000001
00000000
00000001
00000010
00001000
00000000
,
00010000
00001000
01000000
00000000
00010000
00100000
01000000
00000000
,
10000000
01000000
10000000
00100000
10000000
01000000
10000000
00100000
,
00010000
00001000
00010000
00000010
00010000
00001000
00010000
00000100
,
00000020
00000000
00000000
00001030
,
00000000
00000000
00000000
00000000
,
00000000
00000000
00000000
00000000
,
00000000
00000000
00000000
00000000
,
00000000
00000000
00000000
00000000
,
00010000
00001000
00010000
00001000
00100000
00010000
00100000
00010000
,
01000000
00100000
01000000
00100000
00010000
00001000
00010000
00001000
,
00010000
00000100
00000010
00001000
00000010
00000001
00000100
00001000
,
00020000
00032000
00203000
02300000
,
13000000
01000000
00100000
00000000
00010000
01000000
00100000
00000000
,
00010000
00001000
00010000
01000000
00010000
00001000
00100000
00000000
,
00010000
01000000
10000000
00000000
01000000
00010000
00100000
00000000
,
00001000
00010000
00001000
00000010
00000001
00000100
00000010
00000000
,
00010000
00001000
01000000
00000000
00100000
10000000
00010000
00000000
,
10000000
01000000
00010000
00001000
00010000
00001000
00000100
00000000
,
00000001
00000010
00000100
00000000
00001000
00000010
00000100
00000000
,
00001000
00010000
00100000
01000000
00010000
00100000
01000000
10000000
,
00020000
02030000
03002000
00013000
,
00001000
00000000
00000000
00010000
00000000
00000000
01000000
00000000
00000000
00100000
00000000
00000000
00000000
00000000
00001000
00000000
,
00010000
00000000
00000000
00001000
00000000
00000000
00000100
00000000
00000000
00000010
00000000
00000000
00000000
00000000
00000000
00000000
,
00010000
00000000
00011000
00000000
00001000
01000000
00100000
00010000
,
00001000
00010000
00000100
00010000
00001000
00010000
01000000
00100000
,
00010000
01000000
00100000
00010000
00001000
00010000
00001000
00000010
,
00000100
00001000
00000010
00000100
00001000
00010000
01000000
00000000
,
10000000
00100000
00010000
00001000
,
00020000
00000010
00001000
00030100
,
00010000
00001000
00100000
00000000
00001000
00010000
00100000
00000000
,
00010000
00001000
00100000
00010000
10000000
00100000
00010000
00000000
,
00022000
00000000
00000000
00033000
,
00020000
00030200
00000320
00000032
,
00001003
00001000
00001000
00000000
00000010
00000000
00010000
00000000
,
00001000
00001000
00001000
00000000
01000000
00000000
00010000
00000000
,
00100000
00100000
00100000
00000000
00010000
00000000
10000000
00000000
,
01000000
01000000
01000000
00000000
00110000
00000000
00101000
00000000
,
00002000
00003020
00000032
00000203
,
00002300
00023000
02030000
23000000
,
30010000
01000000
00100000
01000000
00010000
00100000
,
00001000
00010000
00001000
00000000
01000000
00000000
00010000
00100000
00010000
00000000
10000000
00000000
,
00100000
01100000
00010000
00110000
,
00001000
00011000
00000100
00001100
,
00000010
00000110
00000001
00000011
,
00000010
00000100
00001000
00000010
00010000
00001000
00010000
01000000
,
20000000
00000000
00000000
30000000
,
00100000
10000000
01000000
00000000
00010000
00001000
00000100
00000000
,
00000020
00000000
00000000
00000000
,
00000000
00000000
00000000
00000000
,
00000030
00000000
00000000
00000000
,
00000000
00000000
00000000
00000000
;
#NOTES:
     dance-double:
     :
     Hard:
     16:
     :
00000000
00000000
00000000
00000000
,
00000000
00000000
00000000
00000000
,
00000000
00000000
00000000
00000000
,
00000000
00000000
00000000
00000000
,
00000000
00000000
00000000
00000000
,
00000000
00000000
00000000
00000000
,
00000000
00000000
00000000
00000000
,
00000000
00000000
00000000
00000000
,
00001000
00000000
00000000
00010000
00000000
00000000
00000100
00000000
00001000
00000000
00000000
00000010
00000000
00000000
00000001
00000000
,
00000010
00000000
00000000
00000100
00000000
00000000
00000001
00000000
00000010
00000000
00000000
00001000
00000000
00000000
00010000
00000000
,
00001000
00000000
00100000
00010000
00100000
00000000
00001000
00010000
00001000
00000000
01000000
00010000
10000000
00000000
00010000
00100000
,
01000000
00000000
10000000
00000000
00100000
00000000
01000000
00000000
00010000
10000000
00010000
10000000
00010000
00100000
01000000
10000000
,
00010000
00000000
00000000
00000000
,
01000000
01000000
00100000
00100000
10000000
00000000
10010000
00000000
,
00010000
00000000
00100000
00000000
01000000
10000000
01000000
00000000
00100000
00010000
00100000
00000000
01000000
00000000
00010000
00000000
,
00001000
00000000
00000010
00000000
00000001
00000010
00000001
00000000
00001000
00000100
00001000
00000000
00000001
00000000
00000100
00000000
,
00000010
00000000
00001000
00000100
00000000
00010000
00001000
00000000
00010000
00000000
00100000
00000000
10000000
00000000
00100000
00000000
,
01000000
00000000
00010000
00000000
10000000
01000000
00100000
00000000
00010000
00100000
00001000
00000000
00010000
00000000
00000000
00000000
,
00001000
00000000
00000010
00000000
00000001
00000010
00000001
00000000
00001000
00000100
00001000
00000000
00000010
00000000
00010000
00000000
,
00001000
00000000
01000000
00000000
00010000
00100000
00010000
00000000
10000000
01000000
10000000
00000000
00100000
00000000
00010000
00000000
,
00001000
00000000
00010000
00000100
00000000
00000010
00000001
00000000
00001000
00000010
00000000
00000100
00000001
00000000
00001000
00000000
,
00000002
00000023
00000230
00020300
00032000
02003000
03100000
00000000
,
10000000
00000000
00000000
00100000
00000000
00000000
00010000
00000000
00001000
00000000
00000000
00010000
00000000
00000000
01000000
00000000
,
00010000
00000000
00000000
00001000
00000000
00000000
00000100
00000000
00000001
00000000
00000010
00000000
00000100
00000000
00001000
00000000
,
00000010
00000000
00000000
00010000
00000000
00000000
00001000
00000000
00010000
00000000
00000000
01000000
00000000
00000000
10000000
00000000
,
10100000
00000000
00000000
01010000
00000000
00000000
00101000
00000000
00000000
00011000
00000000
00000000
00010000
00000000
00000100
00000000
,
00000010
00000000
00000000
00000001
00000000
00000000
00000100
00000000
00001000
00000000
00000000
00010000
00000000
00000000
00100000
00000000
,
00010000
00000000
00000000
00001000
00000000
00000000
00010000
00000000
01000000
00000000
10000000
00000000
00100000
00000000
00010000
00000000
,
00001000
00000000
00000000
01000000
00000000
00000000
00010000
00000000
00100000
00000000
01000000
00000000
00010000
00000000
00001000
00000000
,
00000200
00000000
00000000
00000300
,
00001001
00000000
00000000
00000000
00000000
00000000
00000001
00000100
00000000
00000010
00000000
00000100
00000000
00000010
00001000
00000000
,
00000001
00000011
00002200
00003300
,
00010100
00000000
00000000
00000000
00000000
00000000
00010000
00001000
00000000
00100000
00010000
00100000
00000000
00001000
00010000
00001000
,
00000000
00010000
00001000
00010000
00001000
00010000
00001000
00010000
00001000
00000000
00010000
00000000
01000000
00000000
10000000
00000000
,
10100000
00000000
00000000
00000000
00000000
00000000
00100000
01000000
00000000
00010000
10000000
00010000
00000000
01000000
00100000
01000000
,
00000000
00010000
10000000
00010000
10000000
00010000
10000000
00010000
10000000
00000000
00000000
00000000
01000000
00000000
00100000
00000000
,
00010000
00000000
10000000
01000000
00000000
00010000
00001000
00000000
,
00000010
00000001
00001000
00000010
00000200
00000000
00000302
00000000
,
00000013
00000100
00001000
00000001
00000100
00001000
00010000
00100000
,
01000000
00001000
00010000
01000000
10000000
00010000
01000000
00100000
,
00010000
00001000
00000100
00000010
00010000
00001000
00000010
00000001
,
00001001
00000000
00000000
00001100
00000000
00000000
00000101
00000000
00000020
00000000
00000000
00000000
00000000
00000000
00000030
00000000
,
00000110
00000000
00000000
00001010
00000000
00000000
00010010
00000000
00000000
00011000
00000000
00000000
00000000
00000000
00000000
00000000
,
01001000
00000000
00000000
10100000
00000000
00000000
01010000
00000000
00000000
10010000
00000000
00000000
00000000
00000000
00000000
00000000
,
10000000
00100000
00010000
00000000
00001000
00000100
00000001
00000000
,
00000010
00000100
00010000
00001000
00000100
00001000
00010000
01000000
,
10000000
00100000
00010000
00001000
,
00100000
01000000
10000000
01000000
,
00020000
00001000
00030020
00000100
,
00002030
00000100
00003001
00000010
,
00001001
00000000
00000000
00000001
00000000
00000100
00000010
00000000
00010000
00000000
00000000
00001000
,
00010000
00100000
10000000
00010000
,
12000000
03100000
00210000
00301000
,
00012000
01003000
02010000
03100000
,
10100000
00000000
00000000
00000000
01010000
00000000
00000000
00000000
01000000
00000000
00000000
00100000
00000000
00000000
00010000
00000000
,
00011000
00000000
00000000
00010010
00000000
00000000
00010000
00000000
00001000
00000000
00000010
00000000
00000001
00000000
00000000
00000000
,
00000101
00000000
00000000
00001010
00000000
00000000
00001000
00000001
00001000
00000000
00000100
00000000
00000010
00000000
00000000
00000000
,
00000001
00000000
00001000
00000000
00000010
00000000
00010000
00000000
00001000
00000000
00010000
00001000
00010000
00000000
00000000
00000000
,
00010000
01000000
10000000
00100000
00010000
00100000
10000000
01000000
,
00010000
00001000
00000010
00000001
00000100
00001000
00000100
00000001
,
00000010
00000000
00000100
00001000
00000001
00000000
00001000
00000100
00000010
00000000
00000001
00000000
00001000
00000010
00000100
00000000
,
00000010
00000000
00010000
00000000
00001000
00000000
00010000
00000000
00001000
00010000
00001000
00010000
00001000
00010000
00001000
00010000
,
00002000
00000000
00000000
00013000
,
00000000
00000000
00000000
00000000
,
00000000
00000000
00000000
00000000
,
00000000
00000000
00000000
00000000
,
00000000
00000000
00000000
00000000
,
00001000
00001000
00010000
00010000
00100000
00100000
01000000
01000000
,
00001000
00001000
00010000
00010000
01000000
01000000
00100000
00100000
,
00001000
00010000
00000010
00001000
00000100
00010000
00001000
00000100
,
00000001
00000000
00000000
00000100
00000010
00000000
00000000
00010000
00001000
00000000
00000000
01000000
00100000
00000000
00000000
00000000
,
10100000
00000000
00000000
00000000
10010000
00000000
00000000
00000000
01010000
00000000
00000000
00000000
10000000
01000000
00100000
00000000
,
00001000
00000000
00010000
00000000
00000010
00000000
00000100
00000000
00000001
00000000
00001000
00000100
00000010
00000000
00000000
00000000
,
00000011
00000000
00000000
00000000
00001001
00000000
00000000
00000000
00001100
00000000
00000000
00000000
00000001
00000100
00000010
00000000
,
00010000
00000000
00001000
00000000
00100000
00000000
01000000
00000000
10000000
00000000
00010000
01000000
00100000
00000000
00000000
00000000
,
11000000
00000000
00000000
00000000
10010000
00000000
00000000
00000000
00110000
00000000
00000000
00000000
10000000
00100000
01000000
00000000
,
00001000
00000000
00010000
00000000
00000100
00000000
00000010
00000000
00000001
00000000
00001000
00000010
00000100
00000000
00000000
00000000
,
00000101
00000000
00000000
00000000
00001001
00000000
00000000
00000000
00001010
00000000
00000000
00000000
00000001
00000010
00000100
00000000
,
00010000
00000000
00001000
00000000
01000000
00100000
10000000
00000000
00010000
00000000
10000000
01000000
00100000
00000000
00001000
00000000
,
00010000
00001000
00000100
00000010
00001000
00000100
00000010
00001000
,
00011000
00000000
00000000
00010100
00000000
00000000
00011000
00000000
00000000
01001000
00000000
00000000
00000000
00000000
00000000
00000000
,
01100000
00000000
00000000
10100000
00000000
00000000
01010000
00000000
00000000
10010000
00000000
00000000
00000000
00000000
10000000
01000000
,
00010000
00000000
00000110
00000000
00001001
00000000
00000001
00001000
,
00000001
00000100
00000010
00000000
00010000
00000000
00001000
00000000
00000100
00000000
00001000
00000000
00010000
00000000
00100000
00000000
,
01000000
00010000
10000000
00000000
01000000
10000000
00010000
00000000
01000000
00000000
00100000
00000000
00010000
00000000
00001000
00000000
,
00010000
00001000
00010000
00000000
00000100
00001000
00000100
00000000
00010000
00000000
00001000
00000000
00000010
00000000
00000000
00000000
,
00000001
00000000
00000000
00000000
00000100
00000000
00000000
00000000
00001000
00000000
00000000
00000100
00000000
00000000
00000020
00000000
,
00001000
00000001
00001000
00010030
,
00010000
00001000
00000100
00001000
00010000
01000000
00010000
00001000
,
01000000
00100000
10000000
00000000
20020000
00000000
30030000
00000000
,
10000000
00000000
00000000
10000000
00000000
00000000
00010000
00000000
00000000
00010000
00000000
00000000
10000000
00000000
00100000
00000000
10000000
00000000
00010000
00000000
01000000
00000000
00010000
00000000
,
20000000
32000000
03020000
00032000
,
00013000
00000000
00000100
00000000
00000100
00001000
00000001
00000000
00000001
00000000
00000100
00000000
00000010
00000000
00001000
00000000
,
00000100
00000000
00010000
00000000
00010000
00001000
00100000
00000000
00100000
00000000
00010000
00000000
00010000
00000000
10000000
00100000
,
01000000
01000000
00100000
00100000
00010000
00010000
00001000
00001000
,
00000010
00000010
00000001
00000001
00000100
00000100
00001000
00001000
,
00010000
00001000
00100000
00010000
01000000
00100000
10000000
01000000
10000000
00100000
01000000
00010000
,
00100000
00001000
00010000
00001000
00010000
00000100
00001000
00000010
00000100
00000001
00000010
00000001
,
00001000
00000001
00000100
00001000
00010000
01000000
,
10000000
00100000
01000000
00000000
00001000
00000000
00010000
00000100
00000010
00000000
00000001
00000000
,
00000100
00000000
00000001
00000010
00000000
00001000
00010000
00000000
,
00001000
01000000
00000000
00100000
10000000
00000000
10010000
00000000
,
00010000
00000000
01000000
00100000
00000000
00010000
00001000
00000000
,
00010000
00000000
00010000
00000000
00001000
00000000
00001000
00000000
00010000
00001000
00010000
00000100
00001000
00000100
00000010
00000100
,
00002000
00000000
00000000
00003000
,
00000010
00000000
00010000
00001000
01000000
00000000
00010000
10000000
01000000
00000000
00100000
00010000
10000000
00000000
00000000
00000000
,
00200000
00000000
00000000
00000000
,
00000000
00000000
00000000
00000000
,
00300000
00000000
00000000
00000000
,
00000000
00000000
00000000
00000000
;
