
//----- song ID: raom -----//
#TITLE:Rain On Me;
#ARTIST:Lady Gaga & Ariana Grande;
#BANNER:Rain On Me.png;
#BACKGROUND:Rain On Me-bg.png;
#CDTITLE:./CDTitles/DDR WORLD.png;
#MUSIC:Rain On Me.ogg;
#SAMPLESTART:88.806;
#SAMPLELENGTH:15;
#BPMS:0=123;
#NOTES:
     dance-single:
     :
     Beginner:
     1:
     :
0000
0000
0000
0000
,
0000
0000
0000
0000
,
0000
0000
0000
0000
,
0000
0000
0000
0000
,
0000
0000
0000
0000
,
0000
0000
0000
0000
,
1000
0000
0000
0000
,
1000
0000
0000
0000
,
0001
0000
0000
0000
,
0001
0000
0000
0000
,
1000
0000
1000
0000
,
0000
0000
0000
0000
,
0001
0000
0001
0000
,
0000
0000
0000
0000
,
0010
0000
0010
0000
,
0000
0000
0000
0000
,
0100
0000
0100
0000
,
0000
0000
0000
0000
,
1000
0000
0000
0000
,
1000
0000
0000
0000
,
0001
0000
0000
0000
,
0001
0000
0000
0000
,
1000
0000
0000
0000
,
0001
0000
0000
0000
,
1000
0000
0000
0000
,
0001
0000
0000
0000
,
1000
0000
1000
0000
,
1000
0000
0000
0000
,
0001
0000
0001
0000
,
0001
0000
0000
0000
,
1000
0000
0000
0000
,
0001
0000
0000
0000
,
1000
0000
1000
0000
,
1000
0000
0000
0000
,
0001
0000
0000
0000
,
1000
0000
0000
0000
,
0001
0000
0000
0000
,
1000
0000
0000
0000
,
0010
0000
0000
0000
,
0010
0000
0000
0000
,
0100
0000
0000
0000
,
0100
0000
0000
0000
,
0001
0000
0000
0000
,
0001
0000
0000
0000
,
1000
0000
0000
0000
,
1000
0000
0000
0000
,
0001
0000
0001
0000
,
0001
0000
0000
0000
,
1000
0000
1000
0000
,
1000
0000
0000
0000
,
0001
0000
0000
0000
,
1000
0000
0000
0000
,
0001
0000
0001
0000
,
0001
0000
0000
0000
,
1000
0000
0000
0000
,
1000
0000
0000
0000
,
0001
0000
0000
0000
,
0001
0000
0000
0000
,
0100
0000
0000
0000
,
0100
0000
0000
0000
,
0010
0000
0000
0000
,
0010
0000
0000
0000
,
0100
0000
0000
0000
,
0000
0000
0000
0000
;
#NOTES:
     dance-single:
     :
     Easy:
     4:
     :
0000
0000
0000
0000
,
0000
0000
0000
0000
,
0000
0000
0000
0000
,
0000
0000
0000
0000
,
0000
0000
0000
0000
,
0000
0000
0000
0000
,
1000
0000
0001
0000
,
0020
0000
0030
0000
,
0001
0000
0010
0000
,
0100
0000
1000
0000
,
0000
1000
0000
1000
,
0000
0100
0000
0100
,
0000
0010
0000
0010
,
0000
0001
0000
0001
,
0000
1000
0000
0010
,
0000
0100
0000
0001
,
0000
0010
0000
0100
,
0000
1000
0000
0001
,
1000
0010
0100
0000
,
0001
0010
0100
0000
,
0000
1000
0000
1000
,
0000
0001
0000
0001
,
1000
0100
0010
0000
,
0001
0100
0010
0000
,
0000
1000
0000
1000
,
0000
0001
0000
1001
,
0000
1000
0001
0010
,
0000
0001
1000
0010
,
0100
0000
0100
0000
,
0010
0000
0010
0000
,
0000
0100
0010
1000
,
0000
0100
0010
0001
,
1000
0000
1000
0000
,
0001
0000
0001
0000
,
2000
0000
3000
0000
,
0200
0000
0300
0000
,
0020
0000
0030
0000
,
0002
0000
0003
0000
,
1000
0100
1000
0000
,
0020
0000
0030
0000
,
0100
0001
0100
0000
,
0020
0000
0030
0000
,
1000
0010
0100
0000
,
0001
0100
0010
0000
,
1000
0000
1000
0000
,
0002
0000
0003
0000
,
1000
0010
0100
0001
,
0010
0001
1000
0000
,
0001
0010
0001
0000
,
1000
0010
1000
0000
,
0001
0010
0100
1000
,
0010
1000
0001
0000
,
1000
0100
1000
0000
,
0001
0100
0001
0000
,
1000
0100
0010
0001
,
0010
0100
1000
0000
,
0100
0000
0010
0010
,
0001
0000
1000
1000
,
0001
0010
0100
1000
,
0100
0010
0001
0000
,
0010
0000
0100
0100
,
1000
0000
0001
0001
,
1000
0000
0000
0000
,
0000
0000
0000
0000
;
#NOTES:
     dance-single:
     :
     Medium:
     8:
     :
0000
0000
0000
0000
,
0000
0000
0000
0000
,
0000
0000
0000
0000
,
0000
0000
0000
0000
,
0000
0000
0000
0000
,
0000
0000
0000
0000
,
1000
0000
0001
0000
0100
0000
0010
0100
,
0010
0000
1000
0001
0000
0000
0000
0000
,
0001
0000
1000
0000
0010
0000
0100
0010
,
0100
0000
0001
0010
0001
0000
1000
0000
,
0001
0101
0000
0011
,
0000
0000
1000
0000
0001
0000
1000
0000
0100
0000
0000
0100
0000
0000
0100
0000
,
0000
1100
0000
1010
,
0000
0000
0001
0000
1000
0000
0001
0000
0100
0000
0000
0100
0000
0000
0100
0000
,
0000
0110
0000
1001
,
0000
0000
0001
0000
1000
0000
0100
0000
0010
0000
0000
0010
0000
0000
0001
0000
,
0000
0101
0000
1010
,
0000
0000
1000
0000
0001
0000
0100
0000
0010
0000
0000
0010
0000
0000
0000
0000
,
1000
0100
0010
0001
0000
0000
1000
0000
,
0001
0010
0100
1000
0000
0000
0001
0000
,
0000
0011
0000
0110
,
0000
1100
0000
1001
,
0001
0100
0010
1000
0000
0000
0001
0000
,
1000
0010
0100
0001
0000
0000
1000
0000
,
0000
1100
0000
0110
,
0001
1000
0001
1000
,
0001
0100
1000
0100
,
0010
1000
0100
0010
,
0001
0010
1000
0010
,
0100
1000
0001
0000
,
1000
0100
0001
0100
,
0010
0001
1000
0100
,
1000
0010
0001
0010
,
0100
0001
1000
0000
,
0002
0010
0000
1003
,
2000
0010
0000
3001
,
0020
0100
0000
0130
,
0200
0010
0000
0310
,
0001
0100
0001
0000
1000
0000
0001
0000
,
1000
0100
1000
0000
0001
0000
1000
0000
,
0010
0100
0010
0000
1000
0000
0001
0000
,
0010
0100
0010
0000
0001
0000
1000
0002
,
0000
1000
2003
0000
0200
0000
3300
0000
,
1000
0000
0100
0000
0010
0000
0001
2000
,
0000
0001
3002
0000
2003
0000
3100
0000
,
2200
3300
0000
0000
0022
0033
0000
0000
,
0001
0010
0100
1000
0000
0001
0000
0000
,
1000
0100
0010
0000
0002
0000
0003
1000
,
0100
1000
0000
0010
0000
0010
0000
0100
,
0001
0100
0000
0010
0000
0010
0000
0000
,
1000
0100
0010
0001
0000
1000
0000
0000
,
0001
0010
0100
0000
2000
0000
3000
0001
,
0100
0001
0000
0010
0000
0010
0000
0000
,
0011
0000
1100
0000
,
1000
0000
1000
0000
0010
1000
0100
0000
,
0010
0000
0010
0000
0001
0100
0010
0000
,
2000
0010
0000
3001
,
0002
0010
0000
1003
,
0001
0000
0001
0000
0010
0001
0100
0000
,
0010
0000
0010
0000
1000
0010
0100
0000
,
0020
0100
0000
1030
,
1010
0000
0101
0000
,
1001
0000
0000
0000
,
0000
0000
0000
0000
;
#NOTES:
     dance-single:
     :
     Hard:
     12:
     :
0000
0000
0000
0000
,
0000
0000
0000
0000
,
0000
0000
0000
0000
,
0000
0000
0000
0000
,
0000
0000
0000
0000
,
0000
0000
0000
0000
,
0000
0001
0100
0001
0100
0000
0010
1000
,
0100
0000
0010
0200
0000
0000
0300
0000
,
0000
1000
0100
0001
0100
0000
0010
0001
,
0100
0000
0000
0000
0010
0000
1000
0000
0100
0000
0000
0010
0000
0000
0010
0000
,
0001
0000
0000
1000
0000
0000
0001
0000
0000
1000
0000
0000
0010
0000
0000
0000
,
0000
0000
1000
0000
0100
0000
0001
0000
0100
0000
0000
0010
0000
0000
0010
0000
,
0001
0000
0000
1000
0000
0000
0001
0000
0000
1000
0000
0000
0100
0000
0000
0000
,
0000
0000
1000
0000
0010
0000
0001
0000
0010
0000
0000
1000
0000
0000
1000
0000
,
0010
0000
0000
0100
0000
0000
0010
0000
0000
0100
0000
0000
0001
0000
0000
0000
,
0000
0000
1000
0000
0001
0000
0010
0000
0100
0000
0000
1000
0000
0000
1000
0000
,
0010
0000
0000
0100
0000
0000
0010
0000
0000
0100
0000
0000
0001
0000
0000
0000
,
0000
0000
1000
0000
0001
0000
0100
0000
0010
0000
0000
1000
0000
0000
0001
0000
,
0001
0100
1000
0100
0000
0010
0000
1000
,
0100
0001
0100
0010
0002
0000
0003
1000
,
0010
0100
0000
0101
0000
1010
0000
0001
,
0100
0010
0000
1010
0000
0101
0000
1000
,
1000
0100
0001
0100
0000
0010
0000
0001
,
0100
1000
0100
0010
2000
0000
3000
0001
,
0100
1000
0000
1000
0100
0001
1000
0000
,
1100
0000
0000
0000
0022
0033
0000
0000
1010
0000
0000
0000
0202
0303
0000
0000
,
1000
0000
0100
0010
0000
0010
0100
0000
0010
0000
0001
0000
0100
0000
1000
0000
,
0100
0000
0010
1000
0000
0010
1000
0000
0002
0000
0000
0000
0023
0000
0000
0000
,
0031
0000
0100
0010
0000
0010
0100
0000
0010
0000
1000
0000
0100
0000
0001
0000
,
0100
0000
0010
0001
0000
0010
0001
0000
1000
0000
0001
0000
0100
0000
0202
0303
,
0000
0000
0001
1000
0000
1000
0100
0000
0010
0000
0001
0000
0010
0000
0100
0000
,
1000
0000
0001
0100
0000
0001
0100
0000
0010
0000
0001
0000
0010
0000
1000
0000
,
0001
0000
1000
0100
1000
0000
0001
0010
0001
0000
0200
0000
0000
0000
0300
0000
,
0010
0000
0000
1000
0000
0000
0001
0000
0000
0000
0100
0000
0010
0000
1000
0000
,
0002
1000
0100
0010
,
2003
0001
0010
0100
,
3020
1000
0100
0001
,
0230
0000
0010
0000
1000
0000
0301
0002
,
0000
0013
0020
0100
0230
0000
1300
0000
,
0000
0001
0010
0001
1000
0100
1000
2000
,
0000
3100
0200
0010
0320
0000
0031
0000
,
0000
1000
0100
1000
0100
0001
0100
2000
,
0000
3010
0010
0001
0020
0000
1030
0000
,
0001
0000
1000
0100
0000
0010
0001
0000
0100
0000
0001
0000
0010
0000
0002
0000
,
0000
0013
0010
1000
0010
0001
0200
0000
,
2000
3000
0300
0000
0200
0000
0000
0000
0002
0003
0300
0000
0200
0000
0000
0000
,
0301
0000
0100
1000
0000
1000
0100
0000
0010
0000
0100
0000
0010
0000
1000
0000
,
0001
0000
0010
1000
0000
1000
0010
0000
0100
0000
1000
0000
0010
0000
0100
0010
,
0100
0000
0010
0000
0000
0000
1000
0010
0000
0000
0100
0001
0000
0000
0010
0100
,
0010
0000
0100
0000
0000
0000
1000
0100
0000
0000
0010
0001
0000
0000
0001
0000
,
1000
0000
0100
0001
0000
0001
0100
0000
0010
0000
0100
0000
0010
0000
0001
0000
,
1000
0000
0010
0001
0000
0001
0010
0000
0100
0000
0001
0000
0010
0000
0100
0010
,
0100
0000
0010
0000
0000
0000
0001
0010
0000
0000
0100
1000
0000
0000
0001
0000
,
2000
0010
3002
0100
,
1003
0100
0100
0010
0001
0010
0100
1000
,
0200
0000
0000
0000
0310
0000
0100
0000
1000
0000
0000
0010
0000
0000
0100
0000
,
0001
0000
0100
0010
0000
1000
0100
0000
0010
0000
0001
0000
0010
0000
0100
0000
,
1000
0000
0010
0100
0000
0001
0010
0000
0100
0000
1000
0000
0100
0000
0010
0000
,
0001
0010
0010
0100
1000
0100
0010
0001
,
0020
0000
0000
0000
0130
0000
0010
0000
0001
0000
0000
0010
0000
0000
0100
0000
,
1000
0000
0010
0100
0000
0001
1000
0000
0010
0000
0001
0000
0010
0000
0200
0000
,
0002
0003
0300
0000
0200
0000
0000
0000
2000
3000
0300
0000
0200
0000
0000
0000
,
0301
0000
0000
0000
,
0000
0000
0000
0000
;
#NOTES:
     dance-double:
     :
     Easy:
     4:
     :
00000000
00000000
00000000
00000000
,
00000000
00000000
00000000
00000000
,
00000000
00000000
00000000
00000000
,
00000000
00000000
00000000
00000000
,
00000000
00000000
00000000
00000000
,
00000000
00000000
00000000
00000000
,
10000000
00000000
00010000
00000000
,
00200000
00000000
00300000
00000000
,
00010000
00000000
00100000
00000000
,
00001000
00000000
00010000
00000000
,
00000000
00000100
00000000
00000100
,
00000000
00000010
00000000
00000010
,
00000000
00000001
00000000
00000001
,
00000000
00001000
00000000
00001000
,
00000000
00000100
00000000
00010000
,
00000000
00001000
00000000
00100000
,
00000000
00010000
00000000
00100000
,
00000000
01000000
00000000
10000000
,
00100000
01000000
00010000
00000000
,
00010000
00100000
00001000
00000000
,
00000000
00010000
00000000
00010000
,
00000000
00001000
00000000
00001000
,
00000100
00000010
00001000
00000000
,
00001000
00000100
00010000
00000000
,
00000000
00001000
00000000
00001000
,
00000000
00010000
00000000
00011000
,
00000000
00010000
00001000
00100000
,
00000000
00010000
10000000
01000000
,
00000000
00100000
00001000
00010000
,
00000000
00001000
00010000
00000010
,
00000000
00001000
00000001
00000100
,
00000000
00000010
00010000
00001000
,
00010000
00000000
00010000
00000000
,
00001000
00000000
00001000
00000000
,
00020000
00000000
00030000
00000000
,
00200000
00000000
00300000
00000000
,
20000000
00000000
30000000
00000000
,
02000000
00000000
03000000
00000000
,
00100000
00010000
00100000
00000000
,
00002000
00000000
00003000
00000000
,
00010000
00001000
00010000
00000000
,
00000200
00000000
00000300
00000000
,
00000010
00000100
00001000
00000000
,
00000010
00000100
00000001
00000000
,
00001000
00000000
00001000
00000000
,
00000002
00000000
00000003
00000000
,
00000001
00000100
00000010
00010000
,
00001000
00100000
00010000
00000000
,
00010000
00100000
00010000
00000000
,
10000000
00100000
10000000
00000000
,
10000000
01000000
00100000
00001000
,
00010000
00000010
00001000
00000000
,
00000001
00000100
00000001
00000000
,
00001000
00000100
00001000
00000000
,
00000010
00000100
00001000
00010000
,
00001000
00010000
00100000
00000000
,
01000000
00000000
00010000
00000000
,
10000000
00000000
01000000
00000000
,
00100000
01000000
00010000
00001000
,
00010000
00001000
00000010
00000000
,
00000100
00000000
00001000
00000000
,
00000001
00000000
00000100
00000000
,
00000010
00000000
00000000
00000000
,
00000000
00000000
00000000
00000000
;
#NOTES:
     dance-double:
     :
     Medium:
     8:
     :
00000000
00000000
00000000
00000000
,
00000000
00000000
00000000
00000000
,
00000000
00000000
00000000
00000000
,
00000000
00000000
00000000
00000000
,
00000000
00000000
00000000
00000000
,
00000000
00000000
00000000
00000000
,
10000000
01000000
00100000
00010000
,
00100000
00000000
00001000
00010000
00000000
00000000
00000000
00000000
,
00001000
00000000
00010000
00000000
00000100
00000000
00000010
00000100
,
00000010
00000000
00000001
00000100
00000001
00000000
00001000
00000000
,
00000100
00010100
00000000
00011000
,
00000000
00000000
00001000
00000000
00010000
00000000
00001000
00000000
01000000
00000000
00000000
00100000
00000000
00000000
01000000
00000000
,
00000000
01001000
00000000
00011000
,
00000000
00000000
00010000
00000000
00001000
00000000
00010000
00000000
00000100
00000000
00000000
00000010
00000000
00000000
00000100
00000000
,
00000000
00000110
00000000
00001001
,
00000000
00000000
00001000
00000000
00000100
00000000
00010000
00000000
00001000
00000000
00000000
01000000
00000000
00000000
01000000
00000000
,
00000000
01100000
00000000
10010000
,
00000000
00000000
00010000
00000000
00100000
00000000
00001000
00000000
00010000
00000000
00000000
00001000
00000000
00000000
00000000
00000000
,
00100000
00000000
00000000
00001000
00000000
00000000
00010000
00000000
00000000
00000000
00000000
00000000
00010000
00000000
00000000
00000000
,
00000010
00000000
00000000
00010000
00000000
00000000
00001000
00000000
00000000
00000000
00000000
00000000
00001000
00000000
00000000
00000000
,
00000000
00011000
00000000
00110000
,
00000000
10100000
00000000
11000000
,
10000000
00000000
00000000
01000000
00000000
00000000
00100000
00000000
00000000
00000000
00000000
00000000
00001000
00000000
00000000
00000000
,
00010000
00000000
00000000
00000100
00000000
00000000
00000010
00000000
00000000
00000000
00000000
00000000
00000100
00000000
00000000
00000000
,
00000000
00001100
00000000
00000011
,
00000001
00001000
00000001
00001000
,
00000001
00000100
00001000
00010000
,
00001000
00100000
01000000
10000000
,
01000000
00010000
00001000
00010000
,
00000100
00000010
00000001
00000000
,
00000001
00000100
00001000
00010000
,
00100000
10000000
01000000
10000000
,
01000000
00010000
00001000
00010000
,
00000010
00000100
00000001
00000000
,
00000002
00000010
00000000
00000103
,
00000200
00000010
00000000
00001300
,
00002000
00010000
00000000
00103000
,
00200000
01000000
00000000
00310000
,
10000000
01000000
00100000
00010000
,
00100000
00010000
00001000
00000100
,
00000010
00000100
00000010
00000000
00000001
00000000
00001000
00000000
,
00000010
00000100
00000010
00000000
00001000
00000000
00000100
00020000
,
00000000
00001000
00032000
00000000
00200000
00000000
00303000
00000000
,
00100000
00000000
01000000
00000000
00100000
00000000
00001000
00020000
,
00000000
00001000
00032000
00000000
00203000
00000000
02000000
00000000
,
03300000
01100000
00000000
10010000
,
10000000
00100000
01000000
00010000
00000000
00010000
00000000
00000000
,
00100000
00001000
00010000
00000000
00002000
00000000
00003000
00100000
,
01000000
00100000
00000000
00001000
00000000
00010000
00000000
00000010
,
00000100
00000010
00000000
00010000
00000000
00001000
00000000
00000000
,
00010000
00001000
00000100
00000010
00000000
00001000
00000000
00000000
,
00000010
00010000
00001000
00000000
00020000
00000000
00030000
00000010
,
00000100
00000010
00000000
00010000
00000000
00001000
00000000
00000000
,
00011000
00000000
00110000
00000000
,
10000000
00000000
10000000
00000000
00100000
01000000
00010000
00000000
,
00100000
00000000
00100000
00000000
00001000
00010000
00000100
00000000
,
00000020
00000100
00000000
00000031
,
00000002
00000100
00000000
00001003
,
00000001
00000000
00000001
00000000
00000010
00000100
00001000
00000000
,
00000010
00000000
00000010
00000000
00010000
00001000
01000000
00000000
,
00200000
01000000
00000000
10300000
,
10100000
00000000
01010000
00000000
,
10010000
00000000
00000000
00000000
,
00000000
00000000
00000000
00000000
;
#NOTES:
     dance-double:
     :
     Hard:
     12:
     :
00000000
00000000
00000000
00000000
,
00000000
00000000
00000000
00000000
,
00000000
00000000
00000000
00000000
,
00000000
00000000
00000000
00000000
,
00000000
00000000
00000000
00000000
,
00000000
00000000
00000000
00000000
,
10000000
01000000
00010000
00001000
,
00000010
00000000
00000001
00002000
00000000
00000000
00003000
00000000
,
00000000
00000001
00000100
00001000
00000100
00000000
00000010
00010000
,
00001000
00000000
00000000
00000000
00100000
00000000
00010000
00000000
01000000
00000000
00000000
00100000
00000000
00000000
00100000
00000000
,
00010000
00000000
00000000
00001000
00000000
00000000
00000100
00000000
00000000
00001000
00000000
00000000
00010000
00000000
00000000
00000000
,
00000000
00000000
00100000
00000000
01000000
00000000
10000000
00000000
01000000
00000000
00000000
00100000
00000000
00000000
00100000
00000000
,
00010000
00000000
00000000
00001000
00000000
00000000
00000100
00000000
00000000
00000001
00000000
00000000
00000010
00000000
00000000
00000000
,
00000000
00000000
00000001
00000000
00000010
00000000
00001000
00000000
00000010
00000000
00000000
00000100
00000000
00000000
00000100
00000000
,
00010000
00000000
00000000
00001000
00000000
00000000
00010000
00000000
00000000
00100000
00000000
00000000
01000000
00000000
00000000
00000000
,
00000000
00000000
00010000
00000000
00100000
00000000
10000000
00000000
00100000
00000000
00000000
00010000
00000000
00000000
00010000
00000000
,
00100000
00000000
00000000
00010000
00000000
00000000
00001000
00000000
00000000
00000100
00000000
00000000
00000010
00000000
00000000
00000000
,
00000000
00000000
00000001
00000000
00000100
00000000
00000010
00000000
00001000
00000000
00000000
00001000
00000000
00000000
00000001
00000000
,
00000001
00000100
00001000
00010000
00000000
00001000
00000000
00010000
,
00010000
00100000
10000000
00010000
02000000
00000000
03000000
00010000
,
00100000
00010000
00000000
11000000
00000000
00110000
00000000
00010000
,
00001000
00000100
00000000
00001100
00000000
00000011
00000000
00000001
,
00000001
00000010
00001000
00010000
00000000
00001000
00000000
00010000
,
00010000
01000000
10000000
00010000
02000000
00000000
03000000
00010000
,
00100000
00001000
00000000
00010000
00000000
00000010
00001000
00000000
,
00000101
00000000
00000000
00000000
00002020
00003030
00000000
00000000
00011000
00000000
00000000
00000000
00220000
00330000
00000000
00000000
,
10000000
00000000
01000000
00100000
00000000
00100000
01000000
00000000
00100000
00000000
00001000
00000000
00010000
00000000
00000010
00000000
,
00000100
00000000
00000001
00000010
00000000
00000010
00000001
00000000
00000200
00000000
00000000
00000000
00002300
00000000
00000000
00000000
,
00013000
00000000
00001000
00010000
00000000
00001000
00010000
00000000
00100000
00000000
10000000
00000000
01000000
00000000
00010000
00000000
,
00001000
00000000
00010000
00001000
00000000
00010000
00001000
00000000
00000010
00000000
00000001
00000000
00000100
00000000
00000202
00000303
,
00000000
00000000
00000001
00001000
00000000
00001000
00000010
00000000
00000100
00000000
00001000
00000000
00010000
00000000
00100000
00000000
,
10000000
00000000
00010000
10000000
00000000
10000000
01000000
00000000
00100000
00000000
00010000
00000000
00001000
00000000
00000100
00000000
,
00010000
00000000
00001000
00010000
00001000
00000000
00010000
00001000
00010000
00000000
00000200
00000000
00000000
00000000
00000300
00000000
,
00000010
00000000
00000000
00000001
00000000
00000000
00001000
00000000
00000000
00000000
00000100
00000000
00010000
00000000
00001000
00000000
,
00020000
00001000
00000100
00000010
,
00032000
00010000
00100000
01000000
,
00203000
01000000
10000000
00010000
,
02300000
00000000
00100000
00000000
10000000
00000000
03010000
00020000
,
00000000
00031000
00002000
00000010
00003020
00000000
00000031
00000000
,
00000000
00000001
00000100
00001000
00010000
00100000
10000000
02000000
,
00000000
03010000
00020000
00001000
00032000
00000000
00013000
00000000
,
00000000
00001000
00000010
00000001
00000100
00001000
00010000
00002000
,
00000000
00103000
00100000
00010000
00200000
00000000
01300000
00000000
,
10000000
00000000
00010000
10000000
00000000
01000000
00100000
00000000
00010000
00000000
00001000
00000000
00000100
00000000
00002000
00000000
,
00000000
00003010
00000010
00001000
00000100
00010000
00002000
00000000
,
00020000
00030000
00003000
00000000
00002000
00000000
00000000
00000000
00000020
00000030
00003000
00000000
00002000
00000000
00000000
00000000
,
00013000
00000000
00100000
01000000
00000000
01000000
00100000
00000000
10000000
00000000
01000000
00000000
00010000
00000000
00001000
00000000
,
00000010
00000000
00000001
00000100
00000000
00000100
00000001
00000000
00000100
00000000
00001000
00000000
00010000
00000000
00100000
00000000
,
10000000
00000000
01000000
00000000
00000000
00000000
00100000
00010000
00000000
00000000
00100000
00010000
00000000
00000000
01000000
00000000
,
00001000
00000000
00010000
00000000
00000000
00000000
00000010
00001000
00000000
00000000
00000010
00001000
00000000
00000000
00000001
00000000
,
00000100
00000000
00000010
00001000
00000000
00001000
00000100
00000000
00010000
00000000
00001000
00000000
01000000
00000000
00100000
00000000
,
10000000
00000000
01000000
00100000
00000000
00100000
01000000
00000000
00100000
00000000
00001000
00000000
00010000
00000000
00000100
00000000
,
00000010
00000000
00000001
00000000
00000000
00000000
00000100
00000010
00000000
00000000
00000100
00000010
00000000
00000000
00010000
00000000
,
00002000
00100000
00023000
00000100
,
00031000
00100000
00100000
00010000
01000000
10000000
01000000
00010000
,
00200000
00000000
00000000
00000000
00310000
00000000
00001000
00000000
00000100
00000000
00000000
00000010
00000000
00000000
00000100
00000000
,
00001000
00000000
00000001
00000100
00000000
00000010
00001000
00000000
00010000
00000000
01000000
00000000
10000000
00000000
01000000
00000000
,
00010000
00000000
10000000
01000000
00000000
00100000
00010000
00000000
00001000
00000000
00000100
00000000
00000001
00000000
00000100
00000000
,
00001000
00000100
00000100
00001000
00000010
00000001
00000010
00001000
,
00000020
00000000
00000000
00000000
00001030
00000000
00010000
00000000
01000000
00000000
00000000
00100000
00000000
00000000
01000000
00000000
,
00010000
00000000
10000000
00100000
00000000
01000000
00010000
00000000
00100000
00000000
00001000
00000000
00010000
00000000
00002000
00000000
,
00020000
00030000
00003000
00000000
00002000
00000000
00000000
00000000
00000020
00000030
00003000
00000000
00002000
00000000
00000000
00000000
,
00013000
00000000
00000000
00000000
,
00000000
00000000
00000000
00000000
;
