
//----- song ID: rabb -----//
#VERSION:0.83;
#TITLE:ラビットホール;
#ARTIST:DECO*27;
#TITLETRANSLIT:Rabbit hole;
#BANNER:Rabbit hole.png;
#BACKGROUND:Rabbit hole-bg.png;
#CDTITLE:./CDTitles/Polaris Chord.png;
#MUSIC:Rabbit hole.ogg;
#SAMPLESTART:35.696;
#SAMPLELENGTH:15;
#BPMS:0=173;
#NOTEDATA:;
#STEPSTYPE:dance-single;
#DIFFICULTY:Beginner;
#METER:3;
#NOTES:
0000
0000
0000
0000
,
0000
0000
0000
0000
,
0000
0000
0000
0000
,
0000
0000
0000
0000
,
0001
0000
1000
0000
,
0001
0000
0000
0000
,
1000
0000
0001
0000
,
1000
0000
0000
0000
,
0010
0000
0000
0000
,
0100
0000
0000
0000
,
0010
0000
0000
0000
,
1000
0000
0000
0000
,
0001
0000
1000
0000
,
0001
0000
0000
0000
,
0100
0000
0000
0000
,
0010
0000
0100
0000
,
0010
0000
0000
0000
,
1000
0000
1000
0000
,
1000
0000
0000
0000
,
0001
0000
0001
0000
,
0001
0000
0000
0000
,
1000
0000
0001
0000
,
1000
0000
0000
0000
,
0010
0000
0100
0000
,
0010
0000
0000
0000
,
1000
0000
0000
0000
,
0001
0000
0000
0000
,
1000
0000
0100
0000
,
1000
0000
0100
0000
,
0010
0000
0001
0000
,
0010
0000
0001
0000
,
1000
0000
0001
0000
,
1000
0000
0001
0000
,
0100
0000
0010
0000
,
0100
0000
0000
0000
,
0001
0000
0100
0000
,
0001
0000
0100
0000
,
0010
0000
1000
0000
,
0010
0000
1000
0000
,
0001
0000
1000
0000
,
0001
0000
1000
0000
,
0100
0000
0010
0000
,
0100
0000
0000
0000
,
0000
0000
0000
0000
,
1000
0000
0001
0000
,
1000
0000
0000
0000
,
0001
0000
1000
0000
,
0001
0000
0000
0000
,
0002
0000
0003
0000
,
2000
0000
3000
0000
,
0001
0000
1000
0000
,
1001
0000
0000
0000
,
2000
0000
3000
0000
,
0002
0000
0003
0000
,
0100
0000
0010
0000
,
0100
0000
0000
0000
,
0010
0000
0000
0000
,
0110
0000
0000
0000
,
0010
0000
1000
0000
,
0010
0000
0000
0000
,
0100
0000
0001
0000
,
0100
0000
0000
0000
,
0001
0000
1000
0000
,
0001
0000
0000
0000
,
0100
0000
0001
0000
,
0100
0000
0000
0000
,
0010
0000
1000
0000
,
0010
0000
0000
0000
,
1000
0000
0001
0000
,
1000
0000
0000
0000
,
0001
0000
1000
0000
,
0001
0000
0000
0000
,
0100
0000
0010
0000
,
1001
0000
0000
0000
,
0000
0000
0000
0000
,
0010
0000
0000
0000
,
1000
0000
0000
0000
,
0010
0000
0000
0000
,
0100
0000
0000
0000
,
0001
0000
0000
0000
,
1000
0000
0001
0000
,
1000
0000
0000
0000
,
1001
0000
0000
0000
,
1000
0000
0000
0000
,
0100
0000
0000
0000
,
1000
0000
0000
0000
,
0001
0000
0000
0000
,
0100
0000
0000
0000
,
0010
0000
0100
0000
,
0010
0000
0000
0000
,
0110
0000
0000
0000
;
#NOTEDATA:;
#STEPSTYPE:dance-single;
#DIFFICULTY:Easy;
#METER:6;
#NOTES:
0000
0000
0000
0000
,
0000
0000
0000
0000
,
0000
0000
0000
0000
,
0000
0000
0000
0000
,
1000
0000
0001
0000
,
1000
0001
1000
0000
,
0001
0000
1000
0000
,
0001
1000
0001
0000
,
0000
1000
0000
0000
0001
0000
0000
0000
,
0100
0010
0100
0001
,
0000
1000
0000
0000
0001
0000
0000
0000
,
0010
0100
0010
0100
,
1000
0001
1000
0000
,
0001
0010
0100
1000
,
0001
0000
1000
0000
0001
0000
0000
0100
,
0000
0100
0010
0100
,
0001
1000
0001
1000
,
0010
0100
0010
0100
,
0001
0000
1000
0000
0000
1001
0000
0000
,
1000
0100
1000
0100
,
0010
0000
0100
0000
0000
0110
0000
0000
,
0100
1000
0001
0000
,
1000
0010
0100
0001
,
1000
0000
0001
0000
1000
0000
0000
0100
,
0000
0100
1000
0001
,
1000
0000
0001
0000
,
1000
1000
0001
0001
,
1000
0100
1000
0000
,
0001
0100
0001
0000
,
0100
0010
0100
0000
,
0010
1000
0010
0000
,
1000
0000
0001
0000
,
1000
0000
0001
0000
,
1000
0001
1000
0001
,
0010
0100
0010
0000
,
0001
0010
0001
0000
,
1000
0010
1000
0000
,
0010
0100
0010
0000
,
0100
0001
0100
0000
,
0001
0000
1000
0000
,
0001
0000
1000
0000
,
0001
1000
0001
1000
,
0100
0010
0100
0000
,
0000
0000
0000
0000
,
1000
0100
0010
0001
,
1000
0010
0100
0000
,
0001
0010
0100
1000
,
0001
0100
0010
0000
,
2000
0000
3001
0000
,
1000
0000
0001
0000
,
1000
0000
0001
0000
,
1000
0001
1000
1001
,
0002
0000
1003
0000
,
0001
0000
1000
0000
,
0001
0100
0001
0100
,
0010
1000
0010
1000
,
0001
0000
0000
0000
,
1000
0000
0001
0000
,
0100
0010
0100
0000
,
0001
1000
0001
0000
,
0010
0100
0010
0000
,
0001
1000
0001
0000
,
1000
0000
0001
0000
,
0100
0000
0010
0000
,
1000
0001
0010
0100
,
1000
0001
1000
0000
,
0010
0100
0010
0000
,
1000
0001
1000
0000
,
0100
0010
0100
0000
,
1000
0001
1000
0000
,
0001
0000
1000
0000
,
0010
0000
0100
0000
,
0001
1000
0100
0010
,
0001
1000
0001
0000
,
0000
0000
0000
0000
,
1000
0000
0001
0000
,
1000
0001
1000
0001
,
0100
0000
0010
0000
,
0100
0010
0100
0010
,
1000
0000
0001
0000
,
0010
0100
0010
0100
,
1000
0000
0001
0000
,
0100
0010
0110
0000
,
0001
0000
1000
0000
,
0001
1000
0001
1000
,
0010
0000
0100
0000
,
0010
0100
0010
0100
,
0001
0000
1000
0000
,
0100
0010
0100
0010
,
0001
0000
1000
0000
,
0010
0000
0100
0000
0110
0000
0000
1001
;
#NOTEDATA:;
#STEPSTYPE:dance-single;
#DIFFICULTY:Medium;
#METER:10;
#NOTES:
0000
0000
0000
0000
,
0000
0000
0000
0000
,
0000
0000
0000
0000
,
0000
0000
0000
0000
,
0001
0100
0001
0100
,
0010
0000
1000
0000
0010
0100
0010
0000
,
1000
0100
1000
0100
,
0010
0000
0001
0000
0010
0100
0010
0000
,
0000
0001
0100
0000
0100
0010
0000
1000
,
0001
0010
0100
1000
,
0000
0010
0100
0000
0100
0001
0000
0010
,
0100
1000
0001
0100
,
0001
0000
0100
0000
0010
1000
0000
0100
,
0010
0100
1000
0001
,
0100
0000
0010
0000
0100
0000
0000
0001
,
0000
1000
0001
0000
0010
0000
0100
0000
,
1000
0010
0100
0001
,
1000
1000
0001
0001
,
1000
0100
0010
0001
0000
1000
0001
0000
,
1000
1000
0001
0001
,
1000
0010
0100
0001
0000
0010
0100
0000
,
1000
0000
0001
0000
0100
0010
0000
1000
,
0001
1000
0001
0100
,
0010
0000
0100
0000
0010
0000
0000
1000
,
0000
0100
1000
0000
0001
0000
0010
0000
,
0001
0100
0010
1000
,
1001
1001
0110
1001
,
1000
0000
0001
0000
0100
0010
0100
0000
,
0001
0000
1000
0000
0100
0010
0100
0000
,
1000
0000
0100
0000
0010
0001
0010
0000
,
0001
0000
0100
0000
0010
1000
0010
0000
,
1000
0100
0010
0001
,
1000
0001
1000
0000
0010
0100
0010
0000
,
1000
0001
0010
0100
,
1000
0000
0001
0000
0010
0100
1000
0000
,
0001
0000
1000
0000
0010
0100
0010
0000
,
1000
0000
0001
0000
0010
0100
0010
0000
,
0001
0000
0010
0000
0100
1000
0100
0000
,
1000
0000
0010
0000
0100
0001
0100
0000
,
0001
0010
0100
1000
,
0001
1000
0001
0000
0100
0010
0100
0000
,
0001
1000
0100
0010
,
0001
0000
1000
0000
0100
0010
0001
0000
,
0000
0000
0000
0000
,
1000
0010
0100
0001
,
0010
0000
0100
0000
1000
0001
1000
0000
,
0001
0100
0010
1000
,
0100
0000
0010
0000
0001
1000
0001
0000
,
2000
0000
3001
0000
0100
0100
0000
0002
,
0000
1003
0000
0001
0010
0010
0000
0000
,
0001
0001
0000
0000
1000
1000
0000
0000
,
0010
0100
0010
1001
,
0002
0000
1003
0000
0010
0010
0000
2000
,
0000
3001
0000
1000
0100
0100
2000
0000
,
3010
0010
0100
0100
,
0101
0011
1010
1000
,
0001
0000
0000
0000
,
1000
0100
0010
0001
,
0100
0000
0010
0000
1000
0001
1000
0000
,
0100
0000
0010
0000
0001
1000
0001
0000
,
0100
0000
0001
0000
1000
0010
1000
0000
,
0100
0000
0010
0000
0001
1000
0001
0000
,
1000
0010
0100
0001
,
1000
0001
1000
0000
0100
0010
0100
0000
,
1000
0001
0010
0100
,
1000
0000
0001
0000
0100
0010
1000
0000
,
0010
0000
0100
0000
0001
1000
0001
0000
,
0010
0000
0100
0000
1000
0001
1000
0000
,
0010
0000
1000
0000
0001
0100
0001
0000
,
0010
0000
0100
0000
1000
0001
1000
0000
,
0001
0100
0010
1000
,
0001
1000
0001
0000
0010
0100
0010
0000
,
0001
1000
0100
0010
,
0001
0000
1000
0000
0010
0100
0001
0000
,
0000
0000
0000
0000
,
1000
0100
0010
0001
,
0100
0010
0100
0000
0010
0100
0010
0000
,
1000
0001
0010
0100
,
1000
0001
1000
0000
0010
0100
0010
0000
,
1000
0100
0010
0001
,
0010
0100
1100
1001
,
0101
0000
0000
0100
0010
0000
0100
0000
,
0001
1000
0001
1000
0100
0000
0000
0000
,
1000
0010
0100
0001
,
0010
0100
0010
0000
0100
0010
0100
0000
,
1000
0001
0100
0010
,
1000
0001
1000
0000
0100
0010
0100
0000
,
1000
0010
0100
0001
,
0100
0010
1010
1001
,
0011
0000
0000
0010
0100
0000
0010
0000
,
0001
0000
1000
0000
0010
0100
0000
1001
;
#NOTEDATA:;
#STEPSTYPE:dance-single;
#DIFFICULTY:Hard;
#METER:15;
#BPMS:0=173,192=86.5,210=173;
#DISPLAYBPM:86:173;
#NOTES:
0000
0000
0000
0000
,
0000
0000
0000
0000
,
0000
0000
0000
0000
,
0000
0000
0000
0000
,
1000
0000
0001
0100
0001
0000
0100
0000
0010
0000
1000
0100
1000
0000
0100
0000
,
1000
0010
0100
0001
1000
0001
1001
0000
,
0001
0000
1000
0100
1000
0000
0100
0000
0010
0000
0001
0100
0001
0000
0100
0000
,
0001
0010
0100
1000
0001
1000
0100
0010
,
0000
0001
0100
0001
0100
0110
0000
1000
,
0100
0010
0001
1000
1100
0000
0011
0000
,
0000
1000
0010
1000
0001
0101
0000
0001
,
0010
0100
1000
0001
1010
0000
0101
0000
,
0001
0000
0010
0000
0100
0010
0000
0001
,
0100
0001
1000
0100
1000
0010
0100
0001
,
0101
0000
1010
0000
0110
0000
0000
0100
,
0000
0000
0001
0000
1000
0000
0100
0010
0100
0000
1000
0000
0001
0000
0010
0000
,
0100
1000
0001
1001
,
1000
0000
0010
0100
0010
0000
1000
0000
0001
0000
0010
0100
0010
0000
0001
0000
,
1000
0100
0010
0001
0000
1000
0010
0100
,
0001
0000
0100
0010
0100
0000
0001
0000
1000
0000
0100
0010
0100
0000
1000
0000
,
0001
0010
0100
1000
0000
0010
1000
0100
,
0110
0000
1001
0000
1000
0001
0000
1000
,
0010
1000
0001
0100
0001
0010
0100
1000
,
1010
0000
0101
0000
1001
0000
0000
1000
,
0000
0010
0100
0010
1000
0100
0010
0001
,
1000
0100
0010
0001
,
1100
0110
0011
1001
,
0001
0000
0100
0001
0100
0000
0010
0000
1000
0000
0001
1000
0001
0000
0010
0000
,
0100
0000
1000
0100
1000
0000
0100
0000
1000
0000
0001
1000
0001
0000
0100
0000
,
0010
0000
0100
0001
0100
0000
0100
0000
0001
0000
0010
0100
0010
0000
0001
0000
,
0100
0000
0010
1000
0010
0000
0010
0000
1000
0000
0001
1000
0001
0000
1000
0000
,
0001
0000
0010
0000
0100
0000
1000
0000
0001
0000
1000
0100
1000
0000
1000
0000
,
0001
0000
1000
0010
1000
0000
1000
0000
0001
0000
1000
0100
1000
0000
1000
0000
,
0010
0100
0010
0000
0100
0001
0100
0000
0001
1000
0001
0000
1000
0000
0100
0000
,
1000
0000
0001
0000
0010
0100
0010
0000
0001
0000
0100
0000
0010
0000
0000
0000
,
1000
0000
0100
1000
0100
0000
0010
0000
0001
0000
1000
0001
1000
0000
0010
0000
,
0100
0000
0001
0100
0001
0000
0100
0000
0001
0000
1000
0001
1000
0000
0100
0000
,
0010
0000
0100
1000
0100
0000
0100
0000
1000
0000
0010
0100
0010
0000
1000
0000
,
0100
0000
0010
0001
0010
0000
0010
0000
0001
0000
1000
0001
1000
0000
0001
0000
,
1000
0000
0010
0000
0100
0000
0001
0000
1000
0000
0001
0100
0001
0000
0001
0000
,
1000
0000
0001
0010
0001
0000
0001
0000
1000
0000
0001
0100
0001
0000
0001
0000
,
0010
0100
0010
0000
0100
1000
0100
0000
1000
0001
1000
0000
0001
0000
0100
0000
,
0001
0000
1000
0000
0010
0100
0010
0000
1000
0000
0100
0000
0010
0000
0000
0000
,
0000
0000
0000
0000
,
0001
0000
0010
0001
0010
0000
0001
0000
1000
0000
0010
1000
0010
0000
1000
0000
,
0001
0100
0010
1000
0001
1000
1001
0000
,
1000
0000
0100
1000
0100
0000
1000
0000
0001
0000
0100
0001
0100
0000
0001
0000
,
1000
0010
0100
0001
0010
0001
0100
0010
,
2000
0000
0000
0000
3100
0000
0010
0000
0001
0100
0001
0000
1000
0000
0002
0000
0000
0000
0103
0000
0010
0000
1000
0000
0100
0010
0100
0000
1000
0000
0001
0000
,
0100
0000
0000
0110
0000
0000
0000
0000
0000
1000
0000
0000
0100
0000
0000
0110
0000
0000
0000
0000
0000
0001
0000
0000
1000
0000
0001
0000
0100
0000
0001
0000
1000
0000
0100
0000
1000
0000
0000
0000
0000
0000
1001
0000
0000
0000
0000
0000
,
0002
0000
0000
0000
0013
0000
0100
0000
1000
0010
1000
0000
0001
0000
1000
0000
0001
0000
0100
0000
0010
0000
1000
0000
0100
0010
0100
0000
0020
0000
0000
0000
,
0031
0100
0010
0100
0001
1000
0001
0010
0100
1000
0010
0100
0001
0010
0001
1000
0100
1000
0001
0000
0000
1001
0000
0000
,
0110
0000
0101
1010
,
1100
0000
0000
0000
0011
0000
0000
0000
1000
0000
0010
0100
0010
0000
1000
0000
,
0001
0000
0010
0100
1000
0000
0001
0000
0100
0000
0010
1000
0010
0000
0100
0000
,
0001
0000
1000
0100
0010
0000
0001
0000
0100
0000
0001
1000
0001
0000
1000
0100
,
1000
0000
0100
0010
0100
0000
1000
0000
0010
0000
0100
0001
0100
0000
0010
1000
,
0010
0000
1000
0001
1000
0000
0001
0000
1000
0000
0100
0000
0010
0000
0001
0000
,
1000
0000
0100
0010
0001
0000
1000
0000
0001
0000
1000
0100
0010
0000
0001
0000
,
1000
0000
0001
0010
0100
0000
1000
0000
0001
0010
0001
0000
1000
0010
1000
0000
,
0010
0100
0010
0000
1000
0000
0001
0000
1000
0000
0100
0000
0010
0100
0010
0000
,
0001
0000
0100
0000
0110
0000
0000
0000
0001
0000
0100
0010
0100
0000
0001
0000
,
1000
0000
0100
0010
0001
0000
1000
0000
0010
0000
0100
0001
0100
0000
0010
0000
,
1000
0000
0001
0010
0100
0000
1000
0000
0010
0000
1000
0001
1000
0000
0001
0010
,
0001
0000
0010
0100
0010
0000
0001
0000
0100
0000
0010
1000
0010
0000
0100
0001
,
0100
0000
0001
1000
0001
0000
1000
0000
0001
0000
0010
0000
0100
0000
1000
0000
,
0001
0000
0010
0100
1000
0000
0001
0000
1000
0000
0001
0010
0100
0000
1000
0000
,
0001
0000
1000
0100
0010
0000
0001
0000
1000
0100
1000
0000
0001
0100
0001
0000
,
0100
0010
0100
0000
0001
0000
1000
0000
0001
0000
0010
0000
0100
0010
0100
0000
,
1000
0010
0110
0000
0000
0000
0000
0000
,
0000
0000
2000
3200
,
0320
0000
0032
0000
1003
0100
0001
0100
,
1000
0010
0100
0010
2000
0000
3200
0000
,
0320
0000
0032
0000
1003
0010
0001
0010
,
1000
0100
0010
0001
2000
0000
3200
0000
,
0320
0000
0032
0000
1003
0100
0001
0100
,
0110
0000
1100
0000
0101
0000
0000
1000
,
0010
1000
0010
0100
0001
1000
0100
0010
,
0001
0000
0100
0000
0010
0000
1000
0000
0001
0000
0000
0010
0100
0000
0010
0000
,
0001
0000
1000
0100
1000
0000
0001
0000
1000
0000
0100
0010
0100
0000
0010
0000
,
0001
0000
1000
0001
1000
0000
0010
0000
1000
0000
0000
0100
0010
0000
0100
0000
,
1000
0000
0001
0010
0001
0000
1000
0000
0001
0000
0100
0010
0100
0000
0010
0000
,
1000
0000
0001
1000
0001
0000
0100
0000
0001
0000
0000
0100
1000
0000
0100
0000
,
0010
0000
1000
0001
1000
0000
0100
0000
0010
0000
0001
1000
0100
0000
1000
0000
,
0001
0000
0010
0000
0100
0000
0000
0010
,
0100
0010
0001
1000
0001
0100
0010
1000
,
0001
0101
0000
1001
0000
0000
0000
0000
;
#NOTEDATA:;
#STEPSTYPE:dance-double;
#DIFFICULTY:Easy;
#METER:6;
#NOTES:
00000000
00000000
00000000
00000000
,
00000000
00000000
00000000
00000000
,
00000000
00000000
00000000
00000000
,
00000000
00000000
00000000
00000000
,
10000000
00000000
00010000
00000000
,
01000000
00001000
00010000
00000000
,
00001000
00000000
00010000
00000000
,
00000010
00001000
00000001
00000000
,
00000000
00000010
00000000
00000000
00000100
00000000
00000000
00000000
,
00001000
00000100
00001000
00000100
,
00000000
00010000
00000000
00000000
00001000
00000000
00000000
00000000
,
01000000
00010000
01000000
00010000
,
10000000
00010000
10000000
00000000
,
00010000
00000000
01000000
00000000
,
00001000
00000000
00010000
00000000
00001000
00000000
00000000
00010000
,
00000000
00000100
00001000
00000001
,
00001000
00000010
00001000
00000010
,
00010000
00001000
00010000
00001000
,
00100000
00000000
00010000
00000000
00000000
10010000
00000000
00000000
,
10000000
00100000
10000000
00010000
,
01000000
00000000
00001000
00000000
00000000
00011000
00000000
00000000
,
00010000
00000010
00001000
00000000
,
00000001
00000010
00000100
00001000
,
00000100
00000000
00010000
00000000
00001000
00000000
00000000
01000000
,
00000000
00010000
10000000
01000000
,
10000000
00000000
00010000
00000000
,
00100000
00100000
00001000
00001000
,
00010000
00000100
00001000
00000000
,
00000001
00000010
00000100
00000000
,
00001000
00000100
00010000
00000000
,
00001000
01000000
00010000
00000000
,
10000000
00000000
01000000
00000000
,
00010000
00000000
00001000
00000000
,
00010000
00000100
00010000
00000100
,
00001000
00000001
00001000
00000000
,
00000001
00000100
00000010
00000000
,
00001000
00000010
00010000
00000000
,
00001000
00100000
00010000
00000000
,
10000000
00010000
01000000
00000000
,
00001000
00000000
00010000
00000000
,
00000010
00000000
00000100
00000000
,
00000001
00001000
00000010
00010000
,
00001000
00100000
00010000
00000000
,
00000000
00000000
00000000
00000000
,
10000000
01000000
00100000
00010000
,
00100000
00001000
00010000
00000000
,
00000100
00001000
00000001
00000010
,
00000100
00001000
00000010
00000000
,
00020000
00000000
00031000
00000000
,
00001000
00000000
01000000
00000000
,
00010000
00000000
10000000
00000000
,
00010000
01000000
00001000
00011000
,
00002000
00000000
00013000
00000000
,
00010000
00000000
00000100
00000000
,
00001000
00000001
00001000
00000001
,
00001000
00000100
00010000
00001000
,
01000000
00000000
00000000
00000000
,
00010000
00000000
10000000
00000000
,
01000000
00100000
00010000
00000000
,
00100000
00001000
00010000
00000000
,
00000010
00001000
00000001
00000000
,
00000100
00000010
00001000
00000000
,
00000001
00000000
00000100
00000000
,
00001000
00000000
00010000
00000000
,
00001000
00100000
00010000
10000000
,
00010000
01000000
00001000
00000000
,
00010000
00000100
00001000
00000000
,
00000001
00000010
00000100
00000000
,
00001000
00000010
00010000
00000000
,
00001000
01000000
00010000
00000000
,
10000000
00000000
00100000
00000000
,
00010000
00000000
00001000
00000000
,
00010000
00000100
00001000
00000001
,
00000010
00000100
00000010
00000000
,
00000000
00000000
00000000
00000000
,
00000001
00000000
00001000
00000000
,
00000100
00010000
00000100
00010000
,
00001000
00000000
01000000
00000000
,
00010000
10000000
00010000
10000000
,
01000000
00000000
00100000
00000000
,
00010000
00100000
00001000
00010000
,
00001000
00000000
00010000
00000000
,
00000010
00001000
00000001
00000000
,
00000100
00000000
00000010
00000000
,
00001000
00000010
00010000
00001000
,
01000000
00000000
00010000
00000000
,
01000000
00100000
10000000
00010000
,
01000000
00000000
00001000
00000000
,
00010000
00000100
00001000
00000010
,
00000100
00000000
00000001
00000000
,
00001000
00000000
00000100
00000000
00010000
00000000
00000000
00011000
;
#NOTEDATA:;
#STEPSTYPE:dance-double;
#DIFFICULTY:Medium;
#METER:10;
#NOTES:
00000000
00000000
00000000
00000000
,
00000000
00000000
00000000
00000000
,
00000000
00000000
00000000
00000000
,
00000000
00000000
00000000
00000000
,
00000001
00000010
00000100
00001000
,
00000100
00000000
00010000
00000000
00001000
00010000
00001000
00000000
,
01000000
00010000
10000000
00100000
,
01000000
00000000
00010000
00000000
01000000
00001000
00010000
00000000
,
00000000
00000010
00001000
00000000
00001000
00000001
00000000
00000010
,
00000100
00001000
00000010
00010000
,
00000000
00001000
00100000
00000000
00100000
00010000
00000000
10000000
,
00100000
01000000
00010000
10000000
,
01000000
00000000
00010000
00000000
00001000
00000010
00000000
00000001
,
00001000
00000001
00000100
00000010
,
00000100
00000000
00001000
00000000
00010000
00000000
00000000
00001000
,
00000000
00010000
00001000
00000000
00010000
00000000
01000000
00000000
,
10000000
00100000
01000000
00010000
,
10000000
10000000
00010000
00010000
,
00100000
00001000
00010000
00000100
00000000
00001000
00000001
00000000
,
00001000
00001000
00000001
00000001
,
00000010
00000100
00001000
00000100
00000000
00010000
00001000
00000000
,
01000000
00000000
00010000
00000000
10000000
00100000
00000000
01000000
,
00010000
00100000
00001000
00010000
,
00001000
00000000
00000100
00000000
00000001
00000000
00000000
00001000
,
00000000
00000100
00000010
00000000
00000100
00000000
00010000
00000000
,
00001000
00100000
00010000
10000000
,
10010000
01010000
01001000
00011000
,
00001000
00000000
00010000
00000000
00000010
00001000
00000010
00000000
,
00000100
00000000
00000001
00000000
00001000
00000100
00001000
00000000
,
00000010
00000000
00010000
00000000
00001000
00010000
00001000
00000000
,
00100000
00000000
00010000
00000000
01000000
00100000
01000000
00000000
,
00010000
10000000
00100000
00010000
,
00001000
00010000
00001000
00000000
00000100
00000010
00000100
00000000
,
00000001
00000010
00001000
00010000
,
00001000
00000000
00100000
00000000
00010000
01000000
00100000
00000000
,
10000000
00000000
00010000
00000000
01000000
00100000
01000000
00000000
,
00001000
00000000
00010000
00000000
00000100
00000010
00000100
00000000
,
00001000
00000000
00000001
00000000
00000100
00000010
00000100
00000000
,
00000001
00000000
00000010
00000000
00001000
00010000
00001000
00000000
,
00010000
01000000
10000000
00010000
,
01000000
00001000
00010000
00000000
00000100
00010000
00001000
00000000
,
00010000
00000010
00001000
00000100
,
00001000
00000000
00000010
00000000
00010000
00001000
00010000
00000000
,
00000000
00000000
00000000
00000000
,
00001000
00100000
00010000
10000000
,
01000000
00000000
00010000
00000000
00001000
00010000
00001000
00000000
,
00010000
00000010
00001000
00000001
,
00000100
00000000
00001000
00000000
00010000
00001000
00010000
00000000
,
00000020
00000000
00001030
00000000
00000001
00000001
00000000
00000020
,
00000000
00000130
00000000
00001000
00000010
00000010
00000000
00000000
,
00010000
00010000
00000000
00000000
00001000
00001000
00000000
00000000
,
00010000
01000000
10000000
10010000
,
00020000
00000000
00130000
00000000
00001000
00001000
00000000
00020000
,
00000000
00030100
00000000
00001000
00000001
00000001
00000200
00000000
,
00000301
00000010
00001000
00010000
,
00011000
01001000
00011000
00010000
,
00000100
00000000
00000000
00000000
,
00001000
00000010
00010000
00001000
,
00010000
00000000
00001000
00000000
01000000
00010000
01000000
00000000
,
00100000
00000000
10000000
00000000
00010000
00100000
00010000
00000000
,
01000000
00000000
00001000
00000000
00010000
00001000
00010000
00000000
,
00000100
00000000
00001000
00000000
00000010
00000100
00000010
00000000
,
00001000
00000001
00000100
00001000
,
00010000
00001000
00010000
00000000
00100000
01000000
00100000
00000000
,
10000000
01000000
00010000
00001000
,
00010000
00000000
00000100
00000000
00001000
00000010
00000100
00000000
,
00000001
00000000
00001000
00000000
00000010
00000100
00000010
00000000
,
00010000
00000000
00001000
00000000
00100000
01000000
00100000
00000000
,
00010000
00000000
10000000
00000000
00100000
01000000
00100000
00000000
,
10000000
00000000
01000000
00000000
00010000
00001000
00010000
00000000
,
00001000
00000010
00000001
00001000
,
00000010
00010000
00001000
00000000
00100000
00001000
00010000
00000000
,
00001000
01000000
00010000
00100000
,
00010000
00000000
01000000
00000000
00001000
00010000
00001000
00000000
,
00000000
00000000
00000000
00000000
,
00010000
00001000
00000100
00000001
,
00001000
00000100
00001000
00000000
00000100
00010000
00001000
00000000
,
00010000
00100000
10000000
00010000
,
01000000
00100000
01000000
00000000
00100000
10000000
00010000
00000000
,
10000000
01000000
00010000
00001000
,
00010000
00000010
00001010
00001001
,
00000011
00000000
00000000
00000001
00000100
00000000
00000010
00000000
,
00001000
00000010
00001000
00000010
00010000
00000000
00000000
00000000
,
00001000
00010000
00100000
10000000
,
00010000
00100000
00010000
00000000
00100000
00001000
00010000
00000000
,
00001000
00000100
00000001
00001000
,
00000010
00000100
00000010
00000000
00000100
00000001
00001000
00000000
,
00000001
00000010
00001000
00010000
,
00001000
01000000
01010000
10010000
,
11000000
00000000
00000000
10000000
00100000
00000000
01000000
00000000
,
00010000
00000000
10000000
00000000
01000000
00010000
00000000
00001000
;
#NOTEDATA:;
#STEPSTYPE:dance-double;
#DIFFICULTY:Hard;
#METER:15;
#BPMS:0=173,192=86.5,210=173;
#DISPLAYBPM:86:173;
#NOTES:
00000000
00000000
00000000
00000000
,
00000000
00000000
00000000
00000000
,
00000000
00000000
00000000
00000000
,
00000000
00000000
00000000
00000000
,
00000001
00000000
00001000
00000010
00001000
00000000
00000010
00000000
00001000
00000000
00000100
00010000
00001000
00000000
00010000
00000000
,
00001000
00100000
00010000
10000000
00100000
10000000
10100000
00000000
,
10000000
00000000
00010000
01000000
00010000
00000000
01000000
00000000
00010000
00000000
00100000
00001000
00010000
00000000
00001000
00000000
,
00010000
00000100
00001000
00000001
00000010
00001000
00010000
01000000
,
00000000
10000000
00010000
01000000
00001000
00010000
00000000
00000010
,
00001000
00000100
00000010
00000001
00000011
00000000
00001100
00000000
,
00000000
00000001
00001000
00000100
00010000
00001000
00000000
01000000
,
00010000
00100000
01000000
10000000
11000000
00000000
00110000
00000000
,
10000000
00000000
01000000
00000000
00010000
00001000
00000000
00000100
,
00000010
00000100
00000001
00000010
00000001
00001000
00000100
00010000
,
00011000
00000000
01001000
00000000
01010000
00000000
00000000
10000000
,
00000000
00000000
00010000
00000000
01000000
00000000
00001000
00010000
00001000
00000000
00010000
00000000
00000100
00000000
00001000
00000000
,
00000001
00000100
00001000
00010000
,
00001000
00000000
01000000
00010000
01000000
00000000
00010000
00000000
10000000
00000000
01000000
00100000
01000000
00000000
10000000
00000000
,
01000000
00010000
00001000
00000010
00000000
00000001
00000100
00000001
,
00001000
00000000
00000010
00001000
00000010
00000000
00010000
00000000
00001000
00000000
00100000
00001000
00100000
00000000
00010000
00000000
,
10000000
01000000
00100000
00010000
00000000
10000000
00100000
01000000
,
01100000
00000000
01010000
00000000
01000000
00001000
00000000
00010000
,
00000010
00010000
00000100
00001000
00000100
00000010
00000001
00001000
,
00001100
00000000
00010100
00000000
00011000
00000000
00000000
00001000
,
00000000
00100000
00010000
01000000
00100000
01000000
00010000
10000000
,
00100000
00010000
00001000
00000100
,
00001010
00010010
00011000
00101000
,
00100000
00000000
00010000
00100000
00010000
00000000
10000000
00000000
01000000
00000000
00010000
00000000
00001000
00000000
00010000
00000000
,
00000100
00000000
00001000
00000100
00001000
00000000
00000100
00000000
00000010
00000000
00000001
00000000
00000100
00000000
00000010
00000000
,
00001000
00000000
00000100
00010000
00000100
00000000
00010000
00000000
00001000
00000000
01000000
00001000
01000000
00000000
00010000
00000000
,
10000000
00000000
00010000
10000000
00010000
00000000
01000000
00000000
00001000
00000000
00010000
00000100
00010000
00000000
00001000
00000000
,
00010000
00000000
00000010
00000000
00001000
00000000
00000100
00000000
00000010
00000000
00000001
00000010
00000001
00000000
00000001
00000000
,
00001000
00000000
00000100
00001000
00000100
00000000
00000100
00000000
00010000
00000000
00001000
00010000
00001000
00000000
00001000
00000000
,
00100000
00100000
00010000
00010000
10000000
01000000
00100000
00010000
,
10000000
01000000
00010000
00001000
00000100
00000001
00001000
00000000
,
00000100
00000000
00001000
00000100
00001000
00000000
00000001
00000000
00000010
00000000
00001000
00000000
00010000
00000000
00001000
00000000
,
00100000
00000000
00010000
00100000
00010000
00000000
00100000
00000000
01000000
00000000
10000000
00000000
00100000
00000000
01000000
00000000
,
00010000
00000000
00100000
00001000
00100000
00000000
00001000
00000000
00010000
00000000
00000010
00010000
00000010
00000000
00001000
00000000
,
00000001
00000000
00001000
00000001
00001000
00000000
00000010
00000000
00010000
00000000
00001000
00100000
00001000
00000000
00010000
00000000
,
00001000
00000000
01000000
00000000
00010000
00000000
00100000
00000000
01000000
00000000
10000000
01000000
10000000
00000000
10000000
00000000
,
00010000
00000000
00100000
00010000
00100000
00000000
00100000
00000000
00001000
00000000
00010000
00001000
00010000
00000000
00010000
00000000
,
00000100
00000100
00001000
00001000
00000001
00000010
00000100
00001000
,
00000001
00000010
00001000
00010000
00100000
10000000
00010000
00000000
,
00000000
00000000
00000000
00000000
,
10000000
00000000
00010000
00100000
00010000
00000000
10000000
00000000
00010000
00000000
01000000
00001000
00010000
00000000
00000100
00000000
,
00010000
00001000
00000100
00000001
00001000
00000001
00000011
00000000
,
00000001
00000000
00001000
00000100
00001000
00000000
00000001
00000000
00001000
00000000
00000010
00010000
00001000
00000000
00100000
00000000
,
00001000
00010000
00100000
10000000
00010000
10000000
01000000
00100000
,
00020000
00000000
00000000
00000000
01030000
00000000
00001000
00000000
00010000
00001000
00010000
00000000
00000000
00000000
00000020
00000000
00000000
00000000
00001030
00000000
00000100
00000000
00000010
00000000
00000001
00000010
00000001
00000000
00000000
00000000
00000010
00000000
,
00001000
00000000
00000000
00010000
00000000
00000000
00000000
00000000
00000000
00100000
00000000
00000000
00010000
00000000
00000000
00001000
00000000
00000000
00000000
00000000
00000000
00010000
00000000
00000000
00001000
00000000
00100000
00000000
00010000
00000000
00100000
00000000
00010000
00000000
10000000
00000000
00010000
00000000
00000000
00000000
00000000
00000000
10010000
00000000
00000000
00000000
00000000
00000000
,
20000000
00000000
00000000
00000000
31000000
00000000
00010000
00000000
00001000
00010000
00001000
00000000
00000000
00000000
00010000
00000000
00001000
00000000
00000010
00000000
00000001
00000000
00000100
00000000
00000010
00000100
00000010
00000000
00002000
00000000
00000000
00000000
,
00003001
00001000
00000100
00001000
00000100
00010000
00000100
00010000
00001000
00010000
00001000
00100000
00001000
00010000
00001000
01000000
00010000
01000000
00100000
00000000
00000000
01100000
00000000
00000000
,
10010000
00000000
01010000
00011000
,
00010100
00000000
00000000
00000000
00000110
00000000
00000000
00000000
00000001
00000000
00001000
00000100
00001000
00000000
00000001
00000000
,
00000010
00000000
00001000
00000000
00010000
00000000
00001000
00000000
00100000
00000000
00010000
10000000
00010000
00000000
01000000
00000000
,
00100000
00000000
10000000
00000000
01000000
00000000
00010000
00000000
00001000
00000000
00010000
00000010
00010000
00000000
00001000
00000000
,
00010000
00000000
00000010
00001000
00000010
00000000
00000100
00000000
00000001
00000000
00001000
00000100
00001000
00000000
00000001
00000000
,
00000010
00000000
00000100
00001000
00000100
00000000
00010000
00000000
00001000
00000000
01000000
00000000
00010000
00000000
00100000
00000000
,
01000000
00000000
10000000
01000000
10000000
00000000
10000000
00000000
00010000
00000000
00100000
00010000
00100000
00000000
00100000
00000000
,
00001000
00000000
00010000
00001000
00010000
00000000
00010000
00000000
00000100
00000000
00000100
00000000
00001000
00000000
00001000
00000000
,
00000001
00000010
00000100
00001000
00000001
00000010
00001000
00010000
,
00100000
00000000
10000000
00000000
00010000
00000000
00000000
00000000
10000000
00000000
00010000
00100000
00010000
00000000
10000000
00000000
,
01000000
00000000
00010000
00000000
00001000
00000000
00010000
00000000
00000100
00000000
00001000
00000001
00001000
00000000
00000010
00000000
,
00000100
00000000
00000001
00000000
00000010
00000000
00001000
00000000
00010000
00000000
00001000
01000000
00001000
00000000
00010000
00000000
,
00001000
00000000
01000000
00010000
01000000
00000000
00100000
00000000
10000000
00000000
00010000
00100000
00010000
00000000
10000000
00000000
,
01000000
00000000
00100000
00010000
00100000
00000000
00001000
00000000
00010000
00000000
00000010
00000000
00001000
00000000
00000100
00000000
,
00000010
00000000
00000001
00000010
00000001
00000000
00000001
00000000
00001000
00000000
00000100
00001000
00000100
00000000
00000100
00000000
,
00010000
00000000
00001000
00010000
00001000
00000000
00001000
00000000
00100000
00000000
00100000
00000000
00010000
00000000
00010000
00000000
,
10000000
01000000
00100000
00010000
10000000
01000000
00010000
00001000
,
00000100
00000001
00001000
00000000
00000000
00000000
00000000
00000000
,
00000000
00000000
00000002
00000203
,
00002300
00000000
00023000
00000000
00031000
00010000
00100000
00010000
,
00001000
00100000
00010000
01000000
00200000
00000000
20300000
00000000
,
32000000
00000000
03020000
00000000
00031000
00000100
00000010
00000100
,
00001000
00010000
00100000
10000000
02000000
00000000
03020000
00000000
,
00032000
00000000
00003020
00000000
00000031
00001000
00000100
00010000
,
00011000
00000000
00110000
00000000
01100000
00000000
00000000
10000000
,
00100000
10000000
00010000
01000000
00001000
00010000
00000100
00001000
,
00000001
00000000
00000010
00000000
00000100
00000000
00001000
00000000
00000001
00000000
00000000
00000100
00000010
00000000
00000000
00000010
,
00001000
00000000
00000000
00001000
00000100
00000000
00000000
00000100
00010000
00000000
00001000
00000000
00010000
00000000
00001000
00000000
,
00100000
00000000
00010000
00000000
01000000
00000000
00100000
00000000
10000000
00000000
00000000
01000000
00100000
00000000
00000000
00100000
,
00010000
00000000
00000000
00010000
01000000
00000000
00000000
01000000
00001000
00000000
00010000
00000000
00001000
00000000
00010000
00000000
,
00000010
00000000
00001000
00000000
00000100
00000000
00000010
00000000
00000001
00000000
00000000
00000100
00001000
00000000
00000000
00001000
,
00010000
00000000
00000000
00010000
00100000
00000000
00000000
00100000
10000000
00000000
00010000
00000000
10000000
00000000
01000000
00000000
,
00010000
00000000
00001000
00000000
00000100
00000000
00000000
00000001
,
00001000
00000001
00000100
00000010
00001000
00000100
00010000
00001000
,
00100000
01000000
00000000
10010000
00000000
00000000
00000000
00000000
,
00000000
00000000
00000000
00000000
;
