
//----- song ID: ruin -----//
#TITLE:RUINA;
#ARTIST:Dustup VS MAX MAXIMIZER;
#BANNER:RUINA.png;
#BACKGROUND:RUINA-bg.png;
#CDTITLE:./CDTitles/DDR WORLD.png;
#MUSIC:RUINA.ogg;
#SAMPLESTART:0.565;
#SAMPLELENGTH:15;
#BPMS:0=320,172=160,210=320,278=160,308=320;
#STOPS:351=1.5;
#NOTES:
     dance-single:
     :
     Beginner:
     7:
     :
0000
0000
0000
0000
,
0000
0000
0000
0000
,
0000
0000
0000
0000
,
0000
0000
0000
0000
,
0000
0000
0000
0000
,
0000
0000
0000
0000
,
0000
0000
0000
0000
,
0000
0000
0000
0000
,
0000
0000
0000
0000
,
1001
0000
0000
0000
,
0000
0000
0000
0000
,
0000
0000
0000
0000
,
0000
0000
0000
0000
,
0001
0000
0001
0000
,
0001
0000
0000
0000
,
0010
0000
0010
0000
,
0010
0000
0000
0000
,
0100
0000
0100
0000
,
0100
0000
0000
0000
,
1000
0000
0000
0000
,
1001
0000
0000
0000
,
1000
0000
0010
0000
,
1000
0000
0000
0000
,
1000
0000
0010
0000
,
0100
0000
0000
0000
,
0001
0000
0010
0000
,
0001
0000
0000
0000
,
0001
0000
0010
0000
,
0100
0000
0000
0000
,
1001
0000
0000
0000
,
0000
0000
0000
0000
,
0000
0000
0000
0000
,
0000
0000
0000
0000
,
1001
0000
0000
0000
,
0000
0000
0000
0000
,
0000
0000
0000
0000
,
0000
0000
0000
0000
,
1000
0000
0100
0000
,
1000
0000
0000
0000
,
1000
0000
0010
0000
,
1000
0000
0000
0000
,
0001
0000
0010
0000
,
0001
0000
0000
0000
,
1001
0000
0000
0000
,
0000
0000
0001
0001
,
0010
0010
0100
0100
,
1000
0000
1000
1000
,
0010
0010
0100
0100
,
0001
0000
0001
1000
,
0001
1000
0001
1000
,
0001
0000
1000
0001
,
1000
0001
1000
0000
,
0000
0000
0002
0000
,
0000
0000
0003
0000
,
0000
0000
0001
0000
,
0010
0000
0100
0000
,
1000
0000
2000
0000
,
0000
0000
3000
0000
,
0000
0000
1000
0000
,
0010
0000
0100
0000
,
0001
0000
0001
0000
,
0001
0000
1000
0000
,
1000
0000
0010
0000
,
0010
0000
0100
0000
,
0100
0000
0001
0000
,
0100
0000
0010
0000
,
1000
0000
0001
0000
,
0010
0000
0100
0000
,
1000
0000
0001
0000
,
0000
0000
0000
0000
,
0000
0000
0000
0000
,
1000
0000
0000
0000
,
0000
0000
0000
0000
,
1000
1000
0100
0000
,
1000
1000
0010
0000
,
0001
0001
0100
0000
,
0001
0001
0010
0000
,
1001
0000
0000
0000
,
0110
0000
0000
0000
,
1001
0000
0000
0000
,
0110
0000
0000
0000
,
0001
0000
1000
0000
,
0001
0000
1000
0000
,
0001
0000
0100
0000
,
0010
0000
0000
0000
,
0110
0000
0000
0000
,
0000
0000
0000
0000
,
0000
0000
0000
1001
,
0000
0000
0000
0000
,
0001
0000
0000
0000
,
1000
0000
0000
0000
,
0001
0000
1000
0000
,
1001
0000
0000
0000
,
1000
0000
0000
0000
,
0001
0000
0000
0000
,
1000
0000
0001
0000
,
1001
0000
0000
0000
,
1000
0000
0010
0000
,
0100
0000
0001
0000
,
0100
0000
0010
0000
,
1000
0000
0000
0000
,
0001
0000
0010
0000
,
0100
0000
1000
0000
,
0100
0000
0010
0000
,
0001
0000
0000
0000
,
1000
0000
0010
0000
,
1000
0001
1000
0000
,
0001
0000
0010
0000
,
0001
1000
0001
0000
,
0100
0000
0010
0000
,
0100
0010
0100
0000
,
0010
0000
1000
0000
,
0001
0000
1000
0000
,
0001
0000
0000
0000
,
0000
0000
0000
0000
;
#NOTES:
     dance-single:
     :
     Easy:
     12:
     :
0000
0000
0000
0000
,
0000
0000
0000
0000
,
0000
0000
0000
0000
,
0000
0000
0000
0000
,
0000
0000
0000
0000
,
0000
0000
0000
0000
,
0000
0000
0000
0000
,
0000
0000
0000
0000
,
0000
0000
0000
0000
,
2002
0000
0000
0000
,
0000
0000
0000
0000
,
0000
0000
0000
0000
,
0000
0000
3003
0000
,
0001
1000
0010
0100
,
0001
1000
0010
0000
,
1000
0001
0010
0100
,
1000
0001
0010
0000
,
0001
1000
0010
0100
,
0001
1000
0010
0000
,
1000
0000
0000
0000
,
1001
0000
0000
0000
,
1000
0100
1000
0010
,
0100
0001
1000
1000
,
0001
0010
0001
0100
,
0010
1000
0001
0000
,
1000
0010
0100
0001
,
0010
0100
1000
1000
,
0001
0100
0010
1000
,
0100
0010
0001
0000
,
2000
0000
0000
0000
,
0000
0000
0000
0000
,
0000
0000
0000
0000
,
3000
0000
0000
0000
,
0002
0000
0000
0000
,
0000
0000
0000
0000
,
0000
0000
0000
0000
,
0003
0000
0000
0000
,
0011
0000
0000
0000
,
1010
0000
0000
0000
,
0101
0000
0000
0000
,
1100
0000
0000
0000
,
0001
0100
0010
0000
,
1000
0100
0010
0000
,
1001
0000
0000
0000
,
0000
0000
0000
0000
0001
0100
1000
0000
,
0100
0000
0001
0000
0100
1000
0100
0000
,
0001
0000
0000
0000
1000
0100
0001
0000
,
0100
0000
1000
0000
0100
0001
0100
0000
,
1000
0000
0000
0000
0001
0010
1000
0000
,
0010
0000
0001
0000
0010
1000
0010
0000
,
0001
0000
0000
0000
1000
0010
0001
0000
,
0010
0000
1000
0000
0010
0001
0010
0000
,
1000
0000
0001
0100
,
0010
0000
1000
0100
,
0010
0000
0001
0100
,
0010
0000
1000
0100
,
0010
0000
0001
0010
,
0100
0000
1000
0010
,
0100
0000
0001
0010
,
0100
0000
1001
0000
,
0000
0000
1000
0001
,
0100
0000
0001
1000
,
0100
0000
1000
0001
,
0010
0000
0001
1000
,
0010
0000
1000
0001
,
0100
0010
1000
0100
,
0010
0001
0100
0010
,
0100
0010
1000
0001
,
1000
0001
2000
0000
,
0000
0000
0000
0000
,
3000
0000
0000
0000
,
0002
0000
0000
0000
,
0003
0000
0000
0000
,
1000
0100
1000
0000
0001
0000
0010
0000
,
0001
0100
0001
0000
1000
0000
0010
0000
,
1000
0010
0100
0000
0001
0010
0100
0000
,
1000
0001
1000
0000
0001
0000
0000
0000
,
0001
0000
1001
0000
,
1000
0010
0100
0000
,
0010
0000
0110
0000
,
0100
0010
1000
0000
,
1010
0000
0000
0000
,
0101
0000
0000
0000
,
0011
0000
0000
0000
,
1100
0000
0000
0000
,
1001
0000
0000
0000
,
0000
0000
0000
0000
,
0000
0000
0000
2002
,
0000
0000
3003
0000
,
0001
0100
0010
0000
,
1000
0001
0010
0000
,
0100
1000
0001
0000
,
1000
0000
0000
0000
,
1000
0100
0010
0000
,
0001
1000
0010
0000
,
1000
0010
0100
0000
,
0001
0000
0000
0000
,
1000
0100
0010
0001
,
0010
0100
1000
0000
,
0001
1000
0001
0000
,
0101
0000
1010
0000
,
1000
0001
1000
0100
,
0010
0001
0100
0000
,
0010
1000
0010
0100
,
0001
0000
0000
0000
,
1000
0001
0100
0000
0010
0000
1000
0000
,
0100
0010
0001
0000
0100
0000
0010
0000
,
1000
0001
1000
0001
,
0100
0010
0100
0000
,
0001
0100
0010
0000
1000
0000
0100
0000
,
0010
0001
0010
0000
0001
0000
1000
0000
,
0010
0100
0001
0100
,
1000
0100
0001
0100
,
0010
0000
0000
0000
,
0000
0000
0000
0000
;
#NOTES:
     dance-single:
     :
     Medium:
     16:
     :
0000
0000
0000
0000
,
0000
0000
0000
0000
,
0000
0000
0000
0000
,
0000
0000
0000
0000
,
0000
0000
0000
0000
,
0000
0000
0000
0000
,
0000
0000
0000
0000
,
0000
0000
0000
0000
,
0000
0000
0000
0000
,
2002
0000
0000
0000
,
0000
0000
0000
0000
,
0000
0000
0000
0000
,
0000
0000
3003
0000
,
0001
0000
1000
0001
1000
0100
1000
0000
,
0001
0100
0001
0100
0001
1000
0001
0000
,
1000
0000
0001
1000
0001
0010
0001
0000
,
1000
0010
1000
0010
1000
0001
1000
0000
,
0001
0000
0100
0010
0100
0010
1000
0000
,
0100
0010
0100
0010
0001
0010
0001
0000
,
1000
0000
0000
0000
,
1001
0000
1001
0000
,
0001
0010
0001
1000
0100
1000
0100
0000
,
1000
0010
1000
0001
0100
0001
0100
0000
,
0001
0100
0010
0100
0001
0100
0010
0000
,
1000
0100
0010
0100
1000
0100
0010
0000
,
0001
1000
0010
0100
0001
1000
0010
0000
,
1000
0001
0010
0100
1000
0001
0010
0000
,
0001
0100
0001
1000
0100
1000
0001
0000
,
1000
0010
1000
0001
0010
0001
1000
0000
,
0002
0000
0000
0000
,
0000
0000
0000
0000
,
0000
0000
0003
0000
,
1000
0001
1000
0000
0001
1000
0001
0000
,
2000
0000
0000
0000
,
0000
0000
0000
0000
,
0000
0000
3000
0000
,
1001
0000
0000
0000
,
1000
0010
0100
0001
,
1000
0100
1000
0000
0100
0010
0100
0000
,
0010
0001
0010
0000
0001
1000
0001
0000
,
0100
0001
0100
0000
0010
0100
0010
0000
,
1000
0010
0100
0000
0001
0100
0010
0000
,
1000
0100
0010
0000
0001
0010
0100
0000
,
1000
0000
0000
0000
,
0000
0000
0000
0000
0000
0000
0000
0000
1000
0000
0100
0010
0001
0000
0100
0010
,
1000
0000
0100
0010
0001
0000
0100
0010
1000
0000
0100
0010
0001
0000
0100
0010
,
1000
0000
0100
0010
0001
0000
0000
0000
1000
0000
0001
0010
0100
0000
1000
0010
,
0100
0000
0001
0010
0100
0000
1000
0010
0100
0000
0001
0010
0100
0000
1000
0000
,
0001
0000
0000
0000
0000
0000
0000
0000
1000
0000
0001
0100
0001
0000
1000
0100
,
1000
0000
0001
0100
0001
0000
1000
0100
1000
0000
0001
0100
0001
0000
1000
0100
,
1000
0000
0001
0100
0001
0000
0000
0000
1000
0000
0001
0010
0001
0000
1000
0010
,
1000
0000
0001
0010
0001
0000
1000
0010
1000
0000
0000
0000
0000
0000
0000
0000
,
0000
0000
0000
0000
0001
0010
0001
0010
,
0100
0000
1000
0000
0001
0100
0001
0100
,
0010
0000
1000
0000
0001
0010
0001
0010
,
0100
0000
1000
0000
0001
0100
0001
0100
,
0010
0000
1000
0001
1000
0100
1000
0100
,
0010
0000
0001
0000
1000
0010
1000
0010
,
0100
0000
0001
0000
1000
0100
1000
0100
,
0010
0000
0000
0001
0000
0000
1000
0000
0001
0000
1000
0000
,
0001
0000
0000
0000
1000
0000
0000
0000
0001
0000
0000
0000
1000
0000
0000
0100
0000
0000
0010
0000
0000
0100
0000
0000
,
1000
0001
0010
0000
0001
0100
0010
0100
,
0001
1000
0010
0000
0100
0010
1000
0001
,
0010
0100
1000
0000
0001
1000
0010
0100
,
0001
1000
0100
0000
1000
0001
0100
0001
,
0010
0001
1000
0000
0001
1000
0100
1000
,
0010
1000
0001
0000
1000
0010
1000
0010
,
0100
0010
0100
0001
1000
0100
1000
0001
,
0010
0001
0100
0010
2000
0000
0000
0000
,
0000
0000
0000
0000
,
3000
0000
0000
0000
,
0002
0000
0000
0000
,
0003
0000
0000
0000
,
1000
0000
0000
0100
0010
0000
0010
0000
0001
0100
0000
0000
0010
0000
0010
0000
,
1000
0000
0000
0100
0010
0000
0010
0000
0001
0100
0000
0000
0010
0000
0000
0010
,
1000
0000
0000
0001
0100
0000
0100
0000
0010
1000
0000
0000
0100
0000
0100
0000
,
0010
0001
0100
0001
0010
0000
0000
0000
,
0001
0010
0100
1000
,
0001
0010
0100
1000
,
0001
0100
0010
1000
,
0001
0100
0010
1000
,
0001
0100
0001
1000
0100
1000
,
0001
0010
0001
1000
0010
1000
,
0001
0010
0100
1000
0100
0010
,
0001
1000
0100
0010
0001
0010
,
0100
0000
0000
0000
,
0000
0000
0000
0000
,
0000
0000
0000
2002
,
0000
0000
3003
0000
,
0001
1000
0001
0010
0100
1000
0001
0100
,
0010
0100
0010
1000
0001
0100
0001
1000
,
0100
0010
0100
0010
0001
1000
0001
1000
,
0001
0000
0000
0000
,
1000
0010
1000
0001
0100
0010
0100
0001
,
0010
0100
1000
0001
1000
0100
0010
0001
,
0100
0010
0100
0010
1000
0001
1000
0001
,
1000
0000
0000
0000
,
0001
0100
0010
1000
0001
0010
0100
0000
,
1000
0100
0010
0001
0100
0010
1000
0000
,
0001
0100
0001
0010
0001
1000
0010
0000
,
1000
0010
0100
0001
0010
0100
,
1000
0100
0010
0001
1000
0010
0100
0000
,
0001
1000
0010
0100
0001
1000
0100
0000
,
0010
0001
0100
0010
1000
0100
0010
0000
,
0001
0000
0000
0000
,
1000
0010
0100
0001
0010
0100
1000
0010
,
0100
0001
0100
0010
1000
0100
0010
0001
,
0100
0010
1000
0010
0100
0001
0100
0010
,
1000
0001
1000
0001
1000
0000
0000
0000
,
0001
0100
0010
1000
0100
0010
0001
0100
,
0001
0010
0100
1000
0010
0100
0001
1000
,
0100
0000
0010
0001
0100
0000
0010
1000
,
0100
0000
0010
0001
0100
0000
0010
1000
,
0100
0000
0000
0000
,
0000
0000
0000
0000
;
#NOTES:
     dance-single:
     :
     Hard:
     18:
     :
0000
0000
0000
0000
,
0000
0000
0000
0000
,
0000
0000
0000
0000
,
0000
0000
0000
0000
,
0000
0000
0000
0000
,
0000
0000
0000
0000
,
0000
0000
0000
0000
,
0000
0000
0000
0000
,
0000
0000
0000
0000
,
2002
0000
0000
0000
,
0000
0000
0000
0000
,
0000
0000
0000
0000
,
3003
0000
0000
0000
0001
1000
0001
1000
,
0001
0000
1000
0010
0100
0010
1000
0100
,
0010
0001
0100
0001
0010
0100
1000
0001
,
1000
0000
0001
0100
0010
1000
0100
1000
,
0010
0100
0010
1000
0001
1000
0100
0010
,
0001
0000
0100
0001
0010
0100
1000
0010
,
0100
0001
0010
1000
0010
0001
1000
0100
,
0010
0000
0000
0000
,
1001
0000
1000
0001
,
1000
0010
0100
0001
0010
0100
0010
0001
,
0100
0010
1000
0100
0010
0001
1000
0100
,
0001
0100
0010
0100
1000
0001
0100
0010
,
1000
0001
0010
0100
1000
0100
0010
0001
,
1000
0010
0100
0010
0001
1000
0100
0010
,
1000
0100
0001
0100
1000
0010
0100
0001
,
1000
0000
0001
0010
1000
0001
0100
1000
,
0001
0000
1000
0010
0001
1000
0100
0001
,
2000
0000
0000
0000
,
0000
0000
0000
0000
,
0000
0000
3000
0000
,
0010
0100
0010
0100
0010
0100
0010
0100
,
0002
0000
0000
0000
,
0000
0000
0000
0000
,
0000
0000
0003
0000
,
1001
0000
0000
0000
,
1001
0000
0001
0000
1000
0000
0010
0100
,
0001
0010
0001
0010
0100
0010
0100
0010
,
0100
1000
0100
1000
0001
1000
0001
1000
,
0010
1000
0010
1000
0010
0100
0010
0100
,
0001
0100
0010
1000
0100
0010
0001
0100
,
0010
1000
0100
0010
0001
0100
0010
1000
,
0100
0000
0000
0000
,
0000
0000
0000
0000
0000
0000
0000
0000
1001
0000
0001
0010
1000
0000
0010
0001
,
0100
0000
1000
0100
0001
0000
0010
0100
1000
0000
0100
0001
0100
0000
1000
0010
,
0001
0000
0010
1000
0100
0000
0001
0100
0010
0000
0001
0100
0010
0000
0001
1000
,
0100
0000
0001
1000
0100
0000
0001
0100
1000
0000
0001
0100
0010
0000
1010
0000
,
1001
0000
0000
0000
0000
0000
0000
0000
1001
0000
1000
0010
0001
0000
1000
0100
,
0001
0000
0001
0010
1000
0000
0001
0100
1000
0000
1000
0010
0001
0000
1000
0100
,
0001
0000
0001
0010
1000
0000
0001
0100
1000
0000
1000
0100
0001
0000
1000
0010
,
0001
0000
0001
0100
1000
0000
0001
0010
1000
0000
0000
0000
0000
0000
0000
0000
,
0000
0000
0000
0000
0001
0100
0010
1000
,
0001
0100
1000
0100
0010
1000
0100
0010
,
0001
0100
0010
1000
0100
0001
0100
0010
,
0001
0100
0010
0001
0010
1000
0001
0100
,
1000
0100
0001
1000
0100
0010
0001
0100
,
0001
0010
0100
1000
0010
1000
0100
0010
,
0001
0100
0010
1000
0010
0001
0010
1000
,
0100
0000
0000
0010
0000
0000
0001
0000
0000
0100
0000
0000
0010
0000
0000
0000
1000
0000
0000
0000
0010
0000
0000
0000
,
0100
0000
0000
0000
0001
0000
0000
0000
0100
0000
0000
0000
0001
0000
0000
0010
0000
0000
0100
0000
0000
1000
0000
0000
,
0001
0100
0010
1000
0001
0010
1000
0010
,
0001
0100
1000
0100
0001
0010
0100
1000
,
0010
0100
0001
0010
0100
0001
0100
1000
,
0001
0100
1000
0100
0001
1000
0100
0010
,
0001
1000
0010
0001
0010
1000
0100
0001
,
0100
1000
0001
0100
0010
1000
0100
0010
,
0001
0100
0010
1000
0010
0100
0001
0010
,
0100
1000
0010
0100
0002
0000
0000
0000
,
0000
0000
0000
0000
,
0003
0000
0000
0000
,
2000
0000
0000
0000
,
3000
0000
0000
0000
,
1000
0000
0001
0100
0000
0001
0100
0000
0010
1000
0000
0010
1000
0000
0001
1000
,
0001
0000
1000
0100
0000
1000
0100
0000
0010
0001
0000
0010
0001
0000
1000
0001
,
1000
0000
0010
0100
0000
0010
0100
0000
0001
1000
0000
0001
1000
0000
0100
0010
,
0001
1000
0001
1000
0010
0100
0010
0100
0001
0000
0000
0000
0000
0000
0000
0000
,
0001
1000
0001
0000
1000
0001
1000
0000
,
0010
0100
0010
0000
0100
0010
0100
0000
,
0001
0100
0010
0000
0100
0010
1000
0000
,
0100
0010
0001
0000
0010
0001
1000
0000
,
0001
0100
0010
0001
0010
0100
,
0001
0010
0100
0001
0100
0010
,
1000
0010
0100
1000
0010
0100
,
1000
0100
0010
1000
0100
0010
,
0001
0000
0000
0000
,
0000
0000
0000
0000
,
0000
0000
0000
2002
,
0000
0000
3003
0000
,
0001
0000
1000
0000
0001
0000
1000
0000
0000
0010
0000
0000
0100
0000
0000
0001
0000
0000
1000
0000
0000
0100
0000
0000
,
0010
0000
0001
0000
0010
0000
0001
0000
0000
1000
0000
0000
0001
0000
0000
0100
0000
0000
0010
0000
0000
0100
0000
0000
,
0010
0000
1000
0000
0010
0000
1000
0000
0000
0001
0000
0000
0100
0000
0000
0010
0000
0000
1000
0000
0000
0100
0000
0000
,
0010
0000
1001
0000
,
1000
0000
0001
0000
1000
0000
0001
0000
0000
0010
0000
0000
0100
0000
0000
1000
0000
0000
0001
0000
0000
0100
0000
0000
,
0010
0000
1000
0000
0010
0000
1000
0000
0000
0001
0000
0000
1000
0000
0000
0100
0000
0000
0010
0000
0000
0100
0000
0000
,
0010
0000
0001
0000
0010
0000
0001
0000
0000
1000
0000
0000
0100
0000
0000
0010
0000
0000
0001
0000
0000
0100
0000
0000
,
0010
0000
1001
0000
,
0001
0000
0010
0000
0100
0000
1000
0000
0000
0001
0000
0000
0100
0000
0000
0010
0000
0000
1000
0000
0000
0100
0000
0000
,
0010
0000
0001
0000
1000
0000
0100
0000
0000
1000
0000
0000
0001
0000
0000
0100
0000
0000
0010
0000
0000
1000
0000
0000
,
0001
0000
0100
0000
0010
0000
1000
0000
0000
0010
0000
0000
0100
0000
0000
0001
0000
0000
1000
0000
0000
0100
0000
0000
,
1000
0010
0100
1000
0100
0010
,
1000
0000
0100
0000
1000
0000
0001
0000
0000
0010
0000
0000
0100
0000
0000
1000
0000
0000
0010
0000
0000
0100
0000
0000
,
0010
0000
1000
0000
0001
0000
0010
0000
0000
0100
0000
0000
1000
0000
0000
0001
0000
0000
0010
0000
0000
0001
0000
0000
,
0100
0000
0010
0000
1000
0000
0100
0000
0000
0010
0000
0000
0001
0000
0000
0100
0000
0000
0001
0000
0000
0010
0000
0000
,
0100
0000
0110
0000
,
0001
0000
0010
0000
0001
0000
1000
0000
0100
0000
1000
0000
0001
0000
0000
0010
0000
0000
0100
0000
0000
1000
0000
0000
,
0001
0000
0100
0000
0001
0000
1000
0000
0001
0000
1000
0000
0001
0000
0000
0100
0000
0000
0010
0000
0000
1000
0000
0000
,
0010
0000
0100
0000
0001
0000
0100
0000
0010
0000
1000
0000
0001
0000
0000
0010
0000
0000
0100
0000
0000
1000
0000
0000
,
0100
0010
0001
0010
0100
0010
0001
0000
0000
0000
0000
0000
,
1000
0000
0001
0000
0010
0000
0100
0000
1000
0000
0001
0000
1000
0000
0000
0100
0000
0000
0010
0000
0000
0001
0000
0000
,
1000
0000
0001
0000
1000
0000
0010
0000
0100
0000
0010
0000
1000
0000
0000
0001
0000
0000
0010
0000
0000
0100
0000
0000
,
1000
0000
0000
0001
0100
0010
1000
0000
0000
0001
0010
0100
,
1000
0000
0000
1000
0100
0010
0001
0000
0000
1000
0001
1000
,
0001
0000
0000
0000
,
0000
0000
0000
0000
;
#NOTES:
     dance-double:
     :
     Easy:
     12:
     :
00000000
00000000
00000000
00000000
,
00000000
00000000
00000000
00000000
,
00000000
00000000
00000000
00000000
,
00000000
00000000
00000000
00000000
,
00000000
00000000
00000000
00000000
,
00000000
00000000
00000000
00000000
,
00000000
00000000
00000000
00000000
,
00000000
00000000
00000000
00000000
,
00000000
00000000
00000000
00000000
,
00022000
00000000
00000000
00000000
,
00000000
00000000
00000000
00000000
,
00000000
00000000
00000000
00000000
,
00000000
00000000
00033000
00000000
,
00001000
00010000
00001000
00010000
,
00000010
00001000
00000010
00000000
,
00001000
00000001
00001000
00000001
,
00000010
00000100
00000010
00000000
,
00000100
00001000
00000100
00001000
,
00000100
00010000
00001000
00000000
,
00010000
00000000
00000000
00000000
,
00011000
00000000
00000000
00000000
,
00001000
00010000
00100000
00000000
,
10000000
01000000
00100000
00000000
,
00010000
10000000
01000000
00000000
,
00010000
00001000
00000010
00000000
,
00000001
00000100
00000010
00000000
,
00000100
00001000
00010000
00000000
,
00100000
10000000
01000000
00000000
,
00010000
00001000
00010000
00000000
,
00002000
00000000
00000000
00000000
,
00000000
00000000
00000000
00000000
,
00000000
00000000
00000000
00000000
,
00003000
00000000
00000000
00000000
,
00020000
00000000
00000000
00000000
,
00000000
00000000
00000000
00000000
,
00000000
00000000
00000000
00000000
,
00030000
00000000
00000000
00000000
,
00011000
00000000
00000000
00000000
,
00010100
00000000
00000000
00000000
,
00001010
00000000
00000000
00000000
,
00010010
00000000
00000000
00000000
,
00011000
00000000
00000000
00000000
,
01001000
00000000
00000000
00000000
,
00011000
00000000
00000000
00000000
,
00000000
00000000
00000000
00000000
00001000
00100000
00010000
00000000
,
01000000
00000000
00010000
00000000
00100000
00001000
00010000
00000000
,
00001000
00000000
00000000
00000000
00010000
00000100
00001000
00000000
,
00000010
00000000
00001000
00000000
00000100
00010000
00001000
00000000
,
00010000
00000000
00000000
00000000
00001000
01000000
00010000
00000000
,
00100000
00000000
00010000
00000000
01000000
00001000
00010000
00000000
,
00001000
00000000
00000000
00000000
00010000
00000010
00001000
00000000
,
00000100
00000000
00001000
00000000
00000010
00010000
00001000
00000000
,
00010000
00000000
00010000
00001000
,
00000010
00000000
00000001
00000000
,
00000100
00000000
00001000
00010000
,
00100000
00000000
10000000
00000000
,
01000000
00000000
00010000
00001000
,
00000100
00000000
00000001
00000000
,
00000010
00000000
00001000
00010000
,
01000000
00000000
10000000
00000000
,
00000000
00000000
10000000
00100000
,
01000000
00100000
00010000
00000000
,
00001000
00000000
00010000
00000010
,
00000100
00000000
00000001
00000000
,
00000000
00000000
00001000
00000100
,
00010000
00001000
00100000
00000000
,
00010000
00000000
10000000
01000000
,
00010000
00000000
00001000
00000000
,
00000010
00000001
00002000
00000000
,
00000000
00000000
00000000
00000000
,
00003000
00000000
00000000
00000000
,
00000002
00000000
00000000
00000000
,
00000003
00000000
00000000
00000000
,
00000001
00000010
00000100
00000000
00001000
00000000
00000100
00000000
,
00010000
00001000
01000000
00000000
00010000
00000000
10000000
00000000
,
01000000
00010000
00001000
00000010
,
00000001
00001000
00000001
00000000
00001000
00000000
00000000
00000000
,
00000001
00000000
00000100
00000000
,
00000010
00000000
00001000
00000000
,
00010000
00000000
01000000
00000000
,
00100000
00000000
10000000
00000000
,
11000000
00000000
00000000
00000000
,
00110000
00000000
00000000
00000000
,
00001100
00000000
00000000
00000000
,
00000011
00000000
00000000
00000000
,
00001001
00000000
00000000
00000000
,
00000000
00000000
00000000
00000000
,
00000000
00000000
00000000
00002002
,
00000000
00000000
00003003
00000000
,
00000001
00001000
00000100
00000000
,
00010000
00001000
00100000
00000000
,
00010000
01000000
00100000
00000000
,
10000000
00000000
00000000
00000000
,
10000000
00010000
01000000
00000000
,
00001000
00010000
00000010
00000000
,
00001000
00000100
00000010
00000000
,
00000001
00000000
00000000
00000000
,
00000001
00000100
00001000
00010000
,
00100000
01000000
00010000
00000000
,
00100000
01000000
10000000
00000000
,
00010000
00000000
10010000
00000000
,
10000000
01000000
00010000
00001000
,
00000010
00000100
00001000
00000000
,
00000010
00000100
00000001
00000000
,
00001000
00000000
00001001
00000000
,
00000001
00000100
00001000
00010000
,
00100000
10000000
01000000
00100000
,
00001000
00010000
00000100
00000010
,
00000001
00000000
00001001
00000000
,
00000001
00000100
00000010
00000000
00001000
00000000
00000100
00000000
,
00010000
00001000
00100000
00000000
00010000
00000000
10000000
00000000
,
00010000
00100000
01000000
00010000
,
00001000
00000010
00000100
00001000
,
00000001
00000000
00000000
00000000
,
00000000
00000000
00000000
00000000
;
#NOTES:
     dance-double:
     :
     Medium:
     15:
     :
00000000
00000000
00000000
00000000
,
00000000
00000000
00000000
00000000
,
00000000
00000000
00000000
00000000
,
00000000
00000000
00000000
00000000
,
00000000
00000000
00000000
00000000
,
00000000
00000000
00000000
00000000
,
00000000
00000000
00000000
00000000
,
00000000
00000000
00000000
00000000
,
00000000
00000000
00000000
00000000
,
00022000
00000000
00000000
00000000
,
00000000
00000000
00000000
00000000
,
00000000
00000000
00000000
00000000
,
00000000
00000000
00033000
00000000
,
00001000
00000000
00010000
00001000
00000000
01000000
00010000
00000000
,
01000000
00100000
01000000
00000000
00010000
10000000
00010000
00000000
,
10000000
00000000
01000000
00100000
00000000
00010000
00100000
00000000
,
00001000
00100000
00001000
00000000
00010000
00001000
00010000
00000000
,
00000100
00000000
00001000
00000010
00000000
00000100
00000010
00000000
,
00000100
00000001
00001000
00000000
00000001
00001000
00000001
00000000
,
00001000
00000000
00000000
00000000
,
00001001
00000000
00001001
00000000
,
00000001
00000010
00000100
00000000
00000010
00000100
00001000
00000000
,
00000100
00000000
00001000
00000000
00000100
00010000
00001000
00000000
,
00010000
00001000
01000000
00000000
00001000
01000000
00010000
00000000
,
01000000
00000000
00010000
00000000
01000000
00100000
10000000
00000000
,
00100000
10000000
00010000
00000000
10000000
00010000
00100000
00000000
,
01000000
00000000
00100000
00000000
00010000
00100000
00010000
00000000
,
00100000
00001000
00010000
00000000
00001000
00010000
00000100
00000000
,
00001000
00000000
00000100
00000000
00000010
00000001
00001000
00000000
,
00000002
00000000
00000000
00000000
,
00000000
00000000
00000000
00000000
,
00000000
00000000
00000003
00000000
,
00000001
00000010
00000001
00000000
00001000
00000010
00001000
00000000
,
00000020
00000000
00000000
00000000
,
00000000
00000000
00000000
00000000
,
00000000
00000000
00000030
00000000
,
00000110
00000000
00000000
00000000
,
00000010
00001000
00000010
00010000
,
00001000
00010000
00001000
00000000
01000000
00001000
01000000
00000000
,
00010000
01000000
00010000
00000000
10000000
00010000
10000000
00000000
,
01000000
00100000
01000000
00000000
00100000
00001000
00100000
00000000
,
00001000
00010000
00001000
00000000
00010000
00000100
00010000
00000000
,
00000100
00001000
00000100
00000000
00000010
00000001
00000010
00000000
,
00000001
00000000
00000000
00000000
,
00000000
00000000
00000000
00000000
00000000
00000000
00000000
00000000
00000001
00000000
00000100
00000010
00000100
00000000
00000010
00000000
,
00010000
00000000
00001000
00010000
00001000
00000000
00010000
00000000
00100000
00000000
01000000
00100000
01000000
00000000
00100000
00000000
,
10000000
00000000
00010000
10000000
00010000
00000000
00000000
00000000
10000000
00000000
01000000
00100000
01000000
00000000
00100000
00000000
,
00001000
00000000
00010000
00001000
00010000
00000000
00001000
00000000
00000010
00000000
00000100
00000010
00000100
00000000
00000010
00000000
,
00000001
00000000
00000000
00000000
00000000
00000000
00000000
00000000
00000001
00000000
00000010
00000100
00000010
00000000
00000100
00010000
,
00000100
00000000
00010000
00001000
00010000
00000000
00001000
01000000
00001000
00000000
01000000
00100000
01000000
00000000
00100000
10000000
,
00100000
00000000
10000000
00010000
10000000
00000000
00000000
00000000
10000000
00000000
00100000
01000000
00100000
00000000
01000000
00001000
,
01000000
00000000
00001000
00010000
00001000
00000000
00010000
00000000
00011000
00000000
00000000
00000000
00000000
00000000
00000000
00000000
,
00000000
00000000
00000000
00000000
00001000
00010000
00001000
00010000
,
00000010
00000000
00001000
00000000
00000001
00000010
00000001
00000010
,
00000100
00000000
00001000
00000000
00000100
00010000
00000100
00010000
,
00001000
00000000
00100000
00000000
00010000
00100000
00010000
00100000
,
01000000
00000000
10000000
00000000
00100000
01000000
00100000
01000000
,
00010000
00000000
00100000
00000000
00001000
00010000
00001000
00010000
,
00000010
00000000
00001000
00000000
00000100
00000010
00000100
00000010
,
00000001
00000000
00000000
00001000
00000000
00000000
00000001
00000000
00001000
00000000
00000010
00000000
,
00000100
00000000
00000000
00000000
00000001
00000000
00000000
00000000
00001000
00000000
00000000
00000000
00000001
00000000
00000000
00000010
00000000
00000000
00000100
00000000
00000000
00001000
00000000
00000000
,
00000100
00010000
00001000
00000000
00010000
00001000
00100000
00010000
,
00100000
01000000
10000000
00000000
00010000
10000000
00100000
01000000
,
00100000
01000000
00010000
00000000
01000000
00001000
00010000
00001000
,
00010000
00000010
00001000
00000000
00000010
00000100
00000001
00001000
,
00000001
00000010
00000100
00000000
00001000
00000100
00000010
00000100
,
00001000
00000100
00010000
00000000
00001000
00010000
00001000
00000000
,
00100000
00010000
01000000
00000000
00100000
10000000
00010000
00000000
,
10000000
01000000
00010000
00000000
00002000
00000000
00000000
00000000
,
00000000
00000000
00000000
00000000
,
00003000
00000000
00000000
00000000
,
00020000
00000000
00000000
00000000
,
00030000
00000000
00000000
00000000
,
00001000
00000000
00000000
00010000
00000100
00000000
00000100
00000000
00001000
00000010
00000000
00000000
00000100
00000000
00000100
00000000
,
00000001
00000000
00000000
00000010
00000100
00000000
00000100
00000000
00010000
00001000
00000000
00000000
00010000
00000000
00000000
00001000
,
01000000
00000000
00000000
00010000
01000000
00000000
01000000
00000000
00100000
10000000
00000000
00000000
01000000
00000000
01000000
00000000
,
00100000
00001000
00011000
00000000
,
00001000
00010000
00100000
01000000
,
00100000
00010000
00001000
00000000
,
00010000
00001000
00000010
00000100
,
00000010
00001000
00010000
00000000
,
00001000
01000000
00010000
00100000
00001000
00010000
,
00000100
00001000
00000010
00000100
00001000
00010000
,
00100000
01000000
00010000
00100000
01000000
00010000
,
00001000
00000010
00000100
00001000
00000010
00000100
,
00001000
00000000
00000000
00000000
,
00000000
00000000
00000000
00000000
,
00000000
00000000
00000000
00022000
,
00000000
00000000
00033000
00000000
,
00010000
00001000
00100000
00000000
00010000
00100000
01000000
00000000
,
10000000
00100000
01000000
00000000
00001000
00010000
00001000
00000000
,
00010000
00000100
00001000
00000010
00000100
00000001
00000010
00000100
,
00001000
00000000
00000000
00000000
,
00000001
00001000
00000100
00000000
00001000
00000010
00000100
00000000
,
00001000
00010000
00100000
00000000
10000000
00010000
00100000
00000000
,
01000000
10000000
00100000
01000000
00010000
00100000
00001000
00010000
,
00001000
00000000
00000000
00000000
,
00010000
00000010
00001000
00000100
00001000
00000010
00000100
00000000
,
00000001
00000010
00000100
00000010
00001000
00010000
00001000
00000000
,
00010000
00001000
00100000
00010000
00100000
01000000
10000000
00000000
,
00010000
01000000
00100000
10000000
01000000
00100000
,
00010000
00100000
00001000
00010000
00000100
00001000
00000001
00000000
,
00000100
00000010
00001000
00000010
00010000
00001000
01000000
00000000
,
00010000
01000000
00100000
10000000
01000000
00100000
00010000
00000000
,
10000000
00000000
00000000
00000000
,
00010000
10000000
01000000
00000000
00010000
00001000
00000010
00000000
,
00000001
00001000
00000010
00000100
00001000
00000100
00000001
00000000
,
00000100
00001000
00010000
00000000
00100000
10000000
00010000
00000000
,
00100000
01000000
00010000
00000000
00001000
00000000
00000000
00000000
,
00010000
01000000
10000000
00000000
00100000
00010000
00001000
00000000
,
00000100
00000010
00001000
00000100
00000010
00000000
00000001
00001000
,
00000001
00000000
00000100
00001000
00010000
00000000
00100000
00010000
,
00001000
00000000
00010000
01000000
10000000
00000000
00010000
10000000
,
00010000
00000000
00000000
00000000
,
00000000
00000000
00000000
00000000
;
#NOTES:
     dance-double:
     :
     Hard:
     18:
     :
00000000
00000000
00000000
00000000
,
00000000
00000000
00000000
00000000
,
00000000
00000000
00000000
00000000
,
00000000
00000000
00000000
00000000
,
00000000
00000000
00000000
00000000
,
00000000
00000000
00000000
00000000
,
00000000
00000000
00000000
00000000
,
00000000
00000000
00000000
00000000
,
00000000
00000000
00000000
00000000
,
00022000
00000000
00000000
00000000
,
00000000
00000000
00000000
00000000
,
00000000
00000000
00000000
00000000
,
00033000
00000000
00000000
00000000
00001000
00010000
00001000
00010000
,
00001000
00000000
00010000
00001000
01000000
00010000
00100000
00010000
,
01000000
00100000
10000000
00000000
01000000
00010000
00001000
00000000
,
00000010
00000000
00000001
00001000
00000010
00000100
00000001
00000010
,
00000100
00010000
00001000
00000000
01000000
00010000
10000000
00000000
,
01000000
00000000
00010000
01000000
10000000
00100000
01000000
00001000
,
00010000
00000010
00001000
00000000
00000100
00000010
00000001
00000100
,
00000010
00000000
00000000
00000000
,
00001001
00000000
00000001
00001000
,
00000001
00000100
00001000
00000000
00000100
00001000
00010000
00000000
,
00100000
01000000
00001000
00010000
01000000
00100000
00010000
00000000
,
10000000
01000000
00010000
00000000
01000000
00010000
00001000
00000000
,
00000010
00000100
00010000
00001000
00000100
00000010
00001000
00000000
,
00000001
00000010
00001000
00000000
00000010
00001000
00010000
00000000
,
01000000
00100000
00001000
00010000
00100000
01000000
00010000
00000000
,
10000000
00100000
00010000
00000000
00100000
00010000
00001000
00000000
,
00000100
00000010
00010000
00001000
00000010
00000100
00001000
00000000
,
00000002
00000000
00000000
00000000
,
00000000
00000000
00000000
00000000
,
00000000
00000000
00000003
00000000
,
00000001
00001000
00000010
00010000
00001000
00100000
00010000
00000000
,
20000000
00000000
00000000
00000000
,
00000000
00000000
00000000
00000000
,
00000000
00000000
30000000
00000000
,
10010000
00000000
00000000
00000000
,
10010000
00000000
00000000
00000000
10000000
00000000
00100000
01000000
,
00010000
00100000
00010000
00100000
00001000
00010000
00001000
00010000
,
00000100
00001000
00000100
00001000
00000010
00000100
00000010
00000100
,
00000001
00000010
00000001
00000010
00000001
00001000
00000001
00001000
,
00000001
00000100
00000010
00001000
00000100
00010000
00001000
00100000
,
00010000
01000000
00100000
10000000
01000000
00100000
00010000
01000000
,
00001000
00000000
00000000
00000000
,
00000000
00000000
00000000
00000000
00000000
00000000
00000000
00000000
00011000
00000000
00001000
00000010
00000001
00000000
00001000
00000000
,
00000001
00000000
00000100
00001000
00010000
00000000
00001000
00000000
00010000
00000000
00100000
10000000
01000000
00000000
00010000
00000000
,
01000000
00000000
10000000
00100000
01000000
00000000
00010000
00000000
10000000
00000000
01000000
00010000
00001000
00000000
00000010
00000000
,
00000001
00000000
00000100
00001000
00000100
00000000
00000001
00000000
00000010
00000000
00000001
00000100
00001000
00000000
00010000
00000000
,
00011000
00000000
00000000
00000000
00000000
00000000
00000000
00000000
00011000
00000000
00001000
00010000
01000000
00000000
10000000
00000000
,
00100000
00000000
00010000
00001000
00000100
00000000
00000001
00000000
00000010
00000000
00000100
00000010
00001000
00000000
00010000
00000000
,
00100000
00000000
01000000
00100000
00010000
00000000
00001000
00000000
00000100
00000000
00000001
00000100
00001000
00000000
00010000
00100000
,
10000000
00000000
10000000
01000000
00010000
00000000
00001000
00000010
00000001
00000000
00000000
00000000
00000000
00000000
00000000
00000000
,
00000000
00000000
00000000
00000000
00000001
00000010
00000100
00001000
,
00000010
00001000
00000010
00010000
00001000
00100000
00010000
01000000
,
00001000
00100000
00010000
10000000
00100000
01000000
00010000
10000000
,
01000000
00100000
00001000
00010000
00000100
00001000
00000100
00000010
,
00000001
00001000
00000010
00000100
00000001
00000100
00000010
00010000
,
00001000
01000000
00010000
01000000
00100000
10000000
01000000
00100000
,
00010000
00100000
00001000
00010000
01000000
00100000
00010000
00100000
,
00001000
00000000
00000000
00100000
00000000
00000000
00001000
00000000
00000000
00010000
00000000
00000000
00000100
00000000
00000000
00000000
00001000
00000000
00000000
00000000
00000001
00000000
00000000
00000000
,
00000010
00000000
00000000
00000000
00001000
00000000
00000000
00000000
00010000
00000000
00000000
00000000
01000000
00000000
00000000
10000000
00000000
00000000
00100000
00000000
00000000
01000000
00000000
00000000
,
00010000
00100000
10000000
00100000
00010000
00100000
00001000
00010000
,
00000100
00001000
00000100
00000001
00000100
00000010
00000001
00000100
,
00001000
00000100
00000001
00001000
00000100
00010000
00001000
00010000
,
00100000
01000000
00010000
10000000
01000000
00010000
00001000
00100000
,
00001000
00010000
00000100
00001000
00000100
00000001
00000100
00000010
,
00000001
00000100
00001000
00010000
00100000
01000000
00001000
00010000
,
00001000
00100000
01000000
10000000
00100000
01000000
00010000
00100000
,
01000000
00100000
00001000
00010000
00002000
00000000
00000000
00000000
,
00000000
00000000
00000000
00000000
,
00003000
00000000
00000000
00000000
,
00020000
00000000
00000000
00000000
,
00030000
00000000
00000000
00000000
,
00001000
00000000
00010000
00000010
00000000
00010000
00000010
00000000
00001000
00000010
00000000
00001000
00000010
00000000
00000100
00000000
,
00000001
00000000
00000010
00000100
00000000
00000010
00000100
00000000
00001000
00000100
00000000
00001000
00000100
00000000
00010000
00000000
,
00001000
00000000
00100000
00010000
00000000
00100000
00010000
00000000
00100000
01000000
00000000
00100000
01000000
00000000
10000000
00000000
,
00010000
01000000
00100000
10000000
00010000
00000000
00000000
00000000
,
10000000
01000000
00100000
00010000
,
00001000
00000100
00000010
00000001
,
00000001
00000100
00000010
00001000
,
00010000
01000000
00100000
10000000
,
00010000
00010000
00100000
01000000
00010000
00001000
,
00000100
00000100
00000010
00001000
00000001
00000010
,
00000100
00000100
00010000
00001000
00100000
00010000
,
01000000
01000000
00100000
10000000
00010000
01000000
,
00100000
00000000
00000000
00000000
,
00000000
00000000
00000000
00000000
,
00000000
00000000
00000000
20020000
,
00000000
00000000
30030000
00000000
,
10000000
00100000
01000000
00001000
00010000
00000100
00001000
00000001
,
00000100
00000010
00010000
00001000
01000000
00010000
10000000
01000000
,
00100000
00001000
00010000
00001000
00000010
00000001
00001000
00000100
,
00000010
00000000
00001001
00000000
,
00000001
00000010
00000100
00010000
00001000
01000000
00010000
10000000
,
01000000
00100000
00001000
00010000
00000100
00001000
00000001
00000100
,
00000010
00010000
00001000
00010000
00100000
10000000
00010000
01000000
,
00100000
00000000
10010000
00000000
,
10000000
00100000
01000000
00001000
00010000
00100000
01000000
00001000
,
00010000
00000100
00000010
00000001
00001000
00000010
00000100
00000001
,
00000010
00000100
00010000
00001000
00100000
00010000
01000000
00100000
,
00010000
00001000
00000010
00001000
00010000
00100000
,
00010000
00001000
00000100
00000001
00000010
00000100
00010000
00001000
,
00100000
00010000
01000000
10000000
01000000
00010000
10000000
01000000
,
00010000
00001000
00000010
00000001
00001000
00000100
00000010
00000001
,
00001000
00000000
00001001
00000000
,
00000001
00000000
00001000
00000000
00000001
00000000
00001000
00000000
00000000
00000010
00000000
00000000
00001000
00000000
00000000
00000010
00000000
00000000
00010000
00000000
00000000
00001000
00000000
00000000
,
00010000
00000000
00001000
00000000
00010000
00000000
00001000
00000000
00000000
01000000
00000000
00000000
00001000
00000000
00000000
01000000
00000000
00000000
00010000
00000000
00000000
01000000
00000000
00000000
,
00100000
00000000
10000000
00000000
00100000
00000000
10000000
00000000
00000000
00010000
00000000
00000000
10000000
00000000
00000000
01000000
00000000
00000000
00100000
00000000
00000000
01000000
00000000
00000000
,
10000000
00000000
00000000
00010000
00000000
00000000
00100000
00000000
00010000
00000000
00100000
00000000
00010000
00000000
00000000
00000000
00000000
00000000
00000000
00000000
00000000
00000000
00000000
00000000
,
10000000
00000000
00010000
00000000
10000000
00000000
00010000
00000000
00000000
00100000
00000000
00000000
00001000
00000000
00000000
00100000
00000000
00000000
00001000
00000000
00000000
00010000
00000000
00000000
,
00001000
00000000
00010000
00000000
00001000
00000000
00010000
00000000
00000000
00000100
00000000
00000000
00001000
00000000
00000000
00000100
00000000
00000000
00000010
00000000
00000000
00000001
00000000
00000000
,
00001000
00000000
00000000
00000001
00000100
00000001
00000100
00000000
00000000
00001000
00010000
00001000
,
00010000
00000000
00000000
00100000
10000000
00100000
10000000
00000000
00000000
00010000
10000000
00010000
,
10000000
00000000
00000000
00000000
,
00000000
00000000
00000000
00000000
;
