
//----- song ID: pote -----//
#TITLE:Proof of the existence;
#ARTIST:猫叉Master+;
#ARTISTTRANSLIT:Nekomata Master+;
#BANNER:Proof of the existence.png;
#BACKGROUND:Proof of the existence-bg.png;
#CDTITLE:./CDTitles/bm IIDX 20 tricoro.png;
#MUSIC:Proof of the existence.ogg;
#SAMPLESTART:91.766;
#SAMPLELENGTH:15;
#BPMS:0=170;
#NOTES:
     dance-single:
     :
     Beginner:
     3:
     :
0000
0000
0000
0000
,
0000
0000
0000
0000
,
0000
0000
0000
0000
,
0000
0000
0000
0000
,
0000
0000
0000
0000
,
0000
0000
0000
0000
,
0000
0000
0000
0000
,
0000
0000
0000
0000
,
0000
0000
0000
0000
,
0001
0000
0000
0000
,
0001
0000
0000
0000
,
0010
0000
0000
0000
,
0010
0000
0000
0000
,
1000
0000
0000
0000
,
1000
0000
0000
0000
,
0010
0000
0000
0000
,
0000
0000
0000
0000
,
1000
0000
1000
0000
,
0010
0000
0000
0000
,
1000
0000
1000
0000
,
0010
0000
0000
0000
,
0001
0000
0001
0000
,
0010
0000
0000
0000
,
0001
0000
0001
0000
,
0010
0000
0000
0000
,
1001
0000
0000
0000
,
0001
0000
0010
0000
,
0001
0000
0000
0000
,
0001
0000
0100
0000
,
0010
0000
0000
0000
,
1000
0000
0010
0000
,
1000
0000
0000
0000
,
1000
0000
0100
0000
,
0010
0000
0010
0000
,
0010
0000
0000
0000
,
0001
0000
0001
0000
,
0001
0000
0000
0000
,
1000
0000
1000
0000
,
1000
0000
0000
0000
,
0100
0000
0100
0000
,
0100
0000
0000
0000
,
2000
0000
0000
0000
,
3000
0000
0000
0000
,
0020
0000
0000
0000
,
0030
0000
0000
0000
,
0020
0000
0000
0000
,
0030
0000
0000
0000
,
0002
0000
0000
0000
,
0003
0000
0000
0000
,
0001
0000
0001
0000
,
0010
0000
0010
0000
,
0001
0000
0010
0000
,
1000
0000
0000
0000
,
1000
0000
1000
0000
,
0010
0000
0010
0000
,
1000
0000
0010
0000
,
0001
0000
0000
0000
,
1001
0000
0000
0000
,
0000
0000
0000
0000
,
1001
0000
0000
0000
,
0000
0000
0000
0000
,
0001
0000
0001
0000
,
0100
0000
0100
0000
,
0010
0000
0010
0000
,
1000
0000
0000
0000
,
1000
0000
0010
0000
,
1000
0000
1000
0000
,
0010
0000
0010
0000
,
0001
0000
0000
0000
,
0001
0000
0010
0000
,
0001
0000
0001
0000
,
0010
0000
0010
0000
,
1000
0000
0000
0000
,
1000
0000
0100
0000
,
0010
0000
0000
0000
,
0001
0000
0100
0000
,
0010
0000
0000
0000
,
2000
0000
0000
0000
,
3000
0000
0000
0000
,
0002
0000
0000
0000
,
0003
0000
0000
0000
,
1001
0000
0000
0000
,
0000
0000
0000
0000
,
1001
0000
0000
0000
,
0000
0000
0000
0000
,
0001
0000
0000
0000
,
0100
0000
0000
0000
,
1000
0000
0000
0000
,
1001
0000
0000
0000
,
0000
0000
0000
0000
;
#NOTES:
     dance-single:
     :
     Easy:
     7:
     :
0000
0000
0000
0000
,
0000
0000
0000
0000
,
0000
0000
0000
0000
,
0000
0000
0000
0000
,
0000
0000
0000
0000
,
0000
0000
0000
0000
,
0000
0000
0000
0000
,
0000
0000
0000
0000
,
0000
0000
0000
0000
,
2000
0000
0000
0000
,
0000
0000
0000
3000
,
0002
0000
0000
0000
,
0000
0000
0000
0003
,
0200
0000
0000
0000
,
0000
0000
0000
0300
,
0020
0000
0000
0000
,
0000
0000
0000
0030
,
1000
0000
0001
0000
1000
0001
1000
0000
,
0001
1000
0001
0000
,
0100
0000
0010
0000
0100
0010
0100
0000
,
0010
0100
0010
0000
,
1000
0000
0010
0000
1000
0010
1000
0000
,
0001
0100
0001
0000
,
1000
0000
0100
0000
1000
0100
1000
0000
,
0001
0010
0001
0000
,
1001
0000
1000
0100
,
0010
0000
0001
0100
,
0010
0000
1000
0010
,
0100
0000
0001
0010
,
0100
0000
1000
0001
,
0100
0000
0001
1000
,
0020
0000
0000
0030
,
0200
0000
0000
0300
,
0001
0000
0100
0000
0001
1000
0001
0000
,
1000
0100
0010
0000
,
0001
0000
1000
0000
0100
1000
0100
0000
,
0010
0100
1000
0000
,
0001
0000
0100
0000
0010
0100
0010
0000
,
1000
0001
1000
0000
,
0002
0000
0000
0003
,
2000
0000
0000
3000
,
0010
0000
0010
0000
,
0010
0000
0000
0000
,
0100
0000
0100
0000
,
0100
0000
0000
0000
,
0001
0000
0001
0000
,
0001
0000
0000
0000
,
1000
0000
1000
0000
,
1000
0000
0000
0000
,
0001
0010
0100
1000
,
0001
0000
1001
0000
,
1000
0010
0100
0001
,
1000
0000
1001
0000
,
0001
0010
1000
0010
,
0001
0000
1001
0000
,
1000
0010
0001
0010
,
1000
0000
1001
0000
,
0002
0000
0000
0000
,
0003
0000
0000
0000
,
0200
0000
0000
0000
,
0300
0000
0000
0000
,
0020
0000
0000
0000
,
0030
0000
0000
0000
,
2000
0000
0000
0000
,
3000
0000
0000
0000
,
0001
0010
0001
0100
,
0010
1000
0010
0000
1000
0000
0000
0000
,
0001
1000
0100
1000
,
0001
0010
0001
0000
1000
0000
0000
0000
,
0020
0000
0000
0030
,
0200
0000
0000
0300
,
0001
0100
1000
0100
,
0001
0000
1001
0000
,
1000
0100
0010
0000
0001
0000
0000
0000
,
1000
0010
0100
0000
0001
0000
0000
0000
,
0001
0100
0010
0000
1000
0000
0000
0000
,
0001
0010
0100
0000
1000
0000
0000
0000
,
0001
0010
0001
0100
,
0010
1000
0100
0010
,
0002
0000
0000
0003
,
2000
0000
0000
3000
,
1001
0000
0000
0000
,
0000
0000
0000
0000
,
0110
0000
0000
0000
,
0000
0000
0000
0000
,
0002
0000
0000
0003
,
0200
0000
0000
0300
,
0020
0000
0000
0030
,
1000
0000
0000
0000
,
0000
0000
0000
0000
;
#NOTES:
     dance-single:
     :
     Medium:
     11:
     :
0000
0000
0000
0000
,
0000
0000
0000
0000
,
0000
0000
0000
0000
,
0000
0000
0000
0000
,
0000
0000
0000
0000
,
0000
0000
0000
0000
,
0000
0000
0000
0000
,
0000
0000
0000
0000
,
0000
0000
0000
0000
,
0000
1000
0000
1000
0000
0100
0000
0100
,
0000
1000
0000
1000
0000
0001
0000
0001
,
0000
0010
0000
0010
0000
0001
0000
0001
,
0000
0100
0000
0100
0000
0001
0000
0001
,
0000
1000
0000
0100
0000
0010
0000
0100
,
0000
1000
0000
0001
0000
0100
0000
0010
,
0000
0100
0000
0001
0000
0010
0000
0100
,
0000
0000
0000
0000
,
1000
0100
0010
0000
0100
0010
0001
0000
,
1000
0010
0100
0000
0010
0100
0001
0000
,
0001
0100
0010
0000
0100
0010
1000
0000
,
0001
0010
0100
0000
0010
0100
1000
0000
,
0001
1000
0100
0000
0010
0001
1000
0000
,
0001
1000
0010
0000
0100
0001
1000
0000
,
0010
1000
0100
0000
0010
0001
0100
0000
,
0010
1000
0001
0000
0100
0020
0000
0000
,
1030
0000
0001
0000
1000
0100
1000
0001
,
1000
0000
0010
0000
0100
0001
1000
0001
,
0100
0000
0010
0000
1000
0100
0010
0100
,
1000
0000
0001
0000
0010
0100
0010
0000
,
0001
0000
0100
0000
0010
1000
0001
1000
,
0010
0000
0100
0000
0001
0010
0100
0000
,
1000
0000
0001
0000
0100
0010
0100
0000
,
0001
1000
0001
0000
0010
0100
0010
0000
,
0000
0001
1000
0010
0000
0100
0001
1000
,
0000
0100
0001
0100
0000
1000
0010
0100
,
0000
0001
1000
0010
0000
0100
1000
0100
,
0000
0001
0100
0010
0000
1000
0000
0001
,
0000
1000
0001
0010
0000
0100
1000
0001
,
0000
0100
1000
0100
0000
0001
0010
0100
,
0000
1000
0001
0010
0000
0100
0001
0100
,
0000
1000
0100
0010
0000
0001
0000
1000
,
0001
0010
0001
0100
0001
0100
,
0002
0000
1003
0000
,
1000
0010
1000
0100
1000
0100
,
2000
0000
3000
0000
,
1000
0100
0010
0001
0010
0100
,
2000
0000
3000
0000
,
0001
0100
0010
1000
0010
0100
,
0002
0000
0000
1003
0001
1000
,
0100
0010
0100
1000
0001
1000
,
0020
0000
0000
0130
0001
1000
,
0100
0010
0100
1000
0001
1000
,
0002
0000
0003
1001
,
1000
0010
0100
0001
0010
0100
,
2000
0000
0000
3001
0100
0001
,
1000
0100
0010
0001
0100
0010
,
0200
0000
0302
0000
,
2003
0000
0000
3000
,
0200
0000
0000
0300
,
0020
0000
0000
0030
,
0002
0000
0000
0003
,
1000
0100
1000
0100
,
0010
0001
0010
0001
,
1000
0010
1000
0001
0100
0001
,
1000
0001
1000
0001
1000
0000
,
0000
0001
0010
0001
0000
1000
0010
1000
,
0000
0001
0100
0001
0000
1000
0100
1000
,
0000
0001
0010
0100
0000
1000
0100
0010
,
0000
0001
0100
0010
0000
1000
0010
0100
,
0000
0001
1000
0100
0000
0001
0100
1000
,
0000
0001
1000
0010
0000
0001
0010
1000
,
0000
0100
0010
0001
0000
0100
0010
1000
,
0000
0010
0100
0001
0000
1000
0100
1000
,
0001
0010
0001
0010
0001
0100
0001
0000
,
1000
0010
1000
0010
1000
0100
1000
0000
,
0001
0010
0100
1000
0100
0010
0001
0000
,
0100
0010
1000
0100
0010
0001
1000
0000
,
0100
0010
0001
0100
0001
0010
0100
0000
,
1000
0010
1000
0100
1000
0010
0100
0000
,
0001
0000
0000
0000
1000
0000
0000
0000
0001
0000
0000
0000
1000
0000
0000
0010
0000
0000
0100
0000
0000
0000
0000
0000
,
0001
0010
0001
0010
0100
1000
0100
1000
,
0002
0000
0000
0003
,
2000
0000
0000
3000
,
0020
0000
0000
0030
,
0200
0000
0000
0300
,
0002
0000
0000
0003
,
0020
0000
0000
0030
,
0200
0000
0000
0300
,
0110
0000
0000
0000
,
0000
0000
0000
0000
;
#NOTES:
     dance-single:
     :
     Hard:
     14:
     :
0000
0000
0000
0000
,
0000
0000
0000
0000
,
0000
0000
0000
0000
,
0000
0000
0000
0000
,
0000
0000
0000
0000
,
0000
0000
0000
0000
,
0000
0000
0000
0000
,
0000
0000
0000
0000
,
0000
0000
0000
0000
,
0001
1000
0000
1000
0000
1000
0000
1000
,
1000
0001
0000
0001
0000
0001
0000
0001
,
0001
0010
0000
0010
0000
0010
0000
0010
,
0010
0100
0000
0100
0000
0100
0000
0100
,
1000
0100
1000
0000
0100
1000
0100
0000
,
0010
0001
0010
0000
0001
0010
0001
0000
,
0100
0001
0100
0000
0001
0100
0001
0000
,
1000
0000
0000
0000
,
0001
0100
1000
0100
0001
0100
1000
0100
,
0001
0010
1000
0010
0001
0010
1000
0010
,
0001
0100
0010
1000
0001
0100
0010
1000
,
0001
0010
0100
1000
0100
0010
0001
0000
,
1000
0100
0001
0100
1000
0100
0001
0100
,
1000
0010
0001
0010
1000
0010
0001
0010
,
1000
0100
0010
0001
1000
0100
0010
0001
,
1000
0010
0100
0001
0100
0020
0000
0000
,
1030
0000
0100
0000
1000
0000
0100
0000
0010
0000
0001
0000
1000
0001
1000
0000
,
0001
0000
0100
0000
0001
0000
0100
0000
0010
0000
1000
0000
0001
1000
0001
0000
,
0010
0000
0100
0000
0010
0000
0100
0000
1000
0000
0001
0000
0100
0010
0100
0000
,
0001
0000
1000
0000
0001
0000
1000
0100
0010
0000
0001
0000
1000
0000
0000
0000
,
0001
0000
0100
0000
0001
0000
0100
0000
0010
0000
1000
0000
0001
1000
0001
0000
,
1000
0000
0100
0000
1000
0000
0100
0010
0100
0000
0010
0000
0001
0000
1000
0000
,
0010
0000
0100
0000
0010
0000
0100
0000
0001
0000
1000
0000
0100
0010
0100
0000
,
1000
0000
0001
1000
0001
0000
0100
0000
0010
0000
1000
0000
0001
1000
0001
0000
,
1000
0000
0010
0000
0100
0000
0010
0000
1000
0000
0100
0000
0010
0001
0010
0000
,
0001
0000
0100
0000
0010
0000
0100
0000
0001
0000
0010
0000
0100
1000
0100
0000
,
1000
0000
0001
0000
0100
0000
0010
0000
1000
0000
0001
0000
0010
0100
0010
0000
,
0001
0000
1000
0000
0100
0000
0010
0001
0100
0000
0010
0000
1000
0001
1000
0000
,
0001
0000
0100
0000
0010
0000
1000
0000
0100
0000
0010
0000
0001
0010
0100
0000
,
1000
0000
0001
0000
0100
0000
0010
1000
0010
0000
0100
0000
0001
0000
0010
0000
,
1000
0000
0010
0000
0001
0000
0010
0000
1000
0000
0010
0000
0001
1000
0001
0000
,
0100
0000
1000
0000
0100
0010
0100
0000
0001
0000
1000
0000
0100
0010
0100
0000
,
1000
0000
0001
0000
0100
0001
0100
0000
0010
0000
1000
0010
,
2000
0000
0000
3001
1000
1000
,
0100
0000
0010
0000
0100
1000
0100
0000
1000
0000
0010
0000
,
0200
0000
0000
0000
0000
0000
0300
0000
0000
0001
0100
0010
,
1000
0000
0100
0000
1000
0010
0100
0000
0001
0000
0010
0100
,
0020
0000
0000
0130
1000
1000
,
0001
0000
0100
0000
1000
0100
0001
0000
1000
0000
0100
0010
,
0002
0000
0000
1003
1000
1000
,
0001
0010
0011
0001
0100
0110
,
1010
0000
0000
1001
0000
0000
1000
0000
0100
0000
0001
0000
,
0100
0010
0011
0001
1000
1100
,
1001
1010
0110
1001
,
1000
0010
1010
1000
0100
0110
,
0011
0000
0000
1001
0000
0000
0001
0000
0100
0000
1000
0000
,
0100
0010
1010
1000
0001
0101
,
1001
0000
0000
0000
0011
0000
0000
0000
0001
0100
0010
0000
0100
0010
1000
0000
,
0002
0000
0000
0000
,
0023
0000
0000
0000
,
0230
0000
0000
0000
,
2300
0000
0000
0000
,
3001
0000
0000
0000
,
0000
0000
0000
0001
0100
0110
,
0010
1000
1100
0100
0010
0011
,
1010
0011
1010
0011
1001
0000
,
0001
0000
1000
0001
1000
0000
0010
0000
0100
0000
0001
0000
0100
0000
1000
0000
,
0100
0000
0001
0100
0001
0000
0010
0000
0100
0000
1000
0000
0010
0000
0000
0000
,
1000
0000
0001
1000
0001
0000
0010
0000
0100
0000
1000
0000
0100
0000
0001
0000
,
0100
0000
1000
0100
1000
0000
0010
0000
0100
0000
0001
0000
0010
0000
0000
0000
,
0001
0000
1000
0100
1000
0000
0010
0000
0100
0000
0001
0000
0010
0000
0001
0000
,
0100
1000
0100
0001
0010
1000
0010
0000
,
0001
0010
0001
0010
0001
0000
0000
0000
1000
0100
1000
0100
1000
0000
0000
0000
,
0001
1000
0001
1000
0001
0000
0000
0000
1000
0000
0100
0010
0001
0000
0001
0000
,
1000
0000
0010
0000
0100
0000
0001
0000
1000
0000
0010
0100
0001
0000
0100
0010
,
1000
0000
0100
0000
0010
0000
0001
0000
1000
0000
0100
0010
0001
0000
0010
0100
,
1000
0000
0001
0000
0010
0000
1000
0000
0010
0000
0001
1000
0010
0000
1000
0001
,
0010
0000
0100
0000
1000
0000
0010
0000
0100
0000
0001
1000
0100
0000
0000
0000
,
1000
0000
0010
0000
0100
0000
1000
0000
0100
0000
0001
0100
0001
0000
1000
0010
,
1000
0000
0100
0000
0010
0000
0001
0000
0100
0000
0010
1000
0001
0000
0010
0001
,
1000
0000
0000
0000
0010
0000
0000
0000
0100
0000
0000
0000
0001
0000
0000
0010
0000
0000
0100
0000
0000
1000
0000
0000
,
0001
1000
0001
1000
0001
0000
0000
0000
1000
0100
0010
0001
0010
0000
0000
0000
,
0002
0000
0000
0000
,
0023
0000
0000
0000
,
0230
0000
0000
0000
,
2300
0000
0000
0000
,
3020
0000
0000
0000
,
0230
0000
0000
0000
,
0302
0000
0000
0000
,
1003
0000
0000
0000
,
0000
0000
0000
0000
;
#NOTES:
     dance-single:
     :
     Challenge:
     17:
     :
0000
0000
0000
0000
,
0000
0000
0000
0000
,
0000
0000
0000
0000
,
0000
0000
0000
0000
,
0000
0000
0000
0000
,
0000
0000
0000
0000
,
0000
0000
0000
0000
,
0000
0000
0000
0000
,
0000
0000
0000
0000
,
0001
0000
0100
0000
0000
0000
0100
0000
0000
0000
0100
0000
0000
0000
0100
0010
,
1000
0000
0100
0000
0000
0000
0100
0000
0000
0000
0100
0000
0000
0000
0100
0010
,
0001
0000
0010
0000
0000
0000
0010
0000
0000
0000
0010
0000
0000
0000
0010
0100
,
1000
0000
0010
0000
0000
0000
0010
0000
0000
0000
0010
0000
0000
0000
0010
1000
,
0001
0000
0100
0000
0001
0000
0100
0000
0010
0000
1000
0000
0010
0000
1000
0100
,
0010
0000
0001
0000
0010
0000
0001
0000
1000
0000
0100
0000
1000
0000
0001
0100
,
0010
0000
1000
0000
0100
0000
0010
0100
1000
0000
0001
0000
0100
0000
0010
0100
,
0001
0000
0000
0000
,
1000
0000
0001
0100
0001
0000
1000
0100
1000
0000
0001
0010
0001
0000
1000
0010
,
1000
0000
0001
0100
0001
0000
1000
0100
1000
0000
0001
0010
0001
0000
1000
0010
,
1000
0000
0001
0100
0010
0000
0100
0010
1000
0000
0001
1000
0100
0000
1000
0100
,
0010
0000
0100
0010
0001
0000
1000
0001
0010
0000
0001
0010
0100
0000
0010
0001
,
1000
0000
0010
0100
0001
0000
0010
0100
1000
0000
0100
0010
0001
0000
0100
0010
,
1000
0000
0010
1000
0100
0000
0010
0001
0100
0000
0010
1000
0100
0000
0010
0001
,
1000
0010
1000
0010
0100
0001
0100
0001
0010
0001
0010
0001
1000
0100
1000
0100
,
0010
0001
0100
0010
1000
0100
0010
0001
1000
0001
2000
0000
0000
0000
0000
0000
,
3001
0000
1000
0010
1000
0000
0100
1000
0100
0000
1000
0100
0010
0000
0001
0000
,
1000
0000
0001
0010
0001
0000
0100
0001
0100
0000
0001
0010
0100
0000
1000
0000
,
0001
0000
0100
0010
0100
0000
0001
1000
0001
0000
0010
0100
0010
0000
0001
0000
,
1000
0000
0100
0010
0100
0000
0010
0001
1000
0000
0001
0000
0100
0010
1000
0000
,
0001
0000
0100
0010
1000
0000
0001
1000
0100
0000
0010
0100
1000
0000
0001
0000
,
0100
0000
0010
1000
0100
0000
0010
0001
0100
0000
1000
0000
0001
0000
0010
0000
,
1000
0000
0100
0010
0001
0000
0100
0010
1000
0000
0001
1000
0001
0000
0100
0000
,
0010
0000
1000
0001
1000
0000
0100
0000
0010
0000
0001
1000
0001
1000
0001
1000
,
0010
0000
0100
0010
0001
0000
1000
0100
0010
0000
1000
0100
0010
0000
0001
0000
,
0010
0000
0100
0001
1000
0000
0010
0001
1000
0000
0100
0010
0001
0100
0010
0000
,
1000
0000
0010
0100
1000
0000
0100
0010
1000
0000
0100
0010
0001
0000
1000
0000
,
0010
0000
0100
0001
1000
0000
0100
0010
0001
0000
0010
0100
0001
0100
1000
0000
,
0001
0000
0100
1000
0001
0000
0010
1000
0001
0000
0010
0100
0001
0000
0100
0000
,
1000
0000
0010
0100
0001
0000
0010
0100
1000
0000
0010
0000
0001
0000
1000
0000
,
0100
0000
1000
0100
0010
0000
1000
0100
0010
0000
1000
0010
0001
0000
1000
0000
,
0100
0000
0010
0001
0010
0000
0001
0000
0100
0000
0010
1000
0001
1000
0001
0000
,
1000
0001
0100
1000
0100
0001
,
2000
0000
0000
0100
0000
0000
3010
0000
0100
0000
0010
0000
,
1000
0000
0100
0000
0010
0001
0100
0000
0010
0000
1000
0100
,
0020
0000
0000
1000
0000
0000
0031
0000
0000
1000
0001
0010
,
0100
1000
0010
0100
0001
0010
,
0200
0000
0000
0001
0000
0000
1300
0000
0001
0000
0100
0000
,
0010
1000
0100
0010
0001
0100
,
0020
0000
0000
0100
0000
0000
1030
0000
1010
0000
0101
0000
,
0001
0100
0001
1000
0100
1000
0001
0010
0001
1000
0010
1000
,
0100
0000
0000
1001
0000
0000
0001
0000
0100
0010
1000
0000
,
0001
0010
0001
1000
0010
1000
0001
0100
0001
1000
0100
1000
,
0002
0000
0000
0000
1003
0000
0000
0000
0001
0100
0001
0100
0010
1000
0010
1000
,
0001
0100
0010
1000
0010
0100
0001
0010
0100
1000
0100
0010
,
0002
0000
0000
2003
0000
0000
3010
0100
0001
0010
0100
1000
,
0010
0001
0010
1000
0100
0001
1000
0010
0001
0100
1000
0100
,
0002
0000
0000
0000
2003
0000
0000
0000
3001
0010
0100
1000
0001
0100
0010
1000
,
0002
0000
0000
0000
,
2003
0000
0000
0000
,
3020
0000
0000
0000
,
0230
0000
0000
0000
,
0301
0000
0000
0000
,
0000
0000
0000
0000
0000
0000
1000
0100
0010
0001
0100
0010
,
0001
1000
0100
0010
1000
0100
0010
1000
0001
0100
0010
0001
,
0100
0000
0101
0000
1010
0000
0011
0000
0001
2000
0000
0000
,
3001
0010
0100
0010
0001
1000
0010
0000
0100
0001
0100
0010
1000
0001
0010
0000
,
0100
1000
0001
0100
0001
1000
0100
0000
0010
0001
0100
0010
1000
0100
0010
0000
,
0001
0010
0100
0010
1000
0010
0100
0000
1000
0100
0010
0100
0001
0100
0010
0000
,
0001
1000
0010
0100
0001
1000
0100
0000
0010
0001
0100
0010
1000
0100
0010
0000
,
0001
0010
0001
0010
0100
1000
0100
1000
0010
1000
0010
1000
0001
0100
0001
0000
,
1000
0100
0010
0001
1000
0010
0100
0001
1000
0100
0010
0001
0010
0100
1000
0000
,
0001
0100
0010
0100
0001
0010
0100
0010
0001
1000
0100
0010
0001
0100
0010
0000
,
1000
0100
0010
0100
1000
0010
0100
0010
1000
0001
0100
0010
1000
0100
0010
0000
,
0001
1000
0010
0100
0001
1000
0100
0000
0010
0001
0010
1000
0010
0001
1000
0000
,
0010
0100
0001
1000
0010
1000
0001
0000
0100
1000
0100
0001
0100
1000
0100
0000
,
0001
0010
0001
0100
0001
0010
0001
0000
0100
0010
0100
1000
0100
0001
1000
0000
,
0010
1000
0100
1000
0010
1000
0100
0000
0010
0001
0010
1000
0010
0001
1000
0000
,
0001
0100
0001
0100
0010
1000
0010
1000
0100
0001
0100
1000
0001
0010
0100
0000
,
1000
0010
1000
0010
0100
0001
0100
0001
0010
1000
0010
0001
1000
0100
0010
0000
,
0001
0000
0000
0000
0011
0000
0000
0000
1100
0000
0000
0000
1000
0000
0000
0010
0000
0000
0100
0000
0000
0001
0000
0000
,
1000
0000
0000
0010
0000
0000
0001
0000
0000
0010
0000
0000
1000
0000
0000
0100
0000
0000
0001
0000
0000
0000
0000
0000
1000
0000
0000
0010
0000
0000
0001
0000
0000
0100
0000
0000
1000
0000
0000
0000
0100
0000
0000
0000
0001
0000
0000
0000
,
1000
0000
0000
0000
,
0000
0000
0000
0000
,
0100
0000
0000
0000
,
0000
0000
0000
0000
,
0010
0000
0000
0000
,
0000
0000
0000
0000
,
0001
0000
0000
0000
,
1001
0000
0000
0000
,
0000
0000
0000
0000
;
#NOTES:
     dance-double:
     :
     Easy:
     7:
     :
00000000
00000000
00000000
00000000
,
00000000
00000000
00000000
00000000
,
00000000
00000000
00000000
00000000
,
00000000
00000000
00000000
00000000
,
00000000
00000000
00000000
00000000
,
00000000
00000000
00000000
00000000
,
00000000
00000000
00000000
00000000
,
00000000
00000000
00000000
00000000
,
00000000
00000000
00000000
00000000
,
20000000
00000000
00000000
00000000
,
00000000
00000000
00000000
30000000
,
02000000
00000000
00000000
00000000
,
00000000
00000000
00000000
03000000
,
00200000
00000000
00000000
00000000
,
00000000
00000000
00000000
00300000
,
00002000
00000000
00000000
00000000
,
00000000
00000000
00000000
00003000
,
00010000
00001000
00010000
00000100
,
00001000
00000010
00000100
00000001
,
00000010
00000001
00000100
00000010
,
00001000
00000001
00001000
00000000
00000001
00000000
00000000
00000000
,
00001000
00000001
00001000
00000100
,
00010000
00000100
00010000
00001000
,
01000000
00001000
01000000
00010000
,
01000000
00100000
01000000
00000000
00100000
00000000
00000000
00000000
,
10010000
00000000
10000000
00100000
,
01000000
00000000
00010000
01000000
,
00001000
00000000
00010000
00001000
,
00010000
00000000
00000100
00010000
,
00000010
00000000
00001000
00000100
,
00000010
00000000
00000001
00001000
,
00000002
00000000
00000000
00000003
,
00002000
00000000
00000000
00003000
,
00000010
00001000
00000010
00010000
,
00001000
00010000
00001000
00000000
00010000
00000000
00000000
00000000
,
00001000
01000000
00010000
01000000
,
00100000
01000000
00100000
00000000
10000000
00000000
00000000
00000000
,
10000000
01000000
00100000
00010000
,
00100000
01000000
00100000
00000000
00010000
00000000
00000000
00000000
,
00100000
00001000
00010000
00001000
,
00010000
00000100
00010000
00000000
00000100
00000000
00000000
00000000
,
00002000
00000000
00000000
00003000
,
00000002
00000000
00000000
00000003
,
00000200
00000000
00000000
00000300
,
00000020
00000000
00000000
00000030
,
00020000
00000000
00000000
00030000
,
00002000
00000000
00000000
00003000
,
02000000
00000000
00000000
03000000
,
00020000
00000000
00000000
00030000
,
10000000
00100000
01000000
00010000
,
10000000
01000000
00100000
00000000
,
00010000
00100000
00001000
00010000
,
00002000
00000000
00000000
00003000
,
00001000
00010000
00000010
00001000
,
00000100
00000010
00000001
00000000
,
00000100
00000010
00001000
00000001
,
00002000
00000000
00000000
00003000
,
00001001
00000000
00000000
00000000
,
00000001
00000000
00000000
00000000
,
00000100
00000000
00000000
00000000
,
00001000
00000000
00000000
00000000
,
00010000
00000000
00000000
00000000
,
00100000
00000000
00000000
00000000
,
10000000
00000000
00000000
00000000
,
00020000
00000000
00000000
00030000
,
10000000
00100000
01000000
00010000
,
01000000
00010000
01000000
00000000
00001000
00000000
00000000
00000000
,
00010000
00001000
00010000
00000100
,
00001000
00000100
00001000
00000000
00000001
00000000
00000000
00000000
,
00000020
00000000
00000000
00000030
,
00000200
00000000
00000000
00000300
,
00001000
00000001
00000100
00001000
,
00010000
00000000
00011000
00000000
,
00001000
01000000
00001000
00000000
01000000
00000000
00010000
00000000
,
01000000
00100000
10000000
00000000
,
00010000
10000000
00010000
00000000
00100000
00000000
00001000
00000000
,
00010000
00000100
00001000
00000000
,
00000001
00000010
00000001
00000000
00000100
00000000
00000010
00000000
,
00001000
00000100
00001000
00000000
00000100
00000000
00010000
00000000
,
00002000
00000000
00000000
00003000
,
00020000
00000000
00000000
00030000
,
00011000
00000000
00000000
00000000
,
00000000
00000000
00000000
00000000
,
00011000
00000000
00000000
00000000
,
00000000
00000000
00000000
00000000
,
00020000
00000000
00000000
00030000
,
02000000
00000000
00000000
03000000
,
20000000
00000000
00000000
30000000
,
00010000
00000000
00000000
00000000
,
00000000
00000000
00000000
00000000
;
#NOTES:
     dance-double:
     :
     Medium:
     11:
     :
00000000
00000000
00000000
00000000
,
00000000
00000000
00000000
00000000
,
00000000
00000000
00000000
00000000
,
00000000
00000000
00000000
00000000
,
00000000
00000000
00000000
00000000
,
00000000
00000000
00000000
00000000
,
00000000
00000000
00000000
00000000
,
00000000
00000000
00000000
00000000
,
00000000
00000000
00000000
00000000
,
00000000
10000000
00000000
10000000
00000000
00100000
00000000
00100000
,
00000000
01000000
00000000
01000000
00000000
00001000
00000000
00001000
,
00000000
00010000
00000000
00010000
00000000
00000010
00000000
00000010
,
00000000
00000100
00000000
00000100
00000000
00000001
00000000
00000001
,
00000000
00000010
00000000
00000100
00000000
00001000
00000000
00000001
,
00000000
00000100
00000000
00001000
00000000
00010000
00000000
00100000
,
00000000
10000000
00000000
01000000
00000000
00100000
00000000
00010000
,
00000000
00000000
00000000
00000000
,
10000000
01000000
10000000
00000000
00010000
00100000
00010000
00000000
,
01000000
00010000
00100000
00000000
00001000
00010000
00001000
00000000
,
00010000
00000100
00001000
00000000
00000010
00001000
00000100
00000000
,
00000010
00000001
00000010
00000000
00000100
00000000
00001000
00000000
,
00000001
00000100
00000010
00000000
00001000
00000100
00010000
00000000
,
00001000
00010000
00001000
00000000
00100000
00010000
01000000
00000000
,
00010000
10000000
01000000
00000000
00100000
00010000
01000000
00000000
,
00100000
01000000
00010000
00000000
00100000
00002000
00000000
00000000
,
00013000
00000000
00001000
00000000
00010000
00000100
00010000
00000100
,
00001000
00000000
00000010
00000000
00000100
00000001
00001000
00000100
,
00001000
00000000
00000010
00000000
00001000
00000010
00010000
00001000
,
00010000
00000000
00001000
00000000
00100000
00010000
01000000
00000000
,
00100000
00000000
10000000
00000000
00010000
00100000
00010000
00100000
,
01000000
00000000
10000000
00000000
01000000
00010000
01000000
00000000
,
00010000
00000000
00001000
00000000
00010000
00001000
00010000
00000000
,
00001000
00000010
00001000
00000000
00000010
00000001
00000010
00000000
,
00000000
00000001
00001000
00000001
00000000
00000010
00000100
00000010
,
00000000
00000100
00001000
00000100
00000000
00010000
00001000
00010000
,
00000000
00001000
01000000
00001000
00000000
01000000
00010000
01000000
,
00000000
00100000
01000000
00100000
00000000
10000000
00000000
00010000
,
00000000
10000000
01000000
00100000
00000000
01000000
00100000
00010000
,
00000000
00100000
00001000
00010000
00000000
00001000
00010000
00000010
,
00000000
00001000
00000010
00000100
00000000
00000001
00000100
00000010
,
00000000
00001000
00000100
00000010
00000000
00000001
00000000
00001000
,
00000001
00000010
00000100
00000010
00000100
00001000
,
00000200
00000000
00010300
00000000
,
00001000
00010000
00001000
01000000
00010000
01000000
,
00200000
00000000
00300000
00000000
,
10000000
00100000
01000000
00010000
00100000
01000000
,
20000000
00000000
30000000
00000000
,
10000000
01000000
00100000
00010000
00100000
00001000
,
00020000
00000000
00000000
00031000
00010000
00001000
,
00010000
00000010
00001000
00000010
00000100
00000001
,
00002000
00000000
00000000
00003001
00000010
00000100
,
00001000
00000100
00010000
00001000
00100000
00001000
,
00020000
00000000
00030000
00000000
,
00001000
00010000
00001000
01000000
00010000
00100000
,
02000000
00000000
00000000
13000000
00100000
01000000
,
00010000
00100000
00001000
00010000
00000100
00001000
,
00000002
00000000
00000000
00000003
,
00000200
00000000
00000000
00000300
,
00002000
00000000
00000000
00003000
,
00020000
00000000
00000000
00030000
,
00200000
00000000
00000000
00300000
,
10000000
00100000
10000000
01000000
,
00100000
00010000
00100000
01000000
,
00010000
00001000
00010000
00001000
00010000
00001000
,
00000020
00000000
00000000
00000030
,
00000000
00000001
00000010
00000001
00000000
00001000
00000100
00001000
,
00000000
00000100
00010000
00001000
00000000
00100000
00001000
00010000
,
00000000
00001000
01000000
00001000
00000000
01000000
00010000
01000000
,
00000000
00100000
10000000
00010000
00000000
10000000
01000000
00100000
,
00000000
00010000
00100000
01000000
00000000
00010000
00001000
00010000
,
00000000
00001000
00000010
00001000
00000000
00000010
00000001
00001000
,
00000000
00000001
00000100
00000010
00000000
00001000
00000100
00010000
,
00000000
00001000
00010000
00001000
00000000
00100000
00001000
00000000
,
00010000
00001000
00010000
00001000
01000000
00001000
01000000
00000000
,
00010000
01000000
00010000
01000000
00100000
01000000
00100000
00000000
,
10000000
00010000
10000000
00010000
00100000
01000000
00100000
00000000
,
00010000
00100000
00001000
00010000
00001000
00010000
00000010
00000000
,
00001000
00000010
00000100
00000001
00000010
00000100
00001000
00000000
,
00000100
00010000
00001000
00010000
00000100
00010000
00001000
00000000
,
00010000
00000000
00000000
00000000
00001000
00000000
00000000
00000000
01000000
00000000
00000000
00000000
00010000
00000000
00000000
01000000
00000000
00000000
00100000
00000000
00000000
00000000
00000000
00000000
,
10000000
01000000
10000000
01000000
00100000
00010000
00100000
00010000
,
20000000
00000000
00000000
30000000
,
00200000
00000000
00000000
00300000
,
00020000
00000000
00000000
00030000
,
00002000
00000000
00000000
00003000
,
00000200
00000000
00000000
00000300
,
00000002
00000000
00000000
00000003
,
00002000
00000000
00000000
00003000
,
00001001
00000000
00000000
00000000
,
00000000
00000000
00000000
00000000
;
#NOTES:
     dance-double:
     :
     Hard:
     14:
     :
00000000
00000000
00000000
00000000
,
00000000
00000000
00000000
00000000
,
00000000
00000000
00000000
00000000
,
00000000
00000000
00000000
00000000
,
00000000
00000000
00000000
00000000
,
00000000
00000000
00000000
00000000
,
00000000
00000000
00000000
00000000
,
00000000
00000000
00000000
00000000
,
00000000
00000000
00000000
00000000
,
10000000
01000000
00000000
01000000
00000000
01000000
00000000
01000000
,
00100000
00010000
00000000
00010000
00000000
00010000
00000000
00010000
,
00100000
00001000
00000000
00001000
00000000
00001000
00000000
00001000
,
00010000
00000100
00000000
00000100
00000000
00000100
00000000
00000100
,
00000010
00000001
00000010
00000000
00000001
00000100
00000001
00000000
,
00000100
00000010
00000100
00000000
00000010
00001000
00000010
00000000
,
00010000
00000010
00010000
00000000
00001000
00010000
00001000
00000000
,
00010000
00000000
00000000
00000000
,
00001000
00010000
00001000
00010000
00100000
00010000
00100000
00000000
,
10000000
00010000
10000000
00010000
10000000
01000000
10000000
00000000
,
01000000
00010000
01000000
00010000
00001000
00010000
00001000
00000000
,
00000010
00001000
00000010
00001000
00000010
00000001
00000010
00000000
,
00000001
00000100
00000001
00000100
00001000
00000100
00001000
00010000
,
00001000
00010000
00100000
00010000
00100000
10000000
00100000
10000000
,
00010000
10000000
01000000
00100000
00010000
10000000
01000000
00100000
,
00001000
00100000
00001000
00010000
00001000
00020000
00000000
00000000
,
00031000
00000000
00010000
00000000
00000010
00000000
00001000
00000000
00000010
00000000
00000100
00000000
00000010
00001000
00000010
00000000
,
00001000
00000000
00000100
00000000
00001000
00000000
00000100
00000000
00000010
00000000
00000001
00000000
00001000
00000001
00001000
00000000
,
00000001
00000000
00000100
00000000
00000010
00000000
00001000
00000000
00000001
00000000
00000010
00000000
00000100
00001000
00000100
00000000
,
00010000
00000000
00000100
00000000
00010000
00000000
00001000
00010000
00001000
00000000
00100000
00000000
00010000
00000000
00000000
00000000
,
10000000
00000000
00100000
00000000
10000000
00000000
00100000
00000000
01000000
00000000
00010000
00000000
10000000
00010000
10000000
00000000
,
01000000
00000000
00100000
00000000
00010000
00000000
00100000
00001000
00100000
00000000
00001000
00000000
00010000
00000000
00000100
00000000
,
00001000
00000000
00000010
00000000
00000100
00000000
00000010
00000000
00001000
00000000
00000100
00000000
00000010
00000100
00000010
00000000
,
00000001
00000000
00000100
00000010
00000100
00000000
00000001
00000000
00000010
00000000
00000100
00000000
00001000
00000001
00001000
00000000
,
00000001
00000000
00000010
00000000
00000100
00000000
00001000
00000000
00000100
00000000
00010000
00000000
00001000
00010000
00001000
00000000
,
00100000
00000000
00010000
00000000
01000000
00000000
00010000
00000000
00100000
00000000
01000000
00000000
10000000
00010000
10000000
00000000
,
00100000
00000000
01000000
00000000
00010000
00000000
00100000
00000000
00001000
00000000
00010000
00000000
00000010
00001000
00000010
00000000
,
00001000
00000000
00000100
00000000
00000010
00000000
00000001
00001000
00000001
00000000
00000100
00000000
00000010
00001000
00000001
00000000
,
00000010
00000000
00000100
00000000
00001000
00000000
00000010
00000000
00000100
00000000
00001000
00000000
00010000
00001000
00010000
00000000
,
00001000
00000000
00010000
00000000
00100000
00000000
10000000
00010000
10000000
00000000
00100000
00000000
01000000
00000000
00010000
00000000
,
10000000
00000000
01000000
00000000
10000000
00000000
01000000
00000000
00010000
00000000
00001000
00000000
00010000
00001000
00010000
00000000
,
00001000
00000000
00000010
00000000
00001000
00000000
00000010
00000000
00000001
00000000
00001000
00000000
00000001
00000100
00000010
00000000
,
00001000
00000000
00000001
00000000
00000100
00000010
00001000
00000000
00000100
00000000
00010000
00001000
,
00020000
00000000
00000000
00031000
00100000
00010000
,
10000000
00000000
01000000
00000000
00100000
00010000
10000000
00000000
01000000
00000000
00010000
00000000
,
00002000
00000000
00000000
00000000
00000000
00000000
00003000
00000000
00000000
00010000
00001000
00010000
,
00001000
00000000
00000100
00000000
00000001
00001000
00000100
00000000
00000001
00000000
00000100
00000010
,
00000002
00000000
00000000
00001003
00000010
00010000
,
00001000
00000000
00100000
00000000
00010000
01000000
00100000
00000000
10000000
00000000
00010000
00000000
,
20000000
00000000
00000000
30010000
00010000
00010000
,
10000000
00000000
01000000
00000000
10000000
00100000
10000000
00000000
00010000
00000000
01000000
00001000
,
01000000
00000000
00000000
01001000
00000000
00000000
00001000
00000000
00010000
00000000
00000010
00000000
,
00001000
00000000
00000100
00000000
00000010
00000001
00000010
00000000
00000001
00000000
00000100
00000010
,
00002000
00000000
00000000
00000000
00000000
00000000
00003001
00000000
00000000
00000100
00000010
00000100
,
00001000
00000000
00010000
00000000
00001000
01000000
00001000
00000000
00100000
00000000
00010000
00100000
,
01000000
00000000
00000000
10010000
00000000
00000000
10000000
00000000
00100000
00000000
00010000
00000000
,
00001000
00000000
00010000
00000000
00000100
00001000
00000100
00000000
00000010
00000000
00000001
00000000
,
00001000
00000000
00000000
00000000
00001001
00000000
00000000
00000000
00000001
00000100
00000010
00000000
00000100
00000010
00001000
00000000
,
00000002
00000000
00000000
00000000
,
00000023
00000000
00000000
00000000
,
00002030
00000000
00000000
00000000
,
00023000
00000000
00000000
00000000
,
01030000
00000000
00000000
00000000
,
00000000
00000000
00000000
10000000
01000000
01100000
,
00100000
00001000
00011000
00010000
00000010
00001010
,
00001001
00000101
00001001
00001100
00000110
00000000
,
00000010
00000000
00000001
00001000
00000001
00000000
00000100
00000000
00000010
00000000
00001000
00000000
00000100
00000000
00010000
00000000
,
00001000
00000000
01000000
00010000
01000000
00000000
00010000
00000000
00100000
00000000
10000000
00000000
00100000
00000000
00000000
00000000
,
00010000
00000000
01000000
00100000
01000000
00000000
00100000
00000000
10000000
00000000
01000000
00000000
00010000
00000000
00001000
00000000
,
00000010
00000000
00000100
00000010
00000100
00000000
00000010
00000000
00000001
00000000
00001000
00000000
00000010
00000000
00000000
00000000
,
00001000
00000000
00000010
00000100
00000001
00000000
00000010
00000000
00000100
00000000
00010000
00000000
00001000
00000000
00010000
00000000
,
00001000
00000000
01000000
00010000
10000000
00000000
00100000
00000000
01000000
00000000
00010000
00000000
10000000
00000000
00000000
00000000
,
01000000
00100000
01000000
00000000
00100000
00000000
00010000
00000000
01000000
00001000
01000000
00000000
00001000
00000000
00010000
00000000
,
00000010
00010000
00000010
00000000
00001000
00000000
00000100
00000000
00000010
00000001
00001000
00000000
00000001
00000000
00000000
00000000
,
00001000
00000000
00000010
00000000
00000100
00000000
00000001
00000000
00001000
00000000
00000100
00010000
00001000
00000000
00010000
00001000
,
00100000
00000000
00010000
00000000
01000000
00000000
00100000
00000000
10000000
00000000
00010000
01000000
00100000
00000000
10000000
01000000
,
00100000
00000000
00010000
00000000
00100000
00000000
00001000
00000000
00010000
00000000
00000100
00010000
00001000
00000000
00010000
00000010
,
00001000
00000000
00000001
00000000
00000100
00000000
00000010
00000000
00001000
00000000
00000001
00001000
00000100
00000000
00000000
00000000
,
00000010
00000000
00000001
00000000
00000100
00000000
00000010
00000000
00001000
00000000
00000100
00010000
00001000
00000000
00100000
00010000
,
00100000
00000000
00010000
00000000
01000000
00000000
00100000
00000000
10000000
00000000
00010000
00100000
01000000
00000000
10000000
01000000
,
00100000
00000000
00000000
00000000
00001000
00000000
00000000
00000000
00010000
00000000
00000000
00000000
00000100
00000000
00000000
00001000
00000000
00000000
00000001
00000000
00000000
00000000
00000000
00000000
,
00000100
00000010
00000100
00000010
00000100
00000000
00000001
00000000
00001000
00000100
00010000
00000000
00001000
00010000
00001000
00010000
,
00002000
00000000
00000000
00000000
,
00023000
00000000
00000000
00000000
,
00230000
00000000
00000000
00000000
,
20300000
00000000
00000000
00000000
,
32000000
00000000
00000000
00000000
,
03020000
00000000
00000000
00000000
,
00032000
00000000
00000000
00000000
,
00013000
00000000
00000000
00000000
,
00000000
00000000
00000000
00000000
;
#NOTES:
     dance-double:
     :
     Challenge:
     17:
     :
00000000
00000000
00000000
00000000
,
00000000
00000000
00000000
00000000
,
00000000
00000000
00000000
00000000
,
00000000
00000000
00000000
00000000
,
00000000
00000000
00000000
00000000
,
00000000
00000000
00000000
00000000
,
00000000
00000000
00000000
00000000
,
00000000
00000000
00000000
00000000
,
00000000
00000000
00000000
00000000
,
00000000
00000000
10000000
00000000
00000000
00000000
10000000
00000000
00000000
00000000
10000000
00000000
00000000
00000000
10000000
01000000
,
00100000
00000000
00010000
00000000
00000000
00000000
00010000
00000000
00000000
00000000
00010000
00000000
00000000
00000000
00010000
01000000
,
00001000
00000000
00010000
00000000
00000000
00000000
00010000
00000000
00000000
00000000
00010000
00000000
00000000
00000000
00010000
00000010
,
00001000
00000000
00000100
00000000
00000000
00000000
00000100
00000000
00000000
00000000
00000100
00000000
00000000
00000000
00000100
00000010
,
00000001
00000000
00000100
00000000
00000001
00000000
00000100
00000000
00000010
00000000
00001000
00000000
00000010
00000000
00010000
00001000
,
00010000
00000000
00001000
00000000
00010000
00000000
00001000
00000000
01000000
00000000
00010000
00000000
01000000
00000000
00100000
10000000
,
00010000
00000000
00100000
00000000
00010000
00000000
00100000
00000000
00001000
00000000
00010000
00000000
00001000
00000000
00010000
00000100
,
00001000
00000000
00000000
00000000
,
00000001
00000000
00001000
00000010
00001000
00000000
00000001
00000010
00000001
00000000
00001000
00000100
00001000
00000000
00000100
00010000
,
00000100
00000000
00010000
00001000
00010000
00000000
00001000
00100000
00001000
00000000
01000000
00001000
01000000
00000000
00010000
01000000
,
00010000
00000000
00100000
01000000
00100000
00000000
00010000
01000000
00100000
00000000
10000000
00010000
10000000
00000000
01000000
00100000
,
00010000
00000000
00100000
00001000
00100000
00000000
00001000
00010000
00000100
00000000
00001000
00000100
00000010
00000000
00000001
00001000
,
00000001
00000000
00000100
00000010
00001000
00000000
00000100
00000010
00000001
00000000
00000100
00000010
00000100
00000000
00001000
00010000
,
00001000
00000000
01000000
00100000
01000000
00000000
00100000
10000000
00010000
00000000
00100000
01000000
00100000
00000000
00010000
00100000
,
00001000
00010000
00001000
00010000
00000100
00001000
00000100
00001000
00000100
00000010
00000100
00000010
00000001
00001000
00000001
00001000
,
00000100
00001000
00000100
00010000
00001000
00010000
00001000
00010000
00001000
00000000
00020000
00000000
00000000
00000000
00000000
00000000
,
00031000
00000000
01000000
00010000
01000000
00000000
00100000
10000000
00100000
00000000
10000000
01000000
00100000
00000000
00010000
00000000
,
00100000
00000000
00001000
00010000
00001000
00000000
00010000
00000100
00010000
00000000
00000100
00001000
00000100
00000000
00000010
00000000
,
00000001
00000000
00000100
00000010
00000100
00000000
00000010
00001000
00000010
00000000
00010000
00001000
00010000
00000000
00001000
00000000
,
01000000
00000000
00010000
01000000
00100000
00000000
10000000
01000000
00100000
00000000
00010000
00000000
00100000
01000000
00100000
00000000
,
00010000
00000000
10000000
01000000
00100000
00000000
00010000
01000000
00100000
00000000
01000000
00001000
00010000
00000000
00001000
00000000
,
00010000
00000000
00000100
00001000
00000001
00000000
00000100
00000010
00001000
00000000
00000001
00000000
00000010
00000000
00001000
00000000
,
00010000
00000000
01000000
00100000
00010000
00000000
10000000
01000000
00100000
00000000
00010000
00000000
10000000
00000000
00100000
00000000
,
00010000
00000000
00001000
00010000
00001000
00000000
00000100
00000000
00000001
00000000
00001000
00000001
00001000
00000001
00001000
00000000
,
00000010
00000000
00000100
00001000
00010000
00000000
00100000
01000000
00010000
00000000
00100000
01000000
00010000
00000000
01000000
00000000
,
00100000
00000000
00001000
00010000
00000100
00000000
00001000
00000010
00010000
00000000
00001000
00010000
00000100
00000000
00001000
00000000
,
00000010
00000000
00000100
00001000
00010000
00000000
00100000
01000000
00100000
00000000
10000000
00100000
10000000
00000000
00010000
00000000
,
10000000
00000000
01000000
00100000
00010000
00000000
00100000
00001000
00010000
00000000
00000100
00000000
00001000
00000010
00001000
00000000
,
00000001
00000000
00000100
00000010
00000001
00000000
00001000
00000100
00000010
00000000
00001000
00000000
00000010
00000000
00010000
00000000
,
00001000
00000000
01000000
00100000
00010000
00000000
10000000
01000000
00100000
00000000
10000000
00000000
00010000
00000000
00100000
00000000
,
01000000
00000000
10000000
00010000
01000000
00000000
00100000
10000000
00010000
00000000
00100000
00001000
00100000
00000000
00001000
00000000
,
00010000
00000000
00000010
00001000
00000100
00000000
00000010
00000001
00000100
00000000
00000010
00000100
00000010
00000100
00000010
00000000
,
00001000
00000001
00000100
00001000
00010000
00100000
,
20000000
00000000
00000000
30010000
00100000
01000000
,
10000000
00000000
01000000
00000000
00010000
00001000
00000010
00000000
00000001
00000000
00001000
00000100
,
00000020
00000000
00000000
00000000
00000000
00000000
00000031
00000000
00000000
00001000
00000001
00001000
,
00000001
00000000
00000100
00000000
00001000
00010000
00001000
00000000
00010000
00000000
00100000
01000000
,
00200000
00000000
00000000
10300000
00010000
01000000
,
00100000
00000000
10000000
00000000
01000000
00100000
00010000
00000000
00100000
00000000
00001000
00000000
,
00020000
00000000
00000000
00031000
00001000
00001000
,
00010000
00001000
00010000
00000010
00010000
00000010
00001000
00000010
00001000
00000001
00001000
00000001
,
00000200
00000000
00000000
00000000
00000000
00000000
00000301
00000000
00000100
00001000
00010000
00000000
,
00100000
01000000
00100000
10000000
00010000
10000000
01000000
00100000
01000000
10000000
00010000
00100000
,
00002000
00000000
00000000
00000000
00000000
00000000
00000000
00000000
00013000
00000010
00010000
00000010
00001000
00000010
00001000
00000000
,
00000001
00000100
00000010
00001000
00000100
00000010
00000100
00001000
00000100
00010000
00001000
01000000
,
00020000
00000000
00000000
00000000
00000000
00000000
10030000
00100000
01000000
00010000
10000000
01000000
,
00100000
00010000
00100000
00001000
00010000
00001000
00010000
00000010
00001000
00000010
00000100
00000001
,
00002000
00000000
00000000
00000000
00000000
00000000
00000000
00000000
00003001
00000010
00000100
00000010
00000100
00001000
00000100
00010000
,
00002000
00000000
00000000
00000000
,
00023000
00000000
00000000
00000000
,
00230000
00000000
00000000
00000000
,
20300000
00000000
00000000
00000000
,
30010000
00000000
00000000
00000000
,
00000000
00000000
00000000
00000000
00000000
00000000
10000000
00100000
01000000
10000000
01000000
00100000
,
10000000
01000000
00100000
00001000
00010000
00000100
00001000
00000100
00000010
00000001
00000100
00000010
,
00000001
00000010
00001000
00000001
00000100
00001000
00000001
00000010
00001000
00000002
00000000
00000000
,
00000013
00000100
00001000
00000000
00000010
00000100
00000001
00000000
00000010
00000100
00001000
00000100
00010000
00001000
00010000
00000000
,
00001000
00100000
00010000
00000000
01000000
00010000
10000000
00000000
00100000
01000000
00010000
01000000
00100000
10000000
00010000
00000000
,
10000000
01000000
00100000
00000000
01000000
10000000
00010000
00000000
01000000
00100000
01000000
00010000
01000000
00001000
00010000
00000000
,
00001000
00100000
00001000
00000000
00010000
00001000
00010000
00000000
00001000
00010000
00000010
00001000
00000010
00000100
00000001
00000000
,
00000010
00000001
00000010
00000001
00001000
00000100
00001000
00000000
00000100
00010000
00000100
00010000
00001000
00010000
00001000
00000000
,
01000000
00001000
01000000
00010000
01000000
00100000
01000000
00000000
00100000
10000000
00010000
10000000
00010000
01000000
00001000
00000000
,
00100000
00001000
00100000
00001000
00010000
00001000
00010000
00001000
00010000
00000100
00001000
00000100
00010000
00000100
00001000
00000000
,
00000010
00001000
00000100
00000010
00000001
00001000
00000010
00000100
00000001
00000010
00000100
00001000
00000100
00010000
00001000
00000000
,
00010000
00001000
01000000
00010000
01000000
00100000
10000000
00000000
00010000
10000000
01000000
00100000
00010000
00100000
00001000
00000000
,
00010000
00000100
00010000
00000010
00001000
00000010
00000100
00000000
00000001
00000010
00000100
00001000
00000100
00000010
00000001
00000000
,
00000100
00000010
00001000
00000100
00010000
00001000
00010000
00000000
00001000
00100000
00010000
01000000
00100000
10000000
00100000
00000000
,
10000000
00010000
01000000
00100000
01000000
00010000
10000000
00000000
01000000
00100000
00010000
00100000
00001000
00100000
00001000
00000000
,
00010000
00000100
00010000
00000010
00001000
00000010
00000100
00000001
00000100
00000010
00001000
00000010
00010000
00001000
00010000
00000000
,
00001000
00100000
00001000
01000000
00010000
01000000
00010000
00100000
01000000
10000000
00010000
01000000
00100000
10000000
00010000
00000000
,
10000000
00000000
00000000
00000000
11000000
00000000
00000000
00000000
00110000
00000000
00000000
00000000
00010000
00000000
00000000
00100000
00000000
00000000
00001000
00000000
00000000
00010000
00000000
00000000
,
00000010
00000000
00000000
00001000
00000000
00000000
00000010
00000000
00000000
00000100
00000000
00000000
00000010
00000000
00000000
00000001
00000000
00000000
00000010
00000000
00000000
00000000
00000000
00000000
00001000
00000000
00000000
00000010
00000000
00000000
00010000
00000000
00000000
00001000
00000000
00000000
01000000
00000000
00000000
00000000
00010000
00000000
00000000
00000000
10000000
00000000
00000000
00000000
,
01000000
00000000
00000000
00000000
,
00000000
00000000
00000000
00000000
,
00010000
00000000
00000000
00000000
,
00000000
00000000
00000000
00000000
,
00001000
00000000
00000000
00000000
,
00000000
00000000
00000000
00000000
,
00000010
00000000
00000000
00000000
,
00000110
00000000
00000000
00000000
,
00000000
00000000
00000000
00000000
;
